osu file format v14

[General]
AudioFilename: audio.mp3
AudioLeadIn: 0
PreviewTime: 20630
Countdown: 0
SampleSet: Soft
StackLeniency: 0.7
Mode: 0
LetterboxInBreaks: 0
EpilepsyWarning: 1
WidescreenStoryboard: 1

[Editor]
DistanceSpacing: 2.4
BeatDivisor: 4
GridSize: 4
TimelineZoom: 1.7

[Metadata]
Title:Already Dead
TitleUnicode:Already Dead (Omae Wa Mou) (prod. deadman 死人)
Artist:Lil Boom
ArtistUnicode:Lil Boom
Creator:GhostFY
Version:This song give me Autism
Source:
Tags:
BeatmapID:2189415
BeatmapSetID:1047435

[Difficulty]
HPDrainRate:6
CircleSize:4
OverallDifficulty:7
ApproachRate:8.5
SliderMultiplier:1.4
SliderTickRate:1

[Events]
//Background and Video events
0,0,"bg.jpg",0,0
//Break Periods
//Storyboard Layer 0 (Background)
//Storyboard Layer 1 (Fail)
//Storyboard Layer 2 (Pass)
//Storyboard Layer 3 (Foreground)
//Storyboard Layer 4 (Overlay)
//Storyboard Sound Samples
Sample,17404,0,"soft-hitclap.wav",30
Sample,63855,0,"soft-hitclap.wav",40
Sample,90952,0,"soft-hitclap.wav",40

[TimingPoints]
-15,645.161290322581,4,2,1,30,1,0
20629,-66.6666666666667,4,2,1,40,0,1
39990,-66.6666666666667,4,2,1,40,0,0
41280,-66.6666666666667,4,2,1,40,0,1
61919,-100,4,2,1,40,0,0
72243,-66.6666666666667,4,2,1,40,0,1
92888,-100,4,2,1,40,0,0
103210,-100,4,2,1,10,0,0
112243,-100,4,2,1,30,0,0

[HitObjects]
120,119,10306,6,0,L|140:211,1,70,0|0,0:0|0:0,0:0:0:0:
204,234,10790,1,0,0:0:0:0:
282,204,10951,2,0,P|327:192|372:197,1,70,8|0,0:0|0:0,0:0:0:0:
398,31,11596,2,0,P|346:40|314:35,1,70,0|0,0:0|0:0,0:0:0:0:
245,27,12080,1,0,0:0:0:0:
163,4,12242,2,0,L|153:93,1,70,8|0,0:0|0:0,0:0:0:0:
224,311,12887,6,0,L|228:229,1,70,0|0,0:0|0:0,0:0:0:0:
303,204,13371,1,0,0:0:0:0:
377,241,13532,2,0,P|413:250|453:247,1,70,8|0,0:0|0:0,0:0:0:0:
423,167,14016,2,0,L|430:92,1,70,0|0,0:0|0:0,0:0:0:0:
367,40,14500,2,0,L|315:34,1,35,0|0,0:0|0:0,0:0:0:0:
255,70,14822,2,0,P|199:83|168:74,1,70,8|0,0:0|0:0,0:0:0:0:
57,187,15467,6,0,L|68:286,1,70,0|0,0:0|0:0,0:0:0:0:
74,340,15951,1,0,0:0:0:0:
142,290,16113,2,0,P|188:280|225:286,1,70,8|0,0:0|0:0,0:0:0:0:
331,164,16758,2,0,P|282:169|241:157,1,70,0|0,0:0|0:0,0:0:0:0:
197,110,17242,2,0,L|196:40,1,70,0|0,0:0|0:0,0:0:0:0:
138,173,17725,2,0,L|134:271,1,70,0|0,0:0|0:0,0:0:0:0:
294,336,18371,6,0,L|348:321,1,35,0|0,0:0|0:0,0:0:0:0:
408,302,18693,2,0,P|388:263|377:221,1,70,8|0,0:0|0:0,0:0:0:0:
397,155,19177,1,0,0:0:0:0:
397,155,19258,1,0,0:0:0:0:
397,155,19338,1,0,0:0:0:0:
256,192,19500,12,0,20306,0:0:0:0:
142,77,20629,6,0,P|185:64|206:66,1,52.5000020027161,6|0,0:0|0:0,0:0:0:0:
89,148,20951,2,0,P|53:107|46:65,1,52.5000020027161,0|0,0:0|0:0,0:0:0:0:
167,189,21274,1,8,0:0:0:0:
161,279,21435,1,0,0:0:0:0:
333,190,21596,1,2,0:0:0:0:
253,144,21758,1,0,0:0:0:0:
259,327,21919,6,0,P|300:310|322:278,1,52.5000020027161,2|0,0:3|0:0,0:0:0:0:
394,106,22242,1,2,0:0:0:0:
421,245,22403,2,0,B|426:216|426:216|418:179,1,52.5000020027161,0|8,0:0|0:0,0:0:0:0:
383,42,22725,1,0,0:0:0:0:
292,24,22887,1,0,0:0:0:0:
233,91,23048,1,0,0:0:0:0:
324,114,23209,6,0,P|363:98|393:70,1,52.5000020027161,2|0,0:0|0:0,0:0:0:0:
260,182,23532,2,0,P|260:227|274:269,1,52.5000020027161,0|0,0:0|0:0,0:0:0:0:
310,318,23854,2,0,L|176:304,1,105.000004005432,8|2,0:0|0:0,0:0:0:0:
113,294,24338,1,0,0:0:0:0:
143,124,24500,2,0,P|165:170|163:239,1,105.000004005432,2|2,0:3|0:0,0:0:0:0:
57,111,24984,2,0,P|76:71|92:54,1,52.5000020027161,0|8,0:0|0:0,0:0:0:0:
270,34,25306,5,0,0:0:0:0:
341,88,25467,1,0,0:0:0:0:
260,124,25629,1,0,0:0:0:0:
332,183,25790,2,0,P|364:249|414:300,1,105.000004005432,2|0,0:0|0:0,0:0:0:0:
440,292,26274,2,0,P|405:287|380:276,1,52.5000020027161,0|8,0:0|0:0,0:0:0:0:
242,350,26596,5,0,0:0:0:0:
171,296,26757,1,2,0:0:0:0:
252,260,26919,1,0,0:0:0:0:
180,201,27080,2,0,P|148:135|98:84,1,105.000004005432,2|2,0:3|0:0,0:0:0:0:
72,92,27564,2,0,P|107:97|132:108,1,52.5000020027161,0|8,0:0|0:0,0:0:0:0:
212,71,27887,1,0,0:0:0:0:
356,54,28048,2,0,P|321:49|296:38,1,52.5000020027161,0|0,0:0|0:0,0:0:0:0:
398,170,28371,6,0,P|405:138|424:185,1,105.000004005432,2|0,0:0|0:0,0:0:0:0:
296,253,28854,1,0,0:0:0:0:
345,314,29016,2,0,P|309:334|280:334,1,52.5000020027161,8|0,0:0|0:0,0:0:0:0:
118,328,29338,1,2,0:0:0:0:
55,271,29500,2,0,P|104:244|182:269,1,105.000004005432,0|0,0:0|0:0,0:0:0:0:
216,330,29984,2,0,L|229:261,1,52.5000020027161,2|0,0:0|0:0,0:0:0:0:
311,111,30306,5,8,0:0:0:0:
201,273,30467,1,0,0:0:0:0:
175,137,30629,1,0,0:0:0:0:
337,247,30790,1,0,0:0:0:0:
383,65,30951,6,0,P|359:40|331:31,1,52.5000020027161,2|0,0:0|0:0,0:0:0:0:
176,33,31274,1,0,0:0:0:0:
174,171,31435,2,0,L|176:95,1,52.5000020027161,0|8,0:0|0:0,0:0:0:0:
352,198,31758,2,0,P|376:216|415:231,1,52.5000020027161,0|2,0:0|0:0,0:0:0:0:
259,246,32080,1,0,0:0:0:0:
175,309,32242,6,0,P|140:332|63:329,1,105.000004005432,2|2,0:3|0:0,0:0:0:0:
266,335,32725,2,0,L|334:335,1,52.5000020027161,0|8,0:0|0:0,0:0:0:0:
446,277,33048,2,0,L|388:279,1,52.5000020027161,0|0,0:0|0:0,0:0:0:0:
320,217,33371,6,0,B|313:186|327:163|327:163|342:131|331:84,1,105.000004005432,0|0,0:0|0:0,0:0:0:0:
192,41,33854,1,0,0:0:0:0:
191,125,34016,2,0,P|217:120|240:108,1,52.5000020027161,0|8,0:0|0:0,0:0:0:0:
109,141,34338,2,0,P|122:176|148:197,1,52.5000020027161,0|2,0:0|0:0,0:0:0:0:
63,76,34661,2,0,P|39:97|27:131,1,52.5000020027161,0|2,0:0|0:3,0:0:0:0:
108,268,34983,1,0,0:0:0:0:
50,203,35144,1,2,0:0:0:0:
88,347,35305,1,0,0:0:0:0:
190,239,35467,2,0,P|226:232|282:241,1,52.5000020027161,8|0,0:0|0:0,0:0:0:0:
321,246,35790,1,0,0:0:0:0:
396,90,35951,1,0,0:0:0:0:
396,90,36113,6,0,P|404:157|376:223,1,105.000004005432,2|0,0:0|0:0,0:0:0:0:
259,79,36596,2,0,P|289:60|316:59,1,52.5000020027161,0|8,0:0|0:0,0:0:0:0:
144,121,36919,2,0,P|181:129|202:149,1,52.5000020027161,0|2,0:0|0:0,0:0:0:0:
52,83,37242,2,0,B|48:120|48:120|61:159|61:159|57:198,1,105.000004005432,0|0,0:0|0:0,0:0:0:0:
37,315,37725,1,2,0:0:0:0:
192,193,37887,1,0,0:0:0:0:
184,209,38048,1,8,0:0:0:0:
306,139,38209,1,0,0:0:0:0:
322,234,38371,1,0,0:0:0:0:
421,57,38532,1,0,0:0:0:0:
441,285,38693,6,0,P|425:324|390:354,1,52.5000020027161,2|0,0:0|0:0,0:0:0:0:
255,338,39016,1,0,0:0:0:0:
426,235,39177,2,0,P|439:268|436:315,1,52.5000020027161,0|8,0:0|0:0,0:0:0:0:
255,337,39500,2,0,P|262:304|285:274,1,52.5000020027161,0|2,0:0|0:0,0:0:0:0:
379,174,39822,5,2,0:3:0:0:
371,179,40145,5,2,0:3:0:0:
375,187,40467,5,2,0:3:0:0:
382,180,40790,5,2,0:3:0:0:
376,179,41275,6,0,P|339:166|285:176,1,52.5000020027161,6|0,0:0|0:0,0:0:0:0:
186,267,41596,2,0,P|220:277|258:277,1,52.5000020027161,0|0,0:0|0:0,0:0:0:0:
132,95,41919,1,8,0:0:0:0:
125,186,42080,1,0,0:0:0:0:
219,195,42242,1,2,0:0:0:0:
226,104,42403,1,0,0:0:0:0:
42,40,42564,6,0,L|37:123,1,52.5000020027161,2|0,0:3|0:0,0:0:0:0:
29,281,42887,1,2,0:0:0:0:
130,299,43048,2,0,P|171:299|219:279,1,52.5000020027161,0|8,0:0|0:0,0:0:0:0:
223,123,43371,1,0,0:0:0:0:
161,196,43532,1,0,0:0:0:0:
253,219,43693,1,0,0:0:0:0:
319,148,43854,6,0,L|373:138,1,52.5000020027161,2|0,0:0|0:0,0:0:0:0:
201,32,44177,2,0,P|202:61|220:111,1,52.5000020027161,0|0,0:0|0:0,0:0:0:0:
97,65,44500,2,0,P|102:133|88:212,1,105.000004005432,8|2,0:0|0:0,0:0:0:0:
62,273,44984,1,0,0:0:0:0:
268,262,45145,2,0,B|242:269|214:258|214:258|174:242|142:267,1,105.000004005432,2|2,0:3|0:0,0:0:0:0:
326,323,45629,2,0,P|351:294|358:269,1,52.5000020027161,0|8,0:0|0:0,0:0:0:0:
395,95,45951,5,0,0:0:0:0:
344,174,46113,1,0,0:0:0:0:
295,95,46274,1,0,0:0:0:0:
441,180,46435,2,0,B|453:235|453:235|431:311,1,105.000004005432,2|0,0:0|0:0,0:0:0:0:
302,350,46919,2,0,P|303:313|330:267,1,52.5000020027161,0|8,0:0|0:0,0:0:0:0:
117,289,47242,5,0,0:0:0:0:
168,210,47404,1,2,0:0:0:0:
217,289,47565,1,0,0:0:0:0:
71,204,47725,2,0,B|59:149|59:149|81:73,1,105.000004005432,2|2,0:3|0:0,0:0:0:0:
210,34,48209,2,0,P|209:71|182:117,1,52.5000020027161,0|8,0:0|0:0,0:0:0:0:
145,153,48532,1,0,0:0:0:0:
212,274,48693,2,0,P|211:237|184:191,1,52.5000020027161,0|0,0:0|0:0,0:0:0:0:
75,45,49016,6,0,P|51:50|89:64,1,105.000004005432,2|0,0:0|0:0,0:0:0:0:
231,32,49500,1,0,0:0:0:0:
366,94,49661,2,0,P|393:97|429:89,1,52.5000020027161,8|0,0:0|0:0,0:0:0:0:
289,238,49984,1,2,0:0:0:0:
240,172,50145,6,0,P|294:158|367:204,1,105.000004005432,0|0,0:0|0:0,0:0:0:0:
164,216,50629,2,0,L|158:133,1,52.5000020027161,2|0,0:0|0:0,0:0:0:0:
184,119,50951,1,8,0:0:0:0:
328,265,51113,1,0,0:0:0:0:
183,264,51274,1,0,0:0:0:0:
329,120,51435,1,0,0:0:0:0:
387,334,51596,6,0,P|356:349|313:351,1,52.5000020027161,2|0,0:0|0:0,0:0:0:0:
253,357,51919,1,0,0:0:0:0:
91,214,52080,2,0,P|139:214|166:229,1,52.5000020027161,0|8,0:0|0:0,0:0:0:0:
270,160,52403,2,0,P|222:160|195:145,1,52.5000020027161,0|2,0:0|0:0,0:0:0:0:
148,102,52725,1,0,0:0:0:0:
344,111,52887,2,0,P|356:157|339:214,1,105.000004005432,2|2,0:3|0:0,0:0:0:0:
260,262,53371,2,0,L|180:267,1,52.5000020027161,0|8,0:0|0:0,0:0:0:0:
344,309,53693,2,0,L|405:306,1,52.5000020027161,0|0,0:0|0:0,0:0:0:0:
143,200,54016,6,0,B|86:191|86:191|25:199,1,105.000004005432,0|0,0:0|0:0,0:0:0:0:
86,275,54500,1,0,0:0:0:0:
12,119,54661,2,0,L|-20:61,1,52.5000020027161,0|8,0:0|0:0,0:0:0:0:
205,84,54984,2,0,L|161:146,1,52.5000020027161,0|2,0:0|0:0,0:0:0:0:
96,89,55306,2,0,L|96:22,1,52.5000020027161,0|2,0:0|0:3,0:0:0:0:
279,161,55629,1,0,0:0:0:0:
214,222,55790,1,2,0:0:0:0:
259,79,55951,1,0,0:0:0:0:
363,192,56113,2,0,P|376:231|374:271,1,52.5000020027161,8|0,0:0|0:0,0:0:0:0:
371,327,56434,1,0,0:0:0:0:
186,251,56596,1,0,0:0:0:0:
186,251,56758,6,0,P|244:236|311:239,1,105.000004005432,2|0,0:0|0:0,0:0:0:0:
188,335,57242,2,0,P|127:342|106:336,1,52.5000020027161,0|8,0:0|0:0,0:0:0:0:
61,214,57564,2,0,P|103:203|150:214,1,52.5000020027161,0|2,0:0|0:0,0:0:0:0:
6,303,57887,2,0,L|-1:160,1,105.000004005432,0|0,0:0|0:0,0:0:0:0:
0,115,58371,1,2,0:0:0:0:
178,84,58532,1,0,0:0:0:0:
203,79,58693,1,8,0:0:0:0:
257,200,58854,1,0,0:0:0:0:
122,174,59016,1,0,0:0:0:0:
91,330,59177,1,0,0:0:0:0:
308,301,59338,6,0,L|380:290,1,52.5000020027161,2|0,0:0|0:0,0:0:0:0:
91,330,59661,1,0,0:0:0:0:
309,302,59822,2,0,L|249:311,1,52.5000020027161,0|8,0:0|0:0,0:0:0:0:
95,333,60145,2,0,L|186:319,1,52.5000020027161,0|2,0:0|0:0,0:0:0:0:
112,152,60468,6,0,L|95:252,1,52.5000020027161,0|2,0:0|0:3,0:0:0:0:
214,96,60790,2,0,L|220:170,1,52.5000020027161,0|2,0:0|0:0,0:0:0:0:
292,269,61113,2,0,L|275:369,1,52.5000020027161,0|8,0:0|0:0,0:0:0:0:
394,213,61435,2,0,L|400:287,1,52.5000020027161,0|0,0:0|0:0,0:0:0:0:
431,132,61758,1,0,0:0:0:0:
431,132,61919,6,0,L|345:134,1,70,2|0,0:0|0:0,0:0:0:0:
143,56,62564,2,0,P|179:54|223:75,1,70,8|2,0:0|0:0,0:0:0:0:
272,134,63048,1,0,0:0:0:0:
195,190,63209,2,0,P|159:192|115:171,1,70,0|2,0:0|0:0,0:0:0:0:
38,221,63693,2,0,L|17:306,1,70,0|0,0:0|0:0,0:0:0:0:
164,350,64177,1,0,0:0:0:0:
218,287,64338,6,0,P|160:267|123:280,1,70,0|0,0:0|0:0,0:0:0:0:
295,362,64822,2,0,L|320:312,1,35,0|0,0:0|0:0,0:0:0:0:
380,200,65145,2,0,L|356:249,1,35,8|0,0:0|0:0,0:0:0:0:
404,316,65467,1,2,0:0:0:0:
469,171,65629,2,0,P|448:135|411:110,1,70,0|0,0:0|0:0,0:0:0:0:
346,84,66113,2,0,L|305:81,1,35,2|0,0:0|0:0,0:0:0:0:
101,68,66435,5,8,0:0:0:0:
157,4,66596,1,0,0:0:0:0:
236,38,66758,1,0,0:0:0:0:
230,125,66919,1,0,0:0:0:0:
142,145,67080,2,0,P|130:185|130:215,1,70,2|0,0:0|0:0,0:0:0:0:
204,278,67564,2,0,L|264:275,1,35,0|8,0:0|0:0,0:0:0:0:
85,331,67887,2,0,L|145:335,1,35,0|2,0:0|0:0,0:0:0:0:
331,337,68209,6,0,P|341:299|338:251,1,70,0|0,0:0|0:0,0:0:0:0:
302,149,68693,1,2,0:0:0:0:
324,147,68854,1,0,0:0:0:0:
383,48,69016,1,8,0:0:0:0:
298,20,69177,1,0,0:0:0:0:
222,69,69338,1,0,0:0:0:0:
105,165,69500,1,0,0:0:0:0:
105,165,69661,6,0,B|140:157|140:157|196:169,1,70,2|0,0:0|0:0,0:0:0:0:
240,269,70145,2,0,L|235:223,1,35,0|8,0:0|0:0,0:0:0:0:
304,159,70467,2,0,L|310:118,1,35,0|2,0:0|0:0,0:0:0:0:
370,309,70790,6,0,L|334:267,1,35,2|8,0:3|0:0,0:0:0:0:
426,243,71113,1,2,0:3:0:0:
512,265,71274,2,0,L|493:303,1,35,0|2,0:0|0:3,0:0:0:0:
426,243,71596,1,0,0:0:0:0:
403,162,71758,2,0,L|459:158,1,35,2|8,0:3|0:3,0:0:0:0:
441,154,72243,6,0,P|431:113|442:47,1,105.000004005432,6|0,0:0|0:0,0:0:0:0:
350,11,72726,1,0,0:0:0:0:
283,84,72888,2,0,P|252:101|204:110,1,52.5000020027161,8|0,0:0|0:0,0:0:0:0:
84,119,73210,1,2,0:0:0:0:
175,223,73372,2,0,L|163:154,1,52.5000020027161,0|2,0:0|0:3,0:0:0:0:
203,342,73694,2,0,L|133:386,1,52.5000020027161,0|2,0:0|0:0,0:0:0:0:
293,261,74017,2,0,L|368:294,1,52.5000020027161,0|8,0:0|0:0,0:0:0:0:
441,244,74339,1,0,0:0:0:0:
417,98,74501,1,0,0:0:0:0:
360,43,74662,6,0,P|408:18|480:48,1,105.000004005432,0|0,0:0|0:0,0:0:0:0:
362,208,75146,2,0,P|326:201|296:177,1,52.5000020027161,0|0,0:0|0:0,0:0:0:0:
256,256,75468,1,8,0:0:0:0:
150,208,75630,2,0,P|186:201|216:177,1,52.5000020027161,0|2,0:0|0:0,0:0:0:0:
152,43,75952,2,0,P|104:18|32:48,1,105.000004005432,0|0,0:0|0:0,0:0:0:0:
120,212,76436,1,2,0:0:0:0:
96,95,76597,1,0,0:0:0:0:
45,277,76759,5,8,0:0:0:0:
241,344,76920,1,0,0:0:0:0:
134,338,77081,1,0,0:0:0:0:
340,287,77243,1,0,0:0:0:0:
397,196,77404,2,0,P|397:148|382:87,1,105.000004005432,2|0,0:0|0:0,0:0:0:0:
309,50,77888,1,0,0:0:0:0:
271,344,78049,5,8,0:0:0:0:
467,277,78210,1,0,0:0:0:0:
172,287,78372,1,2,0:0:0:0:
378,338,78533,1,0,0:0:0:0:
115,196,78694,2,0,P|115:148|130:87,1,105.000004005432,2|2,0:3|0:0,0:0:0:0:
319,95,79178,2,0,L|317:165,1,52.5000020027161,0|8,0:0|0:0,0:0:0:0:
274,23,79501,2,0,B|306:19|325:5|325:5|345:26|408:31,1,105.000004005432,2|2,0:3|0:3,0:0:0:0:
456,190,79985,6,0,P|420:209|378:218,1,52.5000020027161,2|0,0:0|0:0,0:0:0:0:
315,232,80307,1,0,0:0:0:0:
197,148,80468,2,0,P|219:180|256:202,1,52.5000020027161,0|8,0:0|0:0,0:0:0:0:
456,190,80791,2,0,P|420:209|378:218,1,52.5000020027161,0|2,0:0|0:0,0:0:0:0:
94,280,81114,2,0,P|122:252|154:240,1,52.5000020027161,0|2,0:0|0:3,0:0:0:0:
256,340,81436,2,0,L|256:268,1,52.5000020027161,0|2,0:0|0:0,0:0:0:0:
418,280,81759,2,0,P|390:252|358:240,1,52.5000020027161,0|8,0:0|0:0,0:0:0:0:
202,168,82081,2,0,B|255:181|255:181|311:170,1,105.000004005432,0|0,0:0|0:0,0:0:0:0:
315,168,82485,1,0,0:0:0:0:
327,164,82565,6,0,L|350:46,1,105.000004005432,2|0,0:0|0:0,0:0:0:0:
257,32,83049,1,0,0:0:0:0:
167,52,83210,2,0,P|132:61|84:55,1,52.5000020027161,8|0,0:0|0:0,0:0:0:0:
79,199,83533,1,2,0:0:0:0:
139,141,83694,2,0,P|161:205|139:264,1,105.000004005432,0|0,0:0|0:0,0:0:0:0:
48,352,84178,1,2,0:0:0:0:
131,321,84339,2,0,L|185:335,1,52.5000020027161,0|8,0:0|0:0,0:0:0:0:
280,337,84662,2,0,L|344:320,1,52.5000020027161,0|0,0:0|0:0,0:0:0:0:
487,266,84985,2,0,L|447:246,1,26.2500010013581,0|0,0:0|0:0,0:0:0:0:
423,229,85146,6,0,P|408:175|417:124,1,105.000004005432,2|0,0:0|0:0,0:0:0:0:
471,54,85630,1,0,0:0:0:0:
325,51,85791,2,0,L|343:125,1,52.5000020027161,8|0,0:0|0:0,0:0:0:0:
174,102,86114,2,0,L|187:51,1,52.5000020027161,2|0,0:0|0:0,0:0:0:0:
225,173,86436,2,0,P|165:187|116:164,1,105.000004005432,2|2,0:3|0:0,0:0:0:0:
40,105,86920,2,0,L|41:170,1,52.5000020027161,0|8,0:0|0:0,0:0:0:0:
45,330,87243,5,0,0:0:0:0:
101,321,87404,1,0,0:0:0:0:
198,249,87565,1,0,0:0:0:0:
196,107,87726,2,0,B|175:23|175:23|175:41|164:63,1,105.000004005432,2|0,0:0|0:0,0:0:0:0:
138,175,88210,1,0,0:0:0:0:
383,107,88372,1,8,0:0:0:0:
307,75,88533,2,0,L|298:155,1,52.5000020027161,0|2,0:0|0:0,0:0:0:0:
352,285,88855,2,0,P|374:231|334:167,1,105.000004005432,0|0,0:0|0:0,0:0:0:0:
161,263,89339,1,2,0:0:0:0:
248,258,89501,1,0,0:0:0:0:
206,336,89662,2,0,L|145:343,1,52.5000020027161,8|2,0:0|0:3,0:0:0:0:
35,219,89985,2,0,L|97:211,1,52.5000020027161,0|2,0:0|0:3,0:0:0:0:
269,62,90307,6,0,B|216:73|216:73|150:69,1,105.000004005432,2|0,0:0|0:0,0:0:0:0:
269,62,90791,2,0,B|322:51|322:51|388:55,1,105.000004005432,0|0,0:0|0:0,0:0:0:0:
472,69,91275,1,2,0:0:0:0:
376,201,91436,2,0,P|349:186|336:165,1,52.5000020027161,0|0,0:0|0:0,0:0:0:0:
178,328,91759,2,0,L|170:261,1,52.5000020027161,0|2,0:0|0:0,0:0:0:0:
396,319,92081,2,0,P|364:316|330:328,1,52.5000020027161,0|8,0:0|0:0,0:0:0:0:
117,148,92404,1,0,0:0:0:0:
237,207,92565,1,0,0:0:0:0:
195,299,92726,1,0,0:0:0:0:
162,319,92888,6,0,L|239:314,1,70,2|2,0:0|0:3,0:0:0:0:
315,307,93372,1,0,0:0:0:0:
376,250,93533,1,0,0:0:0:0:
376,250,93694,2,0,P|371:198|360:171,1,70,2|2,0:3|0:3,0:0:0:0:
224,44,94178,2,0,P|229:96|240:123,1,70,0|2,0:0|0:3,0:0:0:0:
280,183,94662,1,0,0:0:0:0:
196,187,94823,1,0,0:0:0:0:
196,187,94985,2,0,L|119:199,1,70,2|2,0:3|0:3,0:0:0:0:
100,345,95468,6,0,L|177:333,1,70,0|2,0:0|0:3,0:0:0:0:
252,320,95952,1,0,0:0:0:0:
333,341,96114,1,0,0:0:0:0:
333,341,96275,2,0,B|355:308|355:308|408:278,1,70,2|2,0:3|0:3,0:0:0:0:
434,184,96759,2,0,P|400:178|382:169,1,35,0|0,0:0|0:0,0:0:0:0:
325,138,97081,2,0,P|303:116|290:91,1,35,2|0,0:3|0:0,0:0:0:0:
268,34,97404,1,0,0:0:0:0:
268,34,97565,2,0,L|169:56,1,70,2|2,0:3|0:3,0:0:0:0:
86,171,98049,6,0,P|103:206|111:252,1,70,2|2,0:3|0:3,0:0:0:0:
115,323,98533,1,0,0:0:0:0:
198,334,98694,1,0,0:0:0:0:
198,334,98855,2,0,B|235:337|235:337|292:330,1,70,2|2,0:3|0:3,0:0:0:0:
281,186,99339,2,0,B|318:183|318:183|375:190,1,70,0|2,0:0|0:3,0:0:0:0:
433,203,99823,1,0,0:0:0:0:
481,68,99985,1,0,0:0:0:0:
412,15,100146,2,0,P|394:64|404:103,1,70,2|0,0:3|0:0,0:0:0:0:
461,289,100630,6,0,L|376:294,1,70,2|2,0:3|0:3,0:0:0:0:
306,298,101114,1,0,0:0:0:0:
222,305,101275,1,0,0:0:0:0:
222,305,101436,2,0,B|212:264|212:264|220:222,1,70,2|2,0:3|0:3,0:0:0:0:
256,84,101920,2,0,L|244:133,1,35,2|0,0:3|0:0,0:0:0:0:
179,55,102243,2,0,L|163:115,1,35,2|0,0:3|0:0,0:0:0:0:
101,27,102565,1,0,0:0:0:0:
101,27,102726,2,0,B|86:69|86:69|80:102,1,70,2|2,0:3|0:3,0:0:0:0:
256,192,103210,12,8,112243,0:3:0:0:
256,120,112727,5,0,0:0:0:0:
300,260,112888,5,2,0:3:0:0:
184,176,113049,5,0,0:0:0:0:
328,176,113211,5,2,0:3:0:0:
212,260,113372,5,0,0:0:0:0:
