osu file format v14

[General]
AudioFilename: audio.mp3
AudioLeadIn: 0
PreviewTime: 34726
Countdown: 0
SampleSet: Soft
StackLeniency: 0.2
Mode: 0
LetterboxInBreaks: 0
WidescreenStoryboard: 0

[Editor]
Bookmarks: 8592,34192,51258,55525,68325,93925,110992,115258,128058
DistanceSpacing: 1.2
BeatDivisor: 8
GridSize: 16
TimelineZoom: 1.7

[Metadata]
Title:Drip Too Hard
TitleUnicode:Drip Too Hard
Artist:Lil Baby x Gunna
ArtistUnicode:Lil Baby x Gunna
Creator:jamesjan3
Version:Extra
Source:
Tags:harder hip hop hip-hop english rap trap jamesjan ajt delusional harepascals koda [_eli_] elinor mnyui gelidium turbo 2
BeatmapID:2460553
BeatmapSetID:1179995

[Difficulty]
HPDrainRate:5
CircleSize:3.8
OverallDifficulty:8
ApproachRate:9.1
SliderMultiplier:2
SliderTickRate:1

[Events]
//Background and Video events
0,0,"Gunna-CULTURED.jpg",0,0
//Break Periods
2,34726,37342
2,94685,97101
//Storyboard Layer 0 (Background)
//Storyboard Layer 1 (Fail)
//Storyboard Layer 2 (Pass)
//Storyboard Layer 3 (Foreground)
//Storyboard Layer 4 (Overlay)
//Storyboard Sound Samples

[TimingPoints]
60,533.333333333333,4,2,1,40,1,0
8593,-50,4,2,1,70,0,0
8598,-50,4,2,1,70,0,0
12326,-57.1428571428571,4,2,1,70,0,0
12859,-50,4,2,1,70,0,0
14459,-66.6666666666667,4,2,1,70,0,0
14993,-50,4,2,1,70,0,0
16593,-57.1428571428571,4,2,1,70,0,0
17126,-50,4,2,1,70,0,0
21793,-57.1428571428571,4,2,1,70,0,0
22059,-66.6666666666667,4,2,1,70,0,0
22326,-50,4,2,1,70,0,0
26526,-50,4,2,1,5,0,0
26859,-50,4,2,1,70,0,0
31193,-50,4,2,1,5,0,0
31526,-50,4,2,1,70,0,0
32859,-100,4,2,1,40,0,0
32864,-100,4,2,1,40,0,0
36859,-66.6666666666667,4,2,1,40,0,0
37126,-50,4,2,1,40,0,0
38459,-40,4,2,1,80,0,1
38993,-50,4,2,1,80,0,1
39526,-66.6666666666667,4,2,1,80,0,1
40059,-50,4,2,1,80,0,1
42726,-40,4,2,1,80,0,1
43259,-50,4,2,1,80,0,1
43793,-50,4,2,1,80,0,1
44326,-50,4,2,1,80,0,1
46993,-40,4,2,1,80,0,1
47526,-50,4,2,1,80,0,1
51259,-100,4,2,1,80,0,0
51393,-100,4,2,1,40,0,0
53926,-66.6666666666667,4,2,1,40,0,0
54193,-50,4,2,1,40,0,0
55526,-40,4,2,1,80,0,1
56326,-50,4,2,1,80,0,1
56593,-66.6666666666667,4,2,1,80,0,1
57126,-50,4,2,1,80,0,1
59793,-40,4,2,1,80,0,1
60326,-50,4,2,1,80,0,1
60859,-66.6666666666667,4,2,1,80,0,1
61393,-50,4,2,1,80,0,1
64059,-40,4,2,1,80,0,1
64593,-50,4,2,1,80,0,1
66193,-50,4,2,1,80,0,0
66326,-50,4,2,1,40,0,0
66726,-100,4,2,1,40,0,0
68331,-100,4,2,1,40,0,0
68342,533.333333333333,4,2,1,70,1,0
68342,-44.4444444444445,4,2,1,70,0,0
68875,-57.1428571428571,4,2,1,70,0,0
70475,-50,4,2,1,70,0,0
71275,-57.1428571428571,4,2,1,70,0,0
72608,-50,4,2,1,70,0,0
73675,-57.1428571428571,4,2,1,70,0,0
74208,-66.6666666666667,4,2,1,70,0,0
75808,-57.1428571428571,4,2,1,70,0,0
76893,533.333333333333,4,2,1,70,1,0
76893,-50,4,2,1,70,0,0
77426,-66.6666666666667,4,2,1,70,0,0
77959,-57.1428571428571,4,2,1,70,0,0
79026,-50,4,2,1,70,0,0
79559,-57.1428571428571,4,2,1,70,0,0
81159,-50,4,2,1,70,0,0
81693,-57.1428571428571,4,2,1,70,0,0
83293,-50,4,2,1,70,0,0
83826,-57.1428571428571,4,2,1,70,0,0
85419,533.333333333333,4,2,1,70,1,0
85419,-50,4,2,1,70,0,0
86485,-57.1428571428571,4,2,1,70,0,0
89685,-50,4,2,1,70,0,0
90752,-57.1428571428571,4,2,1,70,0,0
92885,-80,4,2,1,40,0,0
97952,-50,4,2,1,40,0,0
98219,-40,4,2,1,80,0,1
98753,-50,4,2,1,80,0,1
99285,-66.6666666666667,4,2,1,80,0,1
99819,-50,4,2,1,80,0,1
102485,-40,4,2,1,80,0,1
103018,-50,4,2,1,80,0,1
103552,-66.6666666666667,4,2,1,80,0,1
104085,-50,4,2,1,80,0,1
106752,-40,4,2,1,80,0,1
107285,-50,4,2,1,80,0,1
111018,-100,4,2,1,80,0,0
111152,-100,4,2,1,40,0,0
113685,-66.6666666666667,4,2,1,40,0,0
113952,-50,4,2,1,40,0,0
115285,-40,4,2,1,80,0,1
116085,-50,4,2,1,80,0,1
116352,-66.6666666666667,4,2,1,80,0,1
116885,-50,4,2,1,80,0,1
119552,-40,4,2,1,80,0,1
120085,-50,4,2,1,80,0,1
120618,-66.6666666666667,4,2,1,80,0,1
121152,-50,4,2,1,80,0,1
123818,-40,4,2,1,80,0,1
124352,-50,4,2,1,80,0,1
125952,-50,4,2,1,40,0,0
126485,-100,4,2,1,40,0,0

[Colours]
Combo1 : 145,255,200
Combo2 : 0,128,192
Combo3 : 240,207,91
Combo4 : 0,255,255

[HitObjects]
119,229,8059,5,0,0:0:0:0:
102,237,8193,1,0,0:0:0:0:
106,223,8326,1,0,0:0:0:0:
116,241,8459,1,0,0:0:0:0:
4,206,8593,6,0,P|68:215|130:100,1,200,4|0,3:0|0:0,0:0:0:0:
81,47,8993,2,0,B|53:66|53:66|45:140,1,100
151,271,9259,5,2,0:3:0:0:
221,179,9393,1,2,0:3:0:0:
316,240,9526,1,0,0:0:0:0:
479,130,9659,6,0,B|514:63|493:-4|493:-4|484:50|436:63,1,200,8|0,0:2|0:0,0:0:0:0:
439,203,10059,1,0,0:0:0:0:
483,134,10193,6,0,B|414:102|370:145|395:149|351:183|293:150,1,200,4|8,0:3|0:3,0:0:0:0:
155,49,10593,1,0,0:0:0:0:
232,10,10726,2,0,B|249:55|249:55|224:107,1,100
143,228,10993,1,8,0:3:0:0:
22,164,11126,1,0,0:0:0:0:
7,175,11393,5,0,0:0:0:0:
52,253,11526,2,0,P|134:236|156:205,1,100
343,49,11793,5,8,0:1:0:0:
226,101,11926,1,0,0:0:0:0:
358,131,12059,1,4,0:3:0:0:
262,26,12193,1,0,0:0:0:0:
282,166,12326,6,0,P|304:263|307:358,1,175.00000166893,0|12,0:0|0:3,0:0:0:0:
228,377,12726,1,0,0:0:0:0:
423,293,12859,6,0,P|444:253|424:188,2,100,4|2|0,0:3|0:3|0:0,0:0:0:0:
307,338,13259,2,0,B|282:346|282:346|186:324,1,100
52,257,13526,1,2,0:3:0:0:
137,273,13659,2,0,P|115:321|52:344,1,100,2|0,0:3|0:0,0:0:0:0:
0,187,13926,5,8,0:2:0:0:
43,63,14059,1,0,0:0:0:0:
143,113,14193,5,0,0:0:0:0:
176,190,14326,1,0,0:0:0:0:
256,101,14459,6,0,B|282:59|277:-1|225:-39|218:25|246:27,1,150.000005722046,4|8,0:3|0:3,0:0:0:0:
361,364,14993,5,0,0:0:0:0:
430,269,15126,1,0,0:0:0:0:
315,254,15259,1,8,0:3:0:0:
243,346,15393,2,0,P|296:312|228:227,1,200
157,181,15793,2,0,P|170:114|211:94,1,100
375,27,16059,6,0,L|496:42,2,100,8|0|4,0:1|0:0|0:3,0:0:0:0:
279,15,16459,1,0,0:0:0:0:
334,169,16593,6,0,B|276:195|258:121|254:144|242:75|187:100,1,175.00000166893,0|12,0:0|0:3,0:0:0:0:
9,380,17126,6,0,L|122:368,1,100,4|0,3:0|0:0,0:0:0:0:
282,302,17393,1,0,0:0:0:0:
207,353,17526,2,0,B|180:373|180:373|114:357|87:306|105:239,1,200,0|2,0:0|0:3,0:0:0:0:
62,175,17926,2,0,P|97:142|165:140,1,100,2|0,3:0|0:0,0:0:0:0:
331,99,18193,5,8,0:2:0:0:
160,53,18326,1,0,0:0:0:0:
238,157,18459,1,0,0:0:0:0:
251,0,18593,1,0,0:0:0:0:
242,161,18726,6,0,B|232:306|232:306|242:275|292:251,1,200,4|8,3:0|0:3,0:0:0:0:
336,194,19126,5,0,0:0:0:0:
473,306,19259,2,0,P|423:313|382:285,2,100,0|0|8,0:0|0:0|3:0,0:0:0:0:
442,227,19659,2,0,B|382:183|319:231|319:231|303:265|263:265,1,200
194,312,20059,2,0,P|136:279|133:230,1,100
105,71,20326,5,8,0:1:0:0:
190,96,20459,1,0,0:0:0:0:
39,118,20593,2,0,B|29:98|0:92|0:92|27:77|30:41,1,100,4|0,3:0|0:0,0:0:0:0:
232,1,20859,6,0,B|295:-5|320:44|307:40|344:99|404:73,1,200,0|12,0:0|0:3,0:0:0:0:
476,0,21259,1,0,0:0:0:0:
329,21,21393,5,4,3:0:0:0:
430,190,21526,2,0,P|442:239|439:304,1,100,2|0,0:3|0:0,0:0:0:0:
295,240,21793,2,0,P|285:282|261:319,1,87.500000834465,0|2,0:0|0:3,0:0:0:0:
179,199,22059,2,0,P|154:227|113:242,1,75.0000028610231,2|0,0:3|3:0,0:0:0:0:
61,131,22326,6,0,B|76:7|76:7|137:-7|167:43,1,200
231,15,22726,2,0,P|213:63|165:100,1,100
65,135,22993,6,0,B|37:136|18:177|18:177|63:224|57:319,1,200,4|8,3:0|0:3,0:0:0:0:
301,353,23526,6,0,B|289:314|289:314|250:294|212:310|188:349,1,150
194,342,23793,1,8,3:0:0:0:
383,319,23926,2,0,P|428:260|434:217,1,100,0|4,0:0|0:3,0:0:0:0:
388,31,24193,6,0,L|256:53,1,100
307,22,24459,2,0,L|418:65,1,100,0|8,0:0|0:1,0:0:0:0:
512,24,24726,1,0,0:0:0:0:
384,156,24859,2,0,P|308:154|271:112,1,100,4|0,3:0|0:0,0:0:0:0:
136,45,25126,6,0,B|148:3|191:-9|191:-9|235:65|318:42,1,200,0|12,0:0|0:3,0:0:0:0:
245,262,25659,6,0,P|176:239|143:192,1,100,4|2,0:3|0:3,0:0:0:0:
32,31,25926,1,0,0:0:0:0:
142,135,26059,1,0,0:0:0:0:
73,248,26193,1,0,0:0:0:0:
141,313,26326,1,2,0:3:0:0:
117,338,26459,2,0,B|108:349|113:361|113:361|122:354|120:339,1,50,2|0,0:3|0:0,0:0:0:0:
390,74,26859,5,0,0:0:0:0:
282,14,26993,2,0,P|283:72|321:100,1,100
473,284,27259,6,0,B|445:327|402:331|402:331|403:265|351:230,1,200,4|8,0:3|0:3,0:0:0:0:
43,24,27793,5,0,0:0:0:0:
38,167,27926,1,0,0:0:0:0:
172,80,28059,1,8,0:3:0:0:
88,97,28193,2,0,P|74:164|73:204,2,100,0|4|0,0:0|0:3|0:0,0:0:0:0:
220,8,28593,1,0,0:0:0:0:
283,83,28726,1,0,0:0:0:0:
446,2,28859,5,8,0:1:0:0:
394,176,28993,1,0,0:0:0:0:
374,87,29126,2,0,B|424:82|424:82|478:124,1,100,4|0,0:3|0:0,0:0:0:0:
492,303,29393,2,0,B|390:291|390:291|350:318|350:318|282:306,1,200,0|12,0:0|0:3,0:0:0:0:
119,361,29793,5,0,0:0:0:0:
198,299,29926,2,0,P|209:242|197:185,1,100,4|2,0:3|0:3,0:0:0:0:
102,51,30193,1,0,0:0:0:0:
98,177,30326,5,0,0:0:0:0:
250,69,30459,1,0,0:0:0:0:
102,181,30593,1,2,0:3:0:0:
202,201,30726,6,0,B|229:178|248:177|248:177|228:168|197:180,1,100,2|0,0:3|0:0,0:0:0:0:
437,307,31126,6,0,B|409:303|409:303|388:320,1,50
379,330,31526,2,0,B|400:366|455:347|480:317|456:235|418:206,1,200,4|8,0:3|0:3,0:0:0:0:
330,79,31926,5,0,0:0:0:0:
403,123,32059,2,0,P|365:155|316:161,1,100
236,37,32326,1,8,0:3:0:0:
219,211,32459,2,0,B|217:239|242:261|242:261|240:245|253:218,1,100,0|4,0:0|0:3,0:0:0:0:
42,88,32859,6,0,B|35:27|89:5|126:26|126:26|116:43,2,150
51,104,33926,1,0,0:0:0:0:
275,0,37926,5,0,0:0:0:0:
278,210,38193,2,0,P|274:226|285:211,1,50
448,126,38459,6,0,B|394:180|334:149|334:149|274:114|219:155|219:155|165:201|99:165,1,375,4|0,3:0|0:0,0:0:0:0:
27,127,38993,5,0,0:0:0:0:
174,11,39126,1,2,0:3:0:0:
69,58,39259,2,0,P|117:69|154:102,1,100,2|0,0:3|0:0,0:0:0:0:
274,234,39526,6,0,B|176:223|176:223|201:241|201:274,1,150.000005722046,8|0,0:2|0:0,0:0:0:0:
208,347,39926,1,0,0:0:0:0:
123,279,40059,2,0,P|145:319|196:347,1,100,4|2,0:3|0:3,0:0:0:0:
327,367,40326,2,0,P|388:363|417:324,1,100,8|0,0:3|0:0,0:0:0:0:
488,225,40593,6,0,B|472:78|472:78|465:104|442:125,1,200,0|8,0:0|0:3,0:0:0:0:
395,184,40993,1,0,0:0:0:0:
466,3,41126,2,0,P|433:12|396:75,1,100,4|0,0:3|0:0,0:0:0:0:
274,219,41393,5,0,0:0:0:0:
315,137,41526,1,0,0:0:0:0:
374,384,41659,1,8,0:1:0:0:
306,129,41926,5,4,0:3:0:0:
282,228,42059,1,0,0:0:0:0:
126,2,42193,1,0,0:0:0:0:
335,22,42459,6,0,B|360:30|360:30|306:30,1,50,12|0,0:3|0:0,0:0:0:0:
16,14,42726,6,0,B|54:24|59:56|59:56|88:298|88:298|92:336|129:345,1,375,4|0,3:3|0:0,0:0:0:0:
211,331,43259,2,0,L|349:301,1,100,0|2,0:0|0:3,0:0:0:0:
508,151,43526,2,0,P|466:163|432:234,1,100,2|0,3:0|0:0,0:0:0:0:
372,354,43793,6,0,B|405:314|376:265|376:265|321:179|321:179|289:128|231:148,1,300,8|0,0:2|0:0,0:0:0:0:
256,224,44326,6,0,L|316:322,1,100,4|2,3:0|0:3,0:0:0:0:
440,328,44593,1,8,0:3:0:0:
465,162,44726,1,0,0:0:0:0:
343,183,44859,6,0,B|337:196|342:210|342:210|358:237|358:237|374:263|400:255,2,100,0|0|8,0:0|0:0|3:0,3:0:0:0:
174,35,45393,5,4,0:3:0:0:
365,101,45526,1,0,0:0:0:0:
178,39,45659,2,0,B|154:33|154:33|109:85|140:153,1,150
141,152,45926,6,0,L|258:129,1,100,8|0,0:1|0:0,0:0:0:0:
128,321,46193,2,0,L|10:298,1,100,4|0,3:0|0:0,0:0:0:0:
213,277,46459,1,0,0:0:0:0:
33,41,46726,6,0,B|38:35|30:19|30:19|38:37|60:29,1,50,12|0,0:3|0:0,0:0:0:0:
213,277,46993,6,0,B|232:331|303:343|341:280|314:234|314:234|290:189|330:121|414:138|422:200,1,375,4|0,3:0|0:0,0:0:0:0:
487,232,47526,6,0,P|443:264|398:265,1,100,0|2,0:0|0:3,0:0:0:0:
235,102,47793,1,2,3:0:0:0:
281,17,47926,1,0,0:0:0:0:
242,320,48059,5,8,0:2:0:0:
21,7,48593,5,4,3:0:0:0:
98,38,48726,1,2,0:3:0:0:
97,126,48859,1,8,0:3:0:0:
21,92,48993,1,0,0:0:0:0:
235,102,49126,5,0,0:0:0:0:
55,256,49393,5,8,3:0:0:0:
422,230,49659,5,4,0:3:0:0:
198,344,49793,1,0,0:0:0:0:
370,303,49926,2,0,L|271:292,1,100
32,170,50193,5,8,0:1:0:0:
108,324,50326,1,0,0:0:0:0:
55,256,50459,2,0,P|71:208|121:171,1,100,4|0,3:0|0:0,0:0:0:0:
233,14,50726,5,0,0:0:0:0:
307,60,50859,1,0,0:0:0:0:
144,250,50993,1,12,0:3:0:0:
233,14,51259,6,0,P|222:125|221:228,1,200,0|2,0:0|0:2,0:0:0:0:
229,231,52059,1,2,0:2:0:0:
417,163,52326,5,2,0:2:0:0:
324,0,52593,1,0,0:0:0:0:
510,230,52859,5,0,0:0:0:0:
501,252,53126,1,0,0:0:0:0:
266,80,53393,5,0,0:0:0:0:
172,322,53659,6,0,P|196:321|213:303,1,50
168,177,53926,2,0,P|150:209|159:244,1,75.0000028610231
309,280,54193,2,0,P|282:238|235:226,1,100
55,343,54459,1,0,0:0:0:0:
168,177,54993,5,0,0:0:0:0:
402,22,55259,2,0,P|421:23|405:34,1,50
113,50,55526,6,0,B|165:105|226:77|226:77|287:44|341:87|341:87|393:134|460:101,1,375,4|0,3:0|0:0,0:0:0:0:
494,29,56059,5,0,0:0:0:0:
435,194,56193,1,2,0:3:0:0:
457,102,56326,2,0,P|505:144|514:194,1,100,2|0,0:3|0:0,0:0:0:0:
383,342,56593,6,0,B|329:339|330:291|323:302|322:251|266:253,1,150.000005722046,8|0,0:2|0:0,0:0:0:0:
223,363,56993,1,0,0:0:0:0:
254,267,57126,2,0,P|242:320|245:373,1,100,4|2,0:3|0:3,0:0:0:0:
124,253,57393,2,0,P|113:198|117:140,1,100,8|0,0:3|0:0,0:0:0:0:
211,46,57659,6,0,B|272:20|297:84|300:67|322:129|390:107,1,200,0|8,0:0|0:3,0:0:0:0:
321,37,58059,1,0,0:0:0:0:
223,184,58193,2,0,P|240:223|293:235,1,100,4|0,0:3|0:0,0:0:0:0:
467,68,58459,5,0,0:0:0:0:
386,108,58593,1,0,0:0:0:0:
443,347,58726,1,8,0:1:0:0:
372,81,58993,5,4,0:3:0:0:
479,91,59126,1,0,0:0:0:0:
357,306,59259,1,0,0:0:0:0:
456,0,59526,6,0,B|479:-12|479:-12|502:1,1,50,12|0,0:3|0:0,0:0:0:0:
357,306,59793,6,0,B|322:314|312:348|312:348|213:394|130:307|193:162|307:221|307:240,1,375,4|0,3:3|0:0,0:0:0:0:
194,376,60326,6,0,P|138:373|78:345,1,100,0|2,0:0|0:3,0:0:0:0:
101,143,60593,2,0,P|155:174|162:220,1,100,2|0,3:0|0:0,0:0:0:0:
23,293,60859,6,0,B|0:273|6:239|6:239|36:54,1,225.000008583069,8|0,0:2|0:0,0:0:0:0:
42,0,61393,6,0,P|90:23|112:73,1,100,4|2,3:0|0:3,0:0:0:0:
293,123,61659,1,8,0:3:0:0:
101,143,61793,1,0,0:0:0:0:
226,69,61926,6,0,B|206:67|198:89|198:89|173:178,1,100
131,336,62193,1,8,3:0:0:0:
474,332,62459,5,4,0:3:0:0:
302,246,62593,1,0,0:0:0:0:
478,336,62726,2,0,B|501:372|535:301|473:232|414:273,1,150
437,267,62993,6,0,P|402:306|394:367,1,100,8|0,0:1|0:0,0:0:0:0:
214,178,63259,2,0,P|201:120|218:67,1,100,4|0,3:0|0:0,0:0:0:0:
141,365,63526,5,0,0:0:0:0:
408,121,63793,6,0,B|431:108|431:108|401:137,1,50,12|0,0:3|0:0,0:0:0:0:
141,365,64059,6,0,B|82:396|21:310|131:223|198:307|198:307|232:350|274:355|313:329,1,375,4|0,3:0|0:0,0:0:0:0:
389,308,64593,6,0,P|362:265|318:247,1,100,0|2,0:0|0:3,0:0:0:0:
171,192,64859,1,2,3:0:0:0:
130,263,64993,1,0,0:0:0:0:
374,173,65126,5,8,0:2:0:0:
38,0,65659,5,4,3:0:0:0:
118,38,65793,1,2,0:3:0:0:
80,118,65926,1,8,0:3:0:0:
0,80,66059,1,0,0:0:0:0:
165,115,66193,5,0,0:0:0:0:
165,115,66726,6,0,B|183:119|183:119|212:276|212:276|237:284,1,200,2|0,0:0|0:0,0:0:0:0:
6,25,68342,6,0,B|72:9|72:9|132:79|132:79|131:83|131:83|198:161|198:161|274:144,1,337.500012874604,4|0,3:0|0:0,0:0:0:0:
332,85,68875,2,0,B|341:64|341:64|323:-3,1,87.500000834465,0|2,0:0|0:3,0:0:0:0:
469,45,69142,2,0,B|429:89|429:89|428:117,1,87.500000834465,2|0,0:3|0:0,0:0:0:0:
337,263,69408,1,8,0:2:0:0:
400,202,69542,1,0,0:0:0:0:
341,267,69675,2,0,B|311:304|311:304|257:302,1,87.500000834465
121,234,69942,5,4,0:3:0:0:
199,187,70075,1,2,0:3:0:0:
165,384,70208,1,8,0:3:0:0:
41,74,70475,6,0,B|65:58|65:58|138:64|138:64|142:68|142:68|219:75|219:75|232:102,2,200,0|8|4,0:0|0:3|0:3,0:0:0:0:
2,146,71142,1,0,0:0:0:0:
73,186,71275,2,0,B|89:188|89:188|161:140,1,87.500000834465
264,3,71542,1,8,0:1:0:0:
502,172,71808,6,0,B|521:136|521:136|506:90,1,87.500000834465,4|0,0:3|0:0,0:0:0:0:
426,236,72075,2,0,L|442:329,1,87.500000834465
512,384,72342,1,12,0:3:0:0:
287,219,72608,6,0,B|238:215|238:215|185:278|185:278|186:283|186:283|111:369|111:369|50:361,1,300,4|0,0:3|0:0,0:0:0:0:
0,285,73142,5,0,0:0:0:0:
65,236,73275,2,0,B|113:243|113:243|78:286,2,100,2|2|0,0:3|0:3|0:0,0:0:0:0:
18,89,73675,2,0,B|8:121|8:121|174:90,1,175.00000166893,8|0,0:2|0:0,0:0:0:0:
309,62,74075,1,0,0:0:0:0:
241,14,74208,2,0,B|218:43|218:43|231:90,1,75.0000028610231,4|2,0:3|0:3,0:0:0:0:
278,227,74475,1,8,0:3:0:0:
297,146,74608,1,0,0:0:0:0:
212,368,74742,5,0,0:0:0:0:
491,257,75008,5,8,0:3:0:0:
449,345,75142,1,0,0:0:0:0:
495,261,75275,2,0,B|509:234|509:234|488:154,2,75.0000028610231,4|0|0,0:3|0:0|0:0,0:0:0:0:
415,232,75675,1,0,0:0:0:0:
474,57,75808,2,0,B|458:79|458:79|312:102,1,175.00000166893,8|4,0:1|0:3,0:0:0:0:
154,33,76208,5,0,0:0:0:0:
237,22,76342,2,0,B|241:66|241:66|205:101,1,87.500000834465
56,226,76608,5,12,0:3:0:0:
5,26,76742,1,0,0:0:0:0:
61,230,76893,6,0,B|80:278|80:278|179:290|179:290|183:294|183:294|288:306|288:306|313:359,1,300,4|0,3:0|0:0,0:0:0:0:
235,378,77426,6,0,B|218:345|218:345|238:289,1,75.0000028610231,0|2,0:0|0:3,0:0:0:0:
354,149,77693,1,2,3:0:0:0:
426,198,77826,1,0,0:0:0:0:
249,233,77959,2,0,B|275:104|275:104|325:69,1,175.00000166893,8|0,0:2|0:0,0:0:0:0:
464,16,78359,1,0,0:0:0:0:
385,46,78493,2,0,B|406:82|406:82|449:97,1,87.500000834465,4|2,3:0|0:3,0:0:0:0:
508,215,78759,5,8,0:3:0:0:
354,149,78893,1,0,0:0:0:0:
512,219,79026,6,0,B|459:198|459:198|373:228|373:228|370:226|370:226|289:257|289:257|258:330,1,300
359,318,79559,6,0,L|453:284,2,87.500000834465,4|0|0,0:3|0:0|0:0,0:0:0:0:
199,379,79959,1,0,0:0:0:0:
214,257,80093,2,0,B|257:272|257:272|270:340,1,87.500000834465,8|0,0:1|0:0,0:0:0:0:
110,368,80359,2,0,L|21:354,1,87.500000834465,4|0,3:0|0:0,0:0:0:0:
41,60,80626,5,0,0:0:0:0:
107,121,80759,1,0,0:0:0:0:
0,262,80893,1,12,0:3:0:0:
203,32,81159,6,0,B|307:19|307:19|313:23|313:23|432:11|432:11|512:65,1,300,4|0,3:0|0:0,0:0:0:0:
485,129,81693,6,0,B|467:131|467:131|395:78,1,87.500000834465,2|2,0:3|0:3,0:0:0:0:
292,6,81959,1,0,3:0:0:0:
37,227,82226,5,8,0:2:0:0:
182,151,82359,1,0,0:0:0:0:
112,106,82493,2,0,B|92:145|92:145|112:200,1,87.500000834465
188,339,82759,5,4,3:0:0:0:
260,292,82893,1,0,0:0:0:0:
142,261,83026,5,8,0:3:0:0:
310,361,83159,1,0,0:0:0:0:
145,264,83293,6,0,B|225:250|225:250|229:253|229:253|321:240|321:240|382:266|382:266|447:255,1,300
508,290,83826,6,0,B|518:249|518:249|495:204,1,87.500000834465,4|0,0:3|0:0,0:0:0:0:
397,35,84093,2,0,L|277:21,1,87.500000834465
138,79,84359,1,8,0:1:0:0:
208,8,84493,1,0,0:0:0:0:
142,83,84626,2,0,B|126:114|126:114|137:228,1,131.250001251698,4|0,3:0|0:0,0:0:0:0:
139,213,84893,2,0,B|166:232|166:232|240:209,1,87.500000834465
385,165,85159,5,12,0:3:0:0:
214,130,85293,1,0,0:0:0:0:
389,169,85419,6,0,B|315:101|315:101|307:181|307:181|303:184|303:184|298:246|298:246|260:294,1,300,4|0,0:3|0:0,0:0:0:0:
202,337,85952,5,2,0:2:0:0:
281,0,86219,1,2,0:2:0:0:
206,341,86485,2,0,B|177:355|177:355|100:328,1,87.500000834465,10|0,0:2|0:0,0:0:0:0:
22,15,87019,6,0,B|69:43|69:43|85:174,1,175.00000166893,4|8,0:3|0:3,0:0:0:0:
0,199,87419,1,0,0:0:0:0:
87,166,87552,2,0,B|116:152|116:152|193:179,2,87.500000834465,0|0|8,0:0|0:0|0:3,0:0:0:0:
4,203,87952,5,0,0:0:0:0:
16,289,88085,2,0,L|28:375,1,87.500000834465,4|0,0:3|0:0,0:0:0:0:
324,179,88352,2,0,B|316:226|316:226|284:256,1,87.500000834465
115,367,88619,6,0,B|107:333|107:333|273:352,1,175.00000166893,8|4,0:1|0:3,0:0:0:0:
325,384,89019,1,0,0:0:0:0:
413,267,89152,5,0,0:0:0:0:
434,351,89285,1,0,0:0:0:0:
460,193,89419,5,12,0:3:0:0:
512,384,89552,1,0,0:0:0:0:
464,197,89685,6,0,B|441:108|441:108|442:101|442:101|419:9|419:9|443:58|443:58|488:83,1,300,4|0,0:3|0:0,0:0:0:0:
501,1,90219,5,2,0:2:0:0:
130,91,90485,1,2,0:2:0:0:
505,5,90752,2,0,B|504:45|504:45|439:61,1,87.500000834465,10|0,0:2|0:0,0:0:0:0:
41,101,91285,6,0,B|23:59|23:59|41:20,1,87.500000834465,4|2,0:3|0:3,0:0:0:0:
224,99,91552,1,8,0:3:0:0:
196,181,91685,1,0,0:0:0:0:
130,91,91819,6,0,B|147:74|147:74|321:57,1,175.00000166893,0|8,0:0|0:3,0:0:0:0:
474,66,92219,1,0,0:0:0:0:
403,18,92352,2,0,B|382:59|382:59|397:106,1,87.500000834465,4|0,0:3|0:0,0:0:0:0:
487,307,92619,2,0,B|504:217,1,87.500000834465
459,150,92885,5,0,0:0:0:0:
463,154,93152,1,0,0:0:0:0:
186,339,93419,6,0,B|165:318|165:318|173:272,1,62.5
227,271,93685,2,0,B|248:292|248:292|240:338,1,62.5
88,341,93952,6,0,B|208:309|208:309|211:301|211:301|324:270,1,250,0|2,0:0|0:2,0:0:0:0:
327,114,97685,5,0,0:0:0:0:
459,335,97952,2,0,B|460:350|473:355|473:355|473:342|459:335,1,50
512,174,98219,6,0,B|475:143|404:158|388:214|388:214|361:298|361:298|347:349|285:369|251:349,1,375,4|0,3:0|0:0,0:0:0:0:
184,302,98752,5,0,0:0:0:0:
283,131,98885,1,2,0:3:0:0:
252,250,99019,2,0,P|218:213|207:164,1,100,2|0,0:3|0:0,0:0:0:0:
59,56,99285,6,0,B|60:5|157:0|159:98|106:95,1,150.000005722046,8|0,0:2|0:0,0:0:0:0:
12,237,99685,1,0,0:0:0:0:
56,136,99819,2,0,P|23:168|10:223,1,100,4|2,0:3|0:3,0:0:0:0:
178,264,100085,2,0,P|159:233|101:211,1,100,8|0,2:3|2:0,2:0:0:0:
185,349,100352,6,0,B|198:390|286:390|324:287|258:268,1,200,0|8,0:0|0:3,0:0:0:0:
320,196,100752,1,0,0:0:0:0:
351,285,100885,2,0,P|317:293|252:259,1,100,4|0,0:3|0:0,0:0:0:0:
165,82,101152,5,0,0:0:0:0:
247,116,101285,1,0,0:0:0:0:
87,285,101418,1,8,0:1:0:0:
259,75,101684,5,4,0:3:0:0:
157,119,101818,1,0,0:0:0:0:
351,285,101952,1,0,0:0:0:0:
107,305,102218,6,0,B|79:305|79:305|90:276,1,50,12|0,0:3|0:0,0:0:0:0:
499,311,102485,6,0,B|473:364|401:348|401:348|251:327|251:327|187:320|162:376,1,375,4|0,3:3|0:0,0:0:0:0:
289,355,103018,2,0,L|414:320,1,100,0|2,0:0|0:3,0:0:0:0:
500,111,103284,2,0,P|506:68|448:33,1,100,2|0,3:0|0:0,0:0:0:0:
322,116,103552,6,0,B|306:182|306:182|336:220|386:204,1,150.000005722046,8|0,0:2|0:0,0:0:0:0:
410,121,103951,1,0,0:0:0:0:
249,67,104085,6,0,L|146:109,1,100,4|2,3:0|0:3,0:0:0:0:
322,116,104351,1,8,0:3:0:0:
98,36,104484,1,0,0:0:0:0:
23,179,104618,6,0,B|52:207|52:207|92:205|111:162,2,100,0|0|8,0:0|0:0|3:0,0:0:0:0:
330,341,105152,5,4,0:3:0:0:
146,288,105285,1,0,0:0:0:0:
334,345,105418,2,0,B|358:351|358:351|403:299|372:231,1,150
377,238,105685,6,0,L|267:278,1,100,8|0,0:1|0:0,0:0:0:0:
406,83,105952,2,0,L|499:48,1,100,4|0,3:0|0:0,0:0:0:0:
248,21,106218,5,0,0:0:0:0:
476,183,106485,6,0,B|489:177|497:195|497:195|489:179|494:175,1,50,12|0,0:3|0:0,0:0:0:0:
248,21,106752,6,0,B|236:47|206:39|206:39|95:20|95:20|8:2|-28:99|45:144|87:120,1,375,4|0,3:0|0:0,0:0:0:0:
102,200,107285,6,0,P|144:173|164:128,1,100,0|2,0:0|0:3,0:0:0:0:
248,21,107552,1,2,3:0:0:0:
166,46,107685,1,0,0:0:0:0:
254,316,107818,5,8,0:2:0:0:
427,81,108352,5,4,3:0:0:0:
391,159,108486,1,2,0:3:0:0:
507,85,108619,1,8,0:3:0:0:
383,14,108752,1,0,0:0:0:0:
437,230,108885,5,0,0:0:0:0:
141,104,109152,5,8,3:0:0:0:
37,375,109418,5,4,0:3:0:0:
160,203,109552,1,0,0:0:0:0:
51,294,109685,2,0,L|150:283,1,100
428,267,109952,5,8,0:1:0:0:
237,354,110085,1,0,0:0:0:0:
322,370,110218,2,0,P|340:338|338:261,1,100,4|0,3:0|0:0,0:0:0:0:
248,78,110485,5,0,0:0:0:0:
210,153,110618,1,0,0:0:0:0:
428,267,110752,1,12,0:3:0:0:
248,78,111018,6,0,B|189:61|146:91|164:92|107:130|51:98,1,200,0|2,0:0|0:2,0:0:0:0:
53,85,111818,1,2,0:2:0:0:
82,301,112085,5,2,0:2:0:0:
248,155,112352,1,0,0:0:0:0:
270,354,112618,5,0,0:0:0:0:
259,370,112885,1,0,0:0:0:0:
436,174,113152,5,0,0:0:0:0:
125,326,113418,6,0,P|117:303|95:292,1,50
179,241,113685,2,0,P|191:206|224:191,1,75.0000028610231
104,132,113952,2,0,P|78:90|31:76,1,100
212,13,114218,1,0,0:0:0:0:
264,334,114752,5,0,0:0:0:0:
379,57,115018,2,0,P|398:58|382:69,1,50
194,118,115285,6,0,B|231:87|302:102|318:158|318:158|345:242|345:242|359:293|421:313|455:293,1,375,4|0,3:0|0:0,0:0:0:0:
499,82,115818,5,0,0:0:0:0:
425,222,115952,1,2,0:3:0:0:
426,140,116085,2,0,P|483:168|504:214,1,100,2|0,0:3|0:0,0:0:0:0:
369,327,116352,6,0,B|286:307|286:307|250:297|253:256,1,150.000005722046,8|0,0:2|0:0,0:0:0:0:
284,132,116752,1,0,0:0:0:0:
254,242,116885,2,0,P|256:197|276:135,1,100,4|2,0:3|0:3,0:0:0:0:
117,15,117152,2,0,P|130:62|133:112,1,100,8|0,0:3|0:0,0:0:0:0:
80,299,117418,6,0,B|24:318|7:241|55:224|55:224|133:199,1,200,0|8,0:0|0:3,0:0:0:0:
254,242,117818,1,0,0:0:0:0:
84,303,117952,2,0,L|185:268,1,100,4|0,0:3|0:0,0:0:0:0:
411,144,118218,5,0,0:0:0:0:
313,122,118352,1,0,0:0:0:0:
457,350,118485,1,8,0:1:0:0:
301,142,118752,5,4,0:3:0:0:
426,131,118885,1,0,0:0:0:0:
177,0,119018,1,0,0:0:0:0:
456,0,119285,6,0,B|479:-12|479:-12|502:1,1,50,12|0,0:3|0:0,0:0:0:0:
240,261,119552,6,0,B|195:273|195:273|137:198|232:103|379:185|335:292|290:324,1,375,4|0,3:3|0:0,0:0:0:0:
219,355,120085,6,0,L|101:343,1,100,0|2,0:0|0:3,0:0:0:0:
259,171,120352,2,0,L|374:156,1,100,2|0,3:0|0:0,0:0:0:0:
153,22,120618,6,0,B|139:10|139:10|80:9|54:55|76:111,1,150.000005722046,8|0,0:2|0:0,0:0:0:0:
161,263,121018,1,0,0:0:0:0:
50,193,121152,6,0,P|97:173|151:181,1,100,4|2,3:0|0:3,0:0:0:0:
309,304,121418,1,8,0:3:0:0:
125,348,121552,1,0,0:0:0:0:
259,171,121685,6,0,B|278:161|278:161|323:174|323:233,1,100
309,304,121952,1,8,3:0:0:0:
474,44,122218,5,4,0:3:0:0:
413,241,122352,1,0,0:0:0:0:
478,48,122485,2,0,B|489:25|489:25|510:86|483:156,1,150
486,147,122752,6,0,P|422:119|396:59,1,100,8|0,0:1|0:0,0:0:0:0:
331,200,123018,2,0,P|386:210|418:252,1,100,4|0,3:0|0:0,0:0:0:0:
437,357,123285,5,0,0:0:0:0:
216,166,123552,6,0,B|208:174|192:172|192:172|205:174|221:193,1,50,12|0,0:3|0:0,0:0:0:0:
437,357,123818,6,0,B|413:382|382:373|382:373|127:327|127:327|96:317|95:283,1,375,4|0,3:0|0:0,0:0:0:0:
17,271,124352,6,0,P|44:228|88:210,1,100,0|2,0:0|0:3,0:0:0:0:
295,195,124618,1,2,3:0:0:0:
226,254,124752,1,0,0:0:0:0:
257,0,124885,5,8,0:2:0:0:
470,206,125418,5,4,3:0:0:0:
339,108,125552,1,2,0:3:0:0:
426,120,125685,1,8,0:3:0:0:
427,279,125818,1,0,0:0:0:0:
510,131,125952,5,0,0:0:0:0:
510,131,126485,6,0,L|499:80,1,50
308,184,126752,2,0,L|345:217,1,50
440,20,127018,2,0,L|390:14,1,50
429,231,127285,2,0,L|472:205,1,50
315,54,127552,2,0,L|294:99,2,50
150,0,128085,5,0,0:0:0:0:
