osu file format v14

[General]
AudioFilename: audio.mp3
AudioLeadIn: 0
PreviewTime: 14498
Countdown: 1
SampleSet: None
StackLeniency: 0.3
Mode: 0
LetterboxInBreaks: 0
WidescreenStoryboard: 0

[Editor]
DistanceSpacing: 0.2
BeatDivisor: 4
GridSize: 4
TimelineZoom: 1.2

[Metadata]
Title:Caillou
TitleUnicode:Caillou
Artist:Lil B
ArtistUnicode:Lil B
Creator:Rave-up
Version:Need 30 minutes like caillou
Source:
Tags:
BeatmapID:994854
BeatmapSetID:464661

[Difficulty]
HPDrainRate:7
CircleSize:4
OverallDifficulty:7
ApproachRate:8.5
SliderMultiplier:2.1
SliderTickRate:1

[Events]
//Background and Video events
0,0,"Caillube.jpg",0,0
//Break Periods
2,50160,56383
//Storyboard Layer 0 (Background)
//Storyboard Layer 1 (Fail)
//Storyboard Layer 2 (Pass)
//Storyboard Layer 3 (Foreground)
//Storyboard Sound Samples

[TimingPoints]
7401,443.62292051756,4,2,1,60,1,0
7401,-100,4,2,1,30,0,1
21596,-100,4,2,1,30,0,0
35765,443.62292051756,4,2,1,30,1,0
57058,-90.9090909090909,4,2,1,30,0,0

[Colours]
Combo1 : 0,128,255
Combo2 : 128,0,128
Combo3 : 0,255,64
Combo4 : 242,24,57

[HitObjects]
104,88,7401,6,0,L|216:96,1,105,2|0,0:0|0:0,0:0:0:0:
208,95,7733,1,0,0:0:0:0:
208,95,7844,1,4,0:0:0:0:
392,52,8066,1,2,0:0:0:0:
324,228,8288,1,8,0:0:0:0:
292,40,8510,1,4,0:0:0:0:
292,40,8731,1,4,0:0:0:0:
216,211,8953,2,0,P|146:244|76:213,1,157.5,2|0,0:0|0:0,0:0:0:0:
36,128,9397,2,0,L|140:132,1,105,2|6,0:0|0:0,0:0:0:0:
360,48,9840,2,0,L|256:44,1,105,0|8,0:0|0:0,0:0:0:0:
216,212,10284,1,4,0:0:0:0:
228,252,10395,1,12,0:0:0:0:
332,232,10617,1,4,0:0:0:0:
344,272,10728,1,12,0:0:0:0:
407,131,10949,2,0,P|378:89|329:71,1,105,2|0,0:0|0:0,0:0:0:0:
329,71,11282,1,0,0:0:0:0:
329,71,11393,1,4,0:0:0:0:
152,132,11615,1,2,0:0:0:0:
256,24,11837,1,8,0:0:0:0:
256,212,12059,1,4,0:0:0:0:
256,212,12280,1,4,0:0:0:0:
140,64,12502,2,0,P|85:55|40:136,1,157.5,2|0,0:0|0:0,0:0:0:0:
64,224,12946,2,2,L|48:332,1,105,2|6,0:0|0:0,0:0:0:0:
184,336,13389,1,0,0:0:0:0:
39,133,13611,1,8,0:0:0:0:
216,64,13833,1,4,0:0:0:0:
256,48,13944,1,12,0:0:0:0:
344,92,14166,1,4,0:0:0:0:
384,76,14277,1,12,0:0:0:0:
300,232,14498,2,0,P|251:215|221:172,1,105,2|0,0:0|0:0,0:0:0:0:
222,173,14831,1,0,0:0:0:0:
222,173,14942,1,4,0:0:0:0:
396,85,15164,1,2,0:0:0:0:
356,268,15386,1,8,0:0:0:0:
308,108,15608,1,4,0:0:0:0:
308,108,15829,1,4,0:0:0:0:
458,149,16051,2,0,P|483:77|444:12,1,157.5,2|0,0:0|0:0,0:0:0:0:
353,13,16495,2,2,L|306:111,1,105,2|6,0:0|0:0,0:0:0:0:
274,326,16938,2,0,L|320:232,1,105,0|8,0:0|0:0,0:0:0:0:
228,68,17382,1,4,0:0:0:0:
212,108,17493,1,12,0:0:0:0:
132,68,17715,1,4,0:0:0:0:
116,108,17826,1,12,0:0:0:0:
51,296,18047,2,0,P|102:283|153:296,1,105,2|0,0:0|0:0,0:0:0:0:
153,296,18380,1,0,0:0:0:0:
153,296,18491,1,4,0:0:0:0:
236,76,18713,1,2,0:0:0:0:
72,160,18935,1,8,0:0:0:0:
256,208,19157,1,4,0:0:0:0:
256,208,19378,1,4,0:0:0:0:
375,81,19600,2,0,P|315:109|227:65,1,157.5,2|0,0:0|0:0,0:0:0:0:
159,36,20044,2,2,P|151:87|175:133,1,105,2|6,0:0|0:0,0:0:0:0:
152,280,20487,1,0,0:0:0:0:
174,132,20709,2,0,P|114:120|62:140,1,105,8|4,0:0|0:0,0:0:0:0:
22,168,21042,2,4,P|34:108|14:56,1,105,12|4,0:0|0:0,0:0:0:0:
46,20,21375,1,12,0:0:0:0:
98,12,21486,1,4,0:0:0:0:
146,36,21596,2,0,P|192:59|243:52,1,105
336,24,21929,1,0,0:0:0:0:
336,24,22040,2,0,P|387:17|433:40,1,105,4|0,0:0|0:0,0:0:0:0:
386,245,22484,2,0,P|370:173|378:137,1,105,8|4,0:0|0:0,0:0:0:0:
376,144,22927,1,4,0:0:0:0:
304,320,23149,2,0,P|232:347|161:317,1,157.5
96,236,23593,2,0,P|112:164|104:128,1,105,0|4,0:0|0:0,0:0:0:0:
40,52,24036,1,0,0:0:0:0:
280,116,24258,2,0,P|310:74|309:22,1,105,0|4,0:0|0:0,0:0:0:0:
196,128,24591,2,0,P|216:175|262:199,1,105,4|4,0:0|0:0,0:0:0:0:
304,272,24924,1,4,0:0:0:0:
368,71,25145,2,0,P|312:83|272:131,1,105
262,199,25478,1,0,0:0:0:0:
262,199,25589,2,0,L|164:244,1,105,4|0,0:0|0:0,0:0:0:0:
32,140,26033,1,0,0:0:0:0:
160,32,26254,1,4,0:0:0:0:
160,32,26476,1,4,0:0:0:0:
166,241,26698,2,0,P|97:276|24:236,1,157.5
52,160,27142,2,0,P|101:143|150:159,1,105,0|4,0:0|0:0,0:0:0:0:
260,288,27585,1,0,0:0:0:0:
344,144,27807,1,0,0:0:0:0:
203,47,28029,1,4,0:0:0:0:
216,88,28140,1,4,0:0:0:0:
128,148,28362,1,4,0:0:0:0:
115,107,28473,1,4,0:0:0:0:
332,295,28694,2,0,P|384:296|435:306,1,105
435,306,29027,1,0,0:0:0:0:
435,306,29138,1,4,0:0:0:0:
240,244,29360,2,0,P|225:294|239:343,1,105
396,200,29803,2,4,P|410:150|396:100,1,105
236,52,30247,1,0,0:0:0:0:
236,52,30469,2,0,L|183:58,1,52.5
100,72,30691,1,0,0:0:0:0:
283,120,30913,2,0,P|315:78|315:27,1,105,4|0,0:0|0:0,0:0:0:0:
396,200,31356,2,0,P|364:241|364:292,1,105,0|4,0:0|0:0,0:0:0:0:
428,332,31689,2,4,L|316:336,1,105
272,304,32022,1,4,0:0:0:0:
116,191,32243,2,0,P|165:175|214:191,1,105
214,191,32576,1,0,0:0:0:0:
214,191,32687,1,4,0:0:0:0:
392,128,32909,1,0,0:0:0:0:
216,56,33131,2,0,L|324:44,1,105,0|4,0:0|0:0,0:0:0:0:
476,32,33574,1,4,0:0:0:0:
452,220,33796,2,0,P|424:292|344:320,1,157.5
292,248,34240,2,0,L|280:140,1,105,0|4,0:0|0:0,0:0:0:0:
192,72,34683,1,0,0:0:0:0:
388,108,34905,2,0,P|407:60|395:10,1,105,0|4,0:0|0:0,0:0:0:0:
292,39,35238,2,4,L|280:147,1,105
280,196,35571,1,4,0:0:0:0:
320,232,35681,1,4,0:0:0:0:
372,227,35764,2,0,P|422:215|472:229,1,105
472,229,36097,1,0,0:0:0:0:
472,229,36208,1,4,0:0:0:0:
232,304,36430,2,0,P|181:316|131:302,1,105
264,200,36873,1,4,0:0:0:0:
152,124,37095,1,4,0:0:0:0:
378,123,37317,2,0,P|404:197|384:272,1,157.5
308,328,37761,2,0,P|256:345|204:328,1,105,0|4,0:0|0:0,0:0:0:0:
108,200,38204,1,0,0:0:0:0:
108,200,38426,1,0,0:0:0:0:
260,72,38648,1,4,0:0:0:0:
259,72,38759,2,4,P|208:84|157:73,1,105
84,32,39092,1,4,0:0:0:0:
220,192,39313,2,0,L|228:296,1,105
228,296,39646,1,0,0:0:0:0:
228,296,39757,1,4,0:0:0:0:
312,236,39979,1,0,0:0:0:0:
132,172,40201,1,0,0:0:0:0:
232,36,40422,1,4,0:0:0:0:
232,36,40644,1,4,0:0:0:0:
460,153,40866,2,0,P|401:200|331:173,1,157.5
236,161,41310,2,0,L|116:173,1,105,0|4,0:0|0:0,0:0:0:0:
20,300,41753,1,0,0:0:0:0:
236,160,41975,1,0,0:0:0:0:
436,82,42197,1,4,0:0:0:0:
396,76,42308,1,4,0:0:0:0:
328,156,42530,1,4,0:0:0:0:
368,162,42641,1,4,0:0:0:0:
240,288,42862,2,0,P|200:252|184:204,1,105
184,205,43195,1,0,0:0:0:0:
184,205,43306,1,4,0:0:0:0:
328,156,43528,1,0,0:0:0:0:
140,108,43750,1,0,0:0:0:0:
140,108,43972,1,4,0:0:0:0:
324,44,44193,1,4,0:0:0:0:
240,288,44415,2,0,P|180:332|117:293,1,157.5
31,248,44859,2,0,P|29:299|52:348,1,105,0|4,0:0|0:0,0:0:0:0:
128,176,45302,1,0,0:0:0:0:
128,176,45524,2,0,P|130:124|107:76,1,105,0|4,0:0|0:0,0:0:0:0:
44,44,45857,2,4,L|184:40,1,105
196,20,46190,1,4,0:0:0:0:
196,220,46411,2,0,P|157:254|104:256,1,105
40,188,46744,1,0,0:0:0:0:
40,188,46855,2,0,L|56:80,1,105,4|0,0:0|0:0,0:0:0:0:
260,24,47299,2,0,L|244:132,1,105,0|4,0:0|0:0,0:0:0:0:
148,172,47742,1,4,0:0:0:0:
344,96,47964,1,0,0:0:0:0:
136,60,48186,2,0,L|28:44,1,105
32,44,48519,2,0,P|56:108|24:232,1,157.5
116,324,49073,2,0,B|180:296|180:296|160:228|264:132|356:236|340:300|340:300|399:329,1,420
80,64,57058,5,0,0:0:0:0:
84,104,57169,1,0,0:0:0:0:
88,144,57280,1,0,0:0:0:0:
92,184,57391,1,0,0:0:0:0:
96,223,57502,2,0,P|152:220|216:228,1,115.50000352478,4|0,0:0|0:0,0:0:0:0:
328,116,57946,1,0,0:0:0:0:
328,116,58167,2,0,L|408:124,1,57.7500017623902,4|0,0:0|0:0,0:0:0:0:
456,212,58388,2,0,P|396:212|316:224,1,115.50000352478,4|0,0:0|0:0,0:0:0:0:
117,298,58833,2,0,P|93:281|65:274,1,57.7500017623902
40,168,59055,2,0,P|60:147|86:135,1,57.7500017623902
195,154,59277,2,0,P|209:209|204:266,1,115.50000352478
396,140,59720,2,0,P|362:94|370:38,1,115.50000352478
476,152,60053,2,0,P|449:206|396:224,1,115.50000352478
214,140,60386,1,0,0:0:0:0:
203,146,60496,1,0,0:0:0:0:
195,154,60607,2,0,L|71:162,1,115.50000352478
