osu file format v14

[General]
AudioFilename: Anoneanoneanoneanoneanoneanoneanoneanone Kouji ga Okureteruno.mp3
AudioLeadIn: 2000
PreviewTime: 17642
Countdown: 0
SampleSet: Normal
StackLeniency: 0.3
Mode: 0
LetterboxInBreaks: 0
WidescreenStoryboard: 1

[Editor]
DistanceSpacing: 1.2
BeatDivisor: 4
GridSize: 32
TimelineZoom: 1

[Metadata]
Title:Anoneanoneanoneanoneanoneanoneanoneanone Kouji ga Okureteruno
TitleUnicode:あのね阿野ねアノネあのネアのねアノねあノネあのね工事が遅れてるの
Artist:Light
ArtistUnicode:Light
Creator:DJPop
Version:pimp's Light Insane
Source:はたらく細胞
Tags:Hataraku Saibou Cells At Work Kesshouban Platelet Naganawa Maria Anone Niconico Douga on and on Kotoba no Puzzle Mojipittan MAD 血小板 長縄 まりあ ニコニコ動画 ことばのパズル もじぴったん Deppyforce Net0 pimp
BeatmapID:1730179
BeatmapSetID:822716

[Difficulty]
HPDrainRate:4
CircleSize:4
OverallDifficulty:7
ApproachRate:8
SliderMultiplier:2.56
SliderTickRate:4

[Events]
//Background and Video events
Video,-600,"Anoneanoneanoneanoneanoneanoneanoneanone Kouji ga Okureteruno.avi"
0,0,"Anoneanoneanoneanoneanoneanoneanoneanone Kouji ga Okureteruno.jpg",0,0
//Break Periods
//Storyboard Layer 0 (Background)
//Storyboard Layer 1 (Fail)
//Storyboard Layer 2 (Pass)
//Storyboard Layer 3 (Foreground)
//Storyboard Sound Samples

[TimingPoints]
500,476.190476190476,4,1,0,60,1,0
17642,-100,4,1,0,60,0,1
32761,-100,4,1,0,60,0,0

[Colours]
Combo1 : 204,156,88
Combo2 : 192,232,248
Combo3 : 248,224,144
Combo4 : 243,230,216

[HitObjects]
192,352,500,6,0,P|135:308|128:256,1,128,2|2,0:2|0:2,0:0:0:0:
256,192,976,1,2,0:2:0:0:
256,192,1095,1,2,0:2:0:0:
256,192,1214,1,2,0:2:0:0:
384,128,1452,2,0,P|372:66|320:32,1,128
192,96,1928,1,0,0:0:0:0:
320,352,2404,6,0,L|192:352,1,128,4|0,0:0|0:0,0:0:0:0:
96,256,2880,1,0,0:0:0:0:
96,256,2999,1,0,0:0:0:0:
96,256,3119,1,0,0:0:0:0:
160,128,3357,5,2,0:2:0:0:
192,64,3476,1,2,0:2:0:0:
256,96,3595,1,2,0:2:0:0:
288,32,3714,1,2,0:2:0:0:
352,64,3833,2,0,B|367:132|350:188|256:192,1,192,2|0,0:2|2:0,0:0:0:0:
192,160,4309,5,0,0:0:0:0:
256,288,4547,1,0,0:0:0:0:
256,288,4666,1,0,0:0:0:0:
256,288,4785,2,0,L|384:288,1,128
512,352,5261,1,0,0:0:0:0:
480,288,5380,1,0,0:0:0:0:
448,224,5499,1,0,0:0:0:0:
352,128,5738,2,0,L|416:128,2,64,0|0|2,0:0|0:0|0:0,0:0:0:0:
288,256,6214,5,0,0:0:0:0:
256,192,6333,1,0,0:0:0:0:
224,128,6452,1,0,0:0:0:0:
160,96,6571,1,0,0:0:0:0:
96,64,6690,1,0,0:0:0:0:
32,96,6809,6,0,P|21:164|64:192,1,128
128,160,7166,1,0,0:0:0:0:
192,192,7285,2,0,P|207:250|160:288,1,128
96,256,7642,1,0,0:0:0:0:
192,352,7880,1,2,0:0:0:0:
320,288,8119,6,0,L|320:160,1,128
384,128,8476,2,0,L|384:256,1,128
448,288,8833,1,0,0:0:0:0:
512,256,8952,1,0,0:0:0:0:
480,192,9071,1,0,0:0:0:0:
512,128,9190,2,0,L|384:128,1,128
320,160,9547,6,2,B|224:160|248:72|183:69|160:96,1,192
96,128,10023,5,4,0:0:0:0:
128,192,10142,1,0,0:0:0:0:
160,256,10261,1,0,0:0:0:0:
32,320,10499,1,0,0:0:0:0:
160,384,10738,1,0,0:0:0:0:
224,352,10857,1,0,0:0:0:0:
288,320,10976,1,2,0:2:0:0:
256,192,11214,1,2,0:2:0:0:
224,64,11452,1,2,0:2:0:0:
96,128,11690,5,2,0:0:0:0:
32,256,11928,2,0,B|64:311|64:311|128:320,1,128
160,256,12285,2,0,B|192:201|192:201|256:192,1,128
288,256,12642,1,0,0:0:0:0:
352,288,12761,2,0,B|416:279|416:279|448:224,1,128
416,160,13119,1,0,0:0:0:0:
448,96,13238,1,0,0:0:0:0:
480,32,13357,2,0,L|352:32,1,128,0|2,0:0|0:0,0:0:0:0:
256,128,13833,6,0,P|219:74|160:64,1,128
128,128,14190,1,0,0:0:0:0:
64,160,14309,1,2,0:2:0:0:
160,256,14547,1,2,0:2:0:0:
224,224,14666,2,0,L|288:224,3,64,2|0|0|0,0:2|0:0|0:0|0:0,0:0:0:0:
192,128,15261,1,2,0:2:0:0:
192,128,15380,1,2,0:2:0:0:
192,128,15499,1,2,0:2:0:0:
128,256,15738,6,0,P|256:375|384:256,1,384,0|2,0:0|0:0,0:0:0:0:
320,128,16690,1,2,0:0:0:0:
256,256,16928,1,2,0:0:0:0:
320,128,17166,2,2,P|224:128|160:192,1,192,2|0,0:0|0:0,0:0:0:0:
192,256,17642,6,0,L|192:320,2,64,4|0|0,0:0|0:0|0:0,0:0:0:0:
256,224,17999,1,0,0:0:0:0:
288,160,18119,1,0,0:0:0:0:
256,96,18238,1,0,0:0:0:0:
192,128,18357,6,0,L|128:128,2,64
224,192,18714,1,0,0:0:0:0:
288,224,18833,1,0,0:0:0:0:
352,192,18952,1,0,0:0:0:0:
320,128,19071,6,0,L|320:64,2,64
256,160,19428,1,0,0:0:0:0:
224,224,19547,1,0,0:0:0:0:
256,288,19666,1,0,0:0:0:0:
320,256,19785,6,0,L|384:256,2,64
288,192,20142,1,0,0:0:0:0:
224,160,20261,1,0,0:0:0:0:
160,192,20380,1,0,0:0:0:0:
128,256,20499,5,2,0:2:0:0:
128,256,20619,1,2,0:2:0:0:
128,256,20738,2,0,L|192:256,1,64,2|2,0:2|0:2,0:0:0:0:
256,288,20976,1,2,0:2:0:0:
320,256,21095,1,2,0:2:0:0:
384,224,21214,2,0,L|384:160,1,64,2|2,0:2|0:2,0:0:0:0:
320,128,21452,6,0,L|320:64,2,64
256,160,21809,1,0,0:0:0:0:
224,224,21928,1,0,0:0:0:0:
256,288,22047,1,0,0:0:0:0:
320,256,22166,6,0,L|384:256,2,64
288,192,22523,1,0,0:0:0:0:
224,160,22642,1,0,0:0:0:0:
160,192,22761,1,0,0:0:0:0:
192,256,22880,6,0,L|192:320,2,64
256,224,23238,1,0,0:0:0:0:
288,160,23357,1,0,0:0:0:0:
256,96,23476,1,0,0:0:0:0:
192,128,23595,6,0,L|128:128,2,64
224,192,23952,1,0,0:0:0:0:
288,224,24071,1,0,0:0:0:0:
352,192,24190,1,0,0:0:0:0:
416,224,24309,5,2,0:2:0:0:
480,192,24428,2,0,L|480:128,1,64,2|2,0:2|0:2,0:0:0:0:
416,96,24666,1,2,0:2:0:0:
352,128,24785,5,2,0:2:0:0:
288,96,24904,2,0,L|288:32,1,64,2|2,0:2|0:2,0:0:0:0:
352,0,25142,1,2,0:2:0:0:
416,32,25261,6,0,P|382:78|320:64,1,128,4|0,0:0|0:0,0:0:0:0:
256,32,25619,2,0,P|290:-14|352:0,1,128
384,64,25976,6,0,P|350:110|288:96,1,128
224,64,26333,2,0,P|258:18|320:32,1,128
352,96,26690,6,0,P|318:142|256:128,1,128
192,96,27047,2,0,P|226:50|288:64,1,128
320,128,27404,6,0,P|286:174|224:160,1,128
160,128,27761,2,0,P|194:82|256:96,1,128
288,160,28119,5,2,0:2:0:0:
319,223,28238,2,0,P|378:239|416:192,2,128,2|2|2,0:2|0:2|0:2,0:0:0:0:
256,192,28833,1,2,0:2:0:0:
192,224,28952,1,2,0:2:0:0:
224,288,29071,6,0,L|288:288,2,64
192,352,29428,1,0,0:0:0:0:
128,320,29547,1,0,0:0:0:0:
160,256,29666,1,0,0:0:0:0:
128,192,29785,6,0,L|64:192,2,64
160,256,30142,1,0,0:0:0:0:
224,224,30261,1,0,0:0:0:0:
192,160,30380,1,0,0:0:0:0:
256,128,30499,6,0,L|256:64,2,64
320,160,30857,1,0,0:0:0:0:
352,96,30976,5,0,0:2:0:0:
416,128,31095,2,0,L|480:128,1,64,2|2,0:2|0:2,0:0:0:0:
448,192,31333,2,0,L|448:256,1,64,2|2,0:2|0:2,0:0:0:0:
384,224,31571,2,0,L|320:224,1,64,2|2,0:2|0:2,0:0:0:0:
352,160,31809,2,0,L|352:96,2,64,2|2|0,0:2|0:2|2:0,0:0:0:0:
192,320,32404,5,2,0:0:0:0:
256,352,32523,1,2,0:0:0:0:
320,320,32642,1,2,0:0:0:0:
