osu file format v14

[General]
AudioFilename: Anoneanoneanoneanoneanoneanoneanoneanone Kouji ga Okureteruno.mp3
AudioLeadIn: 2000
PreviewTime: 17642
Countdown: 0
SampleSet: Normal
StackLeniency: 0.7
Mode: 0
LetterboxInBreaks: 0
WidescreenStoryboard: 0

[Editor]
DistanceSpacing: 1.4
BeatDivisor: 4
GridSize: 16
TimelineZoom: 1.7

[Metadata]
Title:Anoneanoneanoneanoneanoneanoneanoneanone Kouji ga Okureteruno
TitleUnicode:あのね阿野ねアノネあのネアのねアノねあノネあのね工事が遅れてるの
Artist:Light
ArtistUnicode:Light
Creator:DJPop
Version:Net0's Extra
Source:はたらく細胞
Tags:Hataraku Saibou Cells At Work Kesshouban Platelet Naganawa Maria Anone Niconico Douga on and on Kotoba no Puzzle Mojipittan MAD 血小板 長縄 まりあ ニコニコ動画 ことばのパズル もじぴったん Deppyforce Net0 pimp
BeatmapID:1733039
BeatmapSetID:822716

[Difficulty]
HPDrainRate:5
CircleSize:4
OverallDifficulty:8
ApproachRate:9
SliderMultiplier:3.2
SliderTickRate:2

[Events]
//Background and Video events
Video,-600,"Anoneanoneanoneanoneanoneanoneanoneanone Kouji ga Okureteruno.avi"
0,0,"Anoneanoneanoneanoneanoneanoneanoneanone Kouji ga Okureteruno.jpg",0,0
//Break Periods
//Storyboard Layer 0 (Background)
//Storyboard Layer 1 (Fail)
//Storyboard Layer 2 (Pass)
//Storyboard Layer 3 (Foreground)
//Storyboard Sound Samples

[TimingPoints]
500,476.190476190476,4,1,0,60,1,0
2166,-151.515151515152,4,1,0,60,0,0
2404,-100,4,1,0,60,0,0
2880,-99.009900990099,4,1,0,60,0,0
3119,-100,4,1,0,60,0,0
3357,-100,4,1,0,60,0,0
3595,-71.4285714285714,4,1,0,60,0,0
3833,-55.5555555555556,4,1,0,60,0,0
4309,-100,4,1,0,60,0,0
4785,-97.0873786407767,4,1,0,60,0,0
5023,-100,4,1,0,60,0,0
5261,-100,4,1,0,60,0,0
6214,-100,4,1,0,60,0,0
7880,-151.515151515152,4,1,0,60,0,0
8119,-100,4,1,0,60,0,0
9785,-73.5294117647059,4,1,0,60,0,0
10023,-100,4,1,0,60,0,0
10261,-97.0873786407767,4,1,0,60,0,0
10976,-100,4,1,0,60,0,0
11928,-100,4,1,0,60,0,0
13595,-149.253731343284,4,1,0,60,0,0
13833,-100,4,1,0,60,0,0
14309,-100,4,1,0,60,0,0
14785,-100,4,1,0,60,0,0
15261,-100,4,1,0,60,0,0
15738,-125,4,1,0,60,0,0
16452,-100,4,1,0,60,0,0
17642,-100,4,1,0,60,0,1
25261,-100,4,1,0,60,0,1
28119,-97.0873786407767,4,1,0,60,0,1
29071,-100,4,1,0,60,0,1
32761,-100,4,1,0,60,0,0

[Colours]
Combo1 : 204,156,88
Combo2 : 192,232,248
Combo3 : 248,224,144
Combo4 : 248,240,232

[HitObjects]
256,192,500,6,0,L|256:112,1,80,2|2,0:2|0:2,0:0:0:0:
256,192,738,2,0,L|256:272,1,80,2|2,0:2|0:2,0:0:0:0:
176,192,976,1,2,0:2:0:0:
336,192,1095,1,2,0:2:0:0:
176,192,1214,1,2,0:2:0:0:
336,112,1452,6,0,L|336:32,1,80,0|0,0:0|0:0,0:0:0:0:
176,272,1690,2,0,L|176:352,1,80,0|0,0:0|0:0,0:0:0:0:
176,112,1928,2,0,L|176:32,1,80,0|0,0:0|0:0,0:0:0:0:
336,272,2166,6,0,L|336:352,1,79.1999997583008,0|0,0:0|2:0,0:0:0:0:
336,384,2404,6,0,L|496:384,1,160,4|0,0:0|0:0,0:0:0:0:
495,304,2761,1,0,2:0:0:0:
511,224,2880,2,0,P|516:183|511:143,1,80.7999983972168
480,64,3119,1,0,0:0:0:0:
256,112,3357,6,0,L|336:112,1,80,2|2,0:2|0:2,0:0:0:0:
336,192,3595,2,0,L|224:192,1,111.999996582031,2|2,0:2|0:2,0:0:0:0:
192,272,3833,2,0,L|336:272,2,143.999995605469,2|0|0,0:2|0:0|0:0,0:0:0:0:
32,272,4309,6,0,L|32:112,1,160,0|0,0:0|0:0,0:0:0:0:
32,32,4666,1,0,0:0:0:0:
127,31,4785,2,0,P|135:71|128:112,1,82.3999993084717,0|0,0:0|2:0,0:0:0:0:
224,112,5023,2,0,L|304:112,1,80,0|0,0:0|2:0,0:0:0:0:
400,112,5261,1,0,0:0:0:0:
384,208,5380,5,0,0:0:0:0:
208,208,5499,2,0,L|288:208,1,80,0|0,0:0|2:0,0:0:0:0:
384,208,5738,1,0,0:0:0:0:
368,304,5857,1,0,0:0:0:0:
256,304,5976,2,0,L|176:304,1,80,2|0,0:0|2:0,0:0:0:0:
16,208,6214,5,0,0:0:0:0:
112,208,6333,1,0,0:0:0:0:
80,304,6452,1,0,0:0:0:0:
176,304,6571,2,0,L|256:304,1,80
208,128,6809,2,0,L|208:208,1,80,0|0,0:0|2:0,0:0:0:0:
304,208,7047,1,0,0:0:0:0:
400,128,7166,5,0,0:0:0:0:
400,208,7285,2,0,L|400:128,1,80,0|0,0:0|2:0,0:0:0:0:
304,32,7523,1,0,0:0:0:0:
304,128,7642,2,0,L|304:208,1,80,0|0,0:0|2:0,0:0:0:0:
96,208,7880,6,0,L|176:208,1,79.1999997583008,2|0,0:0|2:0,0:0:0:0:
208,208,8119,6,0,L|208:48,2,160,0|0|0,0:0|0:0|0:0,0:0:0:0:
208,304,8714,1,0,0:0:0:0:
112,304,8833,2,0,L|32:304,1,80,0|0,0:0|0:0,0:0:0:0:
160,384,9071,5,0,0:0:0:0:
256,384,9190,2,0,L|336:384,1,80,0|0,0:0|2:0,0:0:0:0:
416,384,9428,1,0,0:0:0:0:
288,256,9547,1,2,0:0:0:0:
288,256,9785,6,0,B|276:195|276:195|286:154|286:154|272:96,1,163.200000996094,2|0,0:0|2:0,0:0:0:0:
271,63,10023,6,0,L|191:63,1,80,4|0,0:0|0:0,0:0:0:0:
96,64,10261,2,0,P|88:104|95:144,1,82.3999993084717,0|0,0:0|2:0,0:0:0:0:
192,272,10499,2,0,P|199:231|192:191,1,82.3999993084717,0|0,0:0|2:0,0:0:0:0:
96,240,10738,1,0,0:0:0:0:
96,240,10857,1,0,0:0:0:0:
288,240,10976,6,0,L|368:240,1,80,2|0,0:2|2:0,0:0:0:0:
424,90,11214,2,0,L|384:160,1,80,2|0,0:2|2:0,0:0:0:0:
485,282,11452,2,0,L|445:213,1,80,2|0,0:2|2:0,0:0:0:0:
368,336,11690,1,2,0:0:0:0:
368,336,11928,6,0,L|194:335,1,160,0|0,0:0|0:0,0:0:0:0:
48,304,12285,2,0,L|128:304,1,80,0|0,0:0|2:0,0:0:0:0:
192,256,12523,1,0,0:0:0:0:
144,384,12642,1,0,0:0:0:0:
192,256,12761,1,0,0:0:0:0:
288,335,12880,6,0,L|208:335,2,80
352,288,13238,1,0,0:0:0:0:
416,240,13357,2,0,L|496:240,1,80,0|0,0:0|2:0,0:0:0:0:
288,240,13595,6,0,L|288:160,1,80,2|0,0:0|2:0,0:0:0:0:
288,128,13833,6,0,L|128:128,1,160,0|0,0:0|0:0,0:0:0:0:
32,128,14190,1,0,0:0:0:0:
80,272,14309,6,0,L|80:192,1,80,2|0,0:2|2:0,0:0:0:0:
128,128,14547,1,2,0:2:0:0:
208,64,14666,1,2,0:2:0:0:
208,192,14785,5,0,0:0:0:0:
208,192,14904,1,0,0:0:0:0:
144,240,15023,2,0,L|80:288,1,80,0|0,0:0|2:0,0:0:0:0:
224,272,15261,5,2,0:2:0:0:
224,272,15380,1,2,0:2:0:0:
288,320,15499,2,0,L|352:368,1,80,2|0,0:2|2:0,0:0:0:0:
256,192,15738,12,2,16452,0:0:0:0:
256,192,16690,5,2,0:0:0:0:
256,272,16928,5,2,0:0:0:0:
256,352,17166,5,2,0:0:0:0:
256,112,17285,5,2,0:2:0:0:
256,192,17404,1,2,0:2:0:0:
256,272,17523,1,2,0:2:0:0:
176,320,17642,5,4,0:0:0:0:
80,320,17761,1,0,0:0:0:0:
32,240,17880,1,0,0:0:0:0:
128,240,17999,5,0,0:0:0:0:
224,240,18118,1,0,0:0:0:0:
272,160,18237,1,0,0:0:0:0:
176,160,18357,5,0,0:0:0:0:
80,160,18476,1,0,0:0:0:0:
32,80,18595,1,0,0:0:0:0:
128,80,18714,5,0,0:0:0:0:
224,80,18833,1,0,0:0:0:0:
288,16,18952,1,0,0:0:0:0:
272,160,19071,5,0,0:0:0:0:
272,256,19190,1,0,0:0:0:0:
272,352,19309,1,0,0:0:0:0:
176,352,19428,5,0,0:0:0:0:
176,256,19547,1,0,0:0:0:0:
176,160,19666,1,0,0:0:0:0:
80,160,19785,5,0,0:0:0:0:
80,256,19904,1,0,0:0:0:0:
80,352,20023,1,0,0:0:0:0:
176,352,20142,5,0,0:0:0:0:
272,352,20261,1,0,0:0:0:0:
368,352,20380,1,0,0:0:0:0:
432,320,20499,5,2,0:2:0:0:
403,258,20619,1,2,0:2:0:0:
353,211,20738,1,2,0:2:0:0:
290,186,20857,1,2,0:2:0:0:
222,186,20976,1,2,0:2:0:0:
158,211,21095,1,2,0:2:0:0:
109,258,21214,1,2,0:2:0:0:
80,320,21333,1,2,0:2:0:0:
112,384,21452,5,0,0:0:0:0:
192,384,21571,1,0,0:0:0:0:
272,384,21690,1,0,0:0:0:0:
352,304,21809,5,0,0:0:0:0:
272,304,21928,1,0,0:0:0:0:
192,304,22047,1,0,0:0:0:0:
272,224,22166,5,0,0:0:0:0:
352,224,22285,1,0,0:0:0:0:
432,224,22404,1,0,0:0:0:0:
512,144,22523,5,0,0:0:0:0:
432,144,22642,1,0,0:0:0:0:
352,144,22761,1,0,0:0:0:0:
272,144,22880,5,0,0:0:0:0:
272,64,22999,1,0,0:0:0:0:
352,64,23118,1,0,0:0:0:0:
192,144,23237,5,0,0:0:0:0:
192,64,23356,1,0,0:0:0:0:
272,64,23475,1,0,0:0:0:0:
112,144,23595,5,0,0:0:0:0:
112,64,23714,1,0,0:0:0:0:
192,64,23833,1,0,0:0:0:0:
32,144,23952,5,0,0:0:0:0:
32,64,24071,1,0,0:0:0:0:
112,64,24190,1,0,0:0:0:0:
192,144,24309,5,2,0:2:0:0:
272,176,24428,1,2,0:2:0:0:
192,224,24547,1,2,0:2:0:0:
272,256,24666,1,2,0:2:0:0:
272,336,24785,5,2,0:2:0:0:
192,304,24904,1,2,0:2:0:0:
272,256,25023,1,2,0:2:0:0:
192,224,25142,1,2,0:2:0:0:
112,192,25261,6,0,L|32:192,1,80,4|0,0:0|2:0,0:0:0:0:
16,112,25499,1,0,0:0:0:0:
176,112,25619,6,0,L|96:112,1,80,0|0,0:0|2:0,0:0:0:0:
80,32,25857,1,0,0:0:0:0:
256,64,25976,6,0,L|256:144,1,80,0|0,0:0|2:0,0:0:0:0:
192,192,26214,1,0,0:0:0:0:
336,112,26333,6,0,L|336:192,1,80,0|0,0:0|2:0,0:0:0:0:
272,240,26571,1,0,0:0:0:0:
400,240,26690,6,0,L|480:240,1,80,0|0,0:0|2:0,0:0:0:0:
512,160,26928,1,0,0:0:0:0:
336,112,27047,6,0,L|416:112,1,80,0|0,0:0|2:0,0:0:0:0:
464,32,27285,1,0,0:0:0:0:
336,192,27404,6,0,L|336:272,1,80,0|0,0:0|2:0,0:0:0:0:
272,336,27642,1,0,0:0:0:0:
192,208,27761,6,0,L|192:288,1,80,0|0,0:0|2:0,0:0:0:0:
128,352,27999,1,0,0:0:0:0:
0,368,28119,5,2,0:2:0:0:
54,281,28238,2,0,P|61:241|54:201,1,82.3999993084717,2|0,0:2|2:0,0:0:0:0:
0,32,28476,2,0,P|-7:72|0:112,1,82.3999993084716,2|0,0:2|2:0,0:0:0:0:
53,200,28714,1,2,0:2:0:0:
160,192,28833,1,2,0:2:0:0:
240,128,28952,1,2,0:2:0:0:
240,16,29071,5,0,0:0:0:0:
352,128,29190,1,0,0:0:0:0:
352,128,29309,1,0,0:0:0:0:
352,16,29428,5,0,0:0:0:0:
464,128,29548,1,0,0:0:0:0:
464,128,29667,1,0,0:0:0:0:
352,240,29786,5,0,0:0:0:0:
464,352,29904,1,0,0:0:0:0:
464,352,30024,1,0,0:0:0:0:
240,240,30142,5,0,0:0:0:0:
352,352,30261,1,0,0:0:0:0:
352,352,30381,1,0,0:0:0:0:
128,240,30499,5,0,0:0:0:0:
240,352,30618,1,0,0:0:0:0:
240,352,30737,1,0,0:0:0:0:
128,352,30857,1,0,0:0:0:0:
16,240,30976,5,2,0:2:0:0:
32,144,31095,1,2,0:2:0:0:
128,128,31214,1,2,0:2:0:0:
224,144,31333,1,2,0:2:0:0:
240,240,31452,1,2,0:2:0:0:
224,336,31571,1,2,0:2:0:0:
128,352,31690,1,2,0:2:0:0:
32,336,31809,1,2,0:2:0:0:
16,240,31928,1,2,0:2:0:0:
128,240,32166,5,0,0:0:0:0:
352,352,32404,5,2,0:0:0:0:
268,240,32523,1,2,0:0:0:0:
352,128,32642,1,2,0:0:0:0:
