osu file format v14

[General]
AudioFilename: audio.mp3
AudioLeadIn: 0
PreviewTime: 57457
Countdown: 0
SampleSet: Soft
StackLeniency: 0.7
Mode: 0
LetterboxInBreaks: 0
WidescreenStoryboard: 0

[Editor]
Bookmarks: 200,5685,11171,16657,22142,27628,33114,38600,44085,49571,53685,57800,101685,102200
DistanceSpacing: 1
BeatDivisor: 4
GridSize: 32
TimelineZoom: 1

[Metadata]
Title:The Showdown
TitleUnicode:The Showdown
Artist:Lifetheory
ArtistUnicode:Lifetheory
Creator:eiri-
Version:Normal
Source:osu!
Tags:Ayyri Zelq fieryrage Featured Artist FA Electronic Instrumental Drum and Bass DnB
BeatmapID:2745049
BeatmapSetID:1325151

[Difficulty]
HPDrainRate:4
CircleSize:3
OverallDifficulty:5
ApproachRate:6
SliderMultiplier:1
SliderTickRate:0.5

[Events]
//Background and Video events
0,0,"The Showdown.jpg",0,0
//Break Periods
//Storyboard Layer 0 (Background)
//Storyboard Layer 1 (Fail)
//Storyboard Layer 2 (Pass)
//Storyboard Layer 3 (Foreground)
//Storyboard Layer 4 (Overlay)
//Storyboard Sound Samples

[TimingPoints]
200,342.857142857143,4,2,1,75,1,0
22142,-100,4,2,1,80,0,0
33114,-100,4,2,1,90,0,0
53685,-100,4,2,1,90,0,0
57457,-100,4,2,1,80,0,0
57800,-90.9090909090909,4,2,1,100,0,1
101685,-90.9090909090909,4,2,1,100,0,0
102200,-90.9090909090909,4,2,1,75,0,0

[Colours]
Combo1 : 255,191,223
Combo2 : 168,226,255
Combo3 : 0,128,192
Combo4 : 255,121,188

[HitObjects]
71,87,200,6,0,P|126:98|188:100,1,100,2|0,1:2|0:0,0:0:0:0:
220,85,714,1,2,0:0:0:0:
220,85,885,2,0,L|230:192,1,100,2|0,0:0|0:0,0:0:0:0:
131,208,1571,2,0,B|102:184|102:184|28:215,1,100,2|0,0:0|0:0,0:0:0:0:
18,305,2257,1,2,0:0:0:0:
116,323,2600,1,2,0:0:0:0:
205,275,2942,6,0,L|236:374,1,100,2|0,0:0|0:0,0:0:0:0:
279,347,3457,1,2,0:0:0:0:
279,347,3628,2,0,L|389:361,1,100,2|0,0:0|0:0,0:0:0:0:
455,295,4314,1,2,0:0:0:0:
375,249,4657,1,2,1:2:0:0:
375,249,4828,1,2,0:0:0:0:
375,249,5000,2,0,L|387:139,1,100,2|2,0:0|0:0,0:0:0:0:
333,64,5685,6,0,P|286:79|269:136,1,100,2|0,1:2|0:0,0:0:0:0:
230,156,6200,1,2,0:0:0:0:
230,156,6371,2,0,P|174:143|112:141,1,100,2|0,0:0|0:0,0:0:0:0:
35,167,7057,2,0,P|47:216|54:272,1,100,2|0,0:0|0:0,0:0:0:0:
116,343,7742,1,2,0:0:0:0:
208,305,8085,1,2,0:0:0:0:
284,372,8428,6,0,L|400:361,1,100,2|0,0:0|0:0,0:0:0:0:
425,333,8942,1,2,0:0:0:0:
425,333,9114,2,0,P|389:290|376:237,1,100,2|0,0:0|0:0,0:0:0:0:
433,165,9800,1,2,0:0:0:0:
347,137,10142,1,2,1:2:0:0:
347,137,10314,1,2,0:0:0:0:
347,137,10485,2,0,L|359:28,1,100,2|2,0:0|0:0,0:0:0:0:
262,69,11171,6,0,P|227:58|150:46,1,100,2|0,1:2|0:0,0:0:0:0:
129,81,11685,1,2,0:0:0:0:
129,81,11857,2,0,P|144:144|148:200,1,100,2|0,0:0|0:0,0:0:0:0:
192,268,12543,2,0,P|177:331|173:387,1,100,2|0,0:0|0:0,0:0:0:0:
72,372,13228,1,2,0:0:0:0:
16,288,13571,1,2,0:0:0:0:
44,192,13914,6,0,L|25:88,1,100,2|0,0:0|0:0,0:0:0:0:
37,48,14428,1,2,0:0:0:0:
37,48,14600,2,0,P|105:64|152:64,1,100,2|0,0:0|0:0,0:0:0:0:
219,12,15285,1,2,0:0:0:0:
288,98,15628,1,2,1:2:0:0:
288,98,15800,1,2,0:0:0:0:
288,98,15971,2,0,P|356:82|403:82,1,100,2|2,0:0|0:0,0:0:0:0:
486,84,16657,6,0,P|484:146|471:193,1,100,2|0,1:2|0:0,0:0:0:0:
450,227,17171,1,2,0:0:0:0:
450,227,17342,2,0,L|337:218,1,100,2|0,0:0|0:0,0:0:0:0:
260,173,18028,2,0,L|147:182,1,100,2|0,0:0|0:0,0:0:0:0:
111,270,18714,1,2,0:0:0:0:
170,350,19057,1,2,0:0:0:0:
269,346,19400,6,0,L|382:337,1,100,2|0,0:0|0:0,0:0:0:0:
420,356,19914,1,2,0:0:0:0:
420,356,20085,2,0,P|446:323|439:255,1,100,2|0,0:0|0:0,0:0:0:0:
378,192,20771,1,2,0:0:0:0:
464,141,21114,1,2,1:2:0:0:
380,85,21457,2,0,L|371:13,1,50,2|2,0:0|0:0,0:0:0:0:
324,28,21800,2,0,L|264:4,1,50,2|2,0:0|0:0,0:0:0:0:
235,35,22142,6,0,P|257:101|261:146,1,100,6|0,1:2|0:0,0:0:0:0:
253,184,22657,1,2,0:0:0:0:
253,184,22828,1,2,1:2:0:0:
153,171,23171,1,0,0:0:0:0:
121,266,23514,2,0,L|142:367,1,100,2|0,1:2|0:0,0:0:0:0:
238,336,24200,1,2,1:2:0:0:
330,372,24542,1,2,0:0:0:0:
385,289,24885,6,0,L|392:186,1,100,2|0,1:2|0:0,0:0:0:0:
384,144,25400,1,2,0:0:0:0:
384,144,25571,1,2,1:2:0:0:
435,57,25914,2,0,L|501:46,2,50,0|2|2,0:0|0:0|1:2,0:0:0:0:
350,25,26600,1,6,1:2:0:0:
350,25,26771,1,2,0:0:0:0:
350,25,26942,2,0,P|299:52|252:59,1,100,2|2,1:2|0:0,0:0:0:0:
157,48,27628,6,0,L|171:151,1,100,6|0,1:2|0:0,0:0:0:0:
170,201,28142,1,2,0:0:0:0:
170,201,28314,1,2,1:2:0:0:
239,272,28657,1,0,0:0:0:0:
172,346,29000,2,0,L|61:333,1,100,2|0,1:2|0:0,0:0:0:0:
9,256,29686,1,2,1:2:0:0:
65,173,30028,1,2,0:0:0:0:
16,85,30371,6,0,P|105:127|215:111,1,200,6|2,1:2|1:2,0:0:0:0:
251,95,31228,1,2,0:0:0:0:
251,95,31400,1,2,0:0:0:0:
316,19,31742,1,6,1:2:0:0:
385,90,32085,2,0,L|393:162,1,50,2|2,1:2|0:0,0:0:0:0:
397,189,32428,1,2,0:0:0:0:
199,157,33114,6,0,P|145:174|82:188,1,100,6|10,1:2|0:0,0:0:0:0:
57,178,33628,1,2,0:0:0:0:
57,178,33800,2,0,L|90:327,1,150,2|2,1:2|0:0,0:0:0:0:
132,348,34485,1,2,1:2:0:0:
209,284,34828,1,10,0:0:0:0:
298,329,35171,2,0,L|366:316,1,50,2|2,0:0|1:2,0:0:0:0:
391,343,35514,2,0,L|459:356,1,50,10|2,0:0|0:0,0:0:0:0:
484,328,35857,6,0,P|503:275|490:220,1,100,2|10,1:2|0:0,0:0:0:0:
476,192,36371,1,2,0:0:0:0:
476,192,36542,1,2,0:0:0:0:
392,136,36885,1,10,0:0:0:0:
295,161,37228,2,0,B|307:210,1,50,2|0,1:2|0:0,0:0:0:0:
278,251,37571,2,0,P|202:242|169:243,1,100,14|0,0:0|0:0,0:0:0:0:
137,267,38085,1,2,1:2:0:0:
137,267,38257,1,10,0:0:0:0:
52,213,38600,6,0,P|72:159|130:145,1,100,6|10,1:2|0:0,0:0:0:0:
161,158,39114,1,2,0:0:0:0:
161,158,39285,2,0,L|173:4,1,150,2|2,0:0|0:0,0:0:0:0:
222,0,39971,1,2,1:2:0:0:
301,60,40314,1,10,0:0:0:0:
391,17,40657,2,0,L|461:7,1,50,2|2,0:0|1:2,0:0:0:0:
475,46,41000,2,0,L|469:111,1,50,10|2,0:0|0:0,0:0:0:0:
463,145,41342,6,0,P|413:122|361:121,1,100,2|10,1:2|0:0,0:0:0:0:
327,146,41857,1,2,0:0:0:0:
327,146,42028,1,2,0:0:0:0:
355,241,42371,1,10,0:0:0:0:
274,300,42714,2,0,B|286:350,1,50,2|0,1:2|0:0,0:0:0:0:
331,368,43057,2,0,P|405:352|438:350,1,100,14|2,0:0|0:0,0:0:0:0:
483,354,43571,1,2,1:2:0:0:
483,354,43743,1,10,0:0:0:0:
457,257,44085,6,0,L|475:139,1,100,6|10,1:2|0:0,0:0:0:0:
455,116,44599,1,2,0:0:0:0:
455,116,44771,2,0,P|388:155|313:157,1,150,2|2,1:2|0:0,0:0:0:0:
270,139,45456,1,2,1:2:0:0:
225,228,45799,1,10,0:0:0:0:
303,290,46142,2,0,L|298:353,1,50,2|2,0:0|1:2,0:0:0:0:
258,368,46485,2,0,L|197:376,1,50,10|2,0:0|0:0,0:0:0:0:
163,352,46828,6,0,P|130:328|65:314,1,100,2|10,1:2|0:0,0:0:0:0:
30,336,47342,1,2,0:0:0:0:
30,336,47513,1,2,0:0:0:0:
6,238,47856,1,10,0:0:0:0:
103,213,48199,2,0,B|92:161,1,50,2|0,1:2|0:0,0:0:0:0:
83,114,48542,2,0,P|157:95|190:92,1,100,14|2,0:0|0:0,0:0:0:0:
234,96,49056,1,2,1:2:0:0:
234,96,49228,1,10,0:0:0:0:
293,176,49571,6,0,P|287:239|240:319,1,150,6|2,1:2|0:0,0:0:0:0:
203,341,50257,2,0,P|148:323|94:322,1,100,2|10,0:0|0:0,0:0:0:0:
64,345,50771,1,2,0:0:0:0:
64,345,50942,1,2,1:2:0:0:
37,248,51285,1,10,0:0:0:0:
134,225,51628,2,0,L|140:162,1,50,2|2,0:0|1:2,0:0:0:0:
106,137,51971,2,0,L|94:71,1,50,10|2,0:0|0:0,0:0:0:0:
117,42,52314,6,0,L|230:53,1,100,6|2,1:2|1:2,0:0:0:0:
320,31,53000,1,10,0:0:0:0:
320,31,53171,1,10,0:0:0:0:
320,31,53342,2,0,L|313:104,1,50,2|2,1:2|1:2,0:0:0:0:
334,127,53685,5,6,1:2:0:0:
256,192,54028,1,2,1:2:0:0:
256,192,57457,2,0,L|325:201,1,50,2|2,0:1|0:1,0:0:0:0:
345,228,57800,6,0,P|370:149|411:59,1,165.000005035401,6|2,1:2|0:0,0:0:0:0:
389,20,58485,1,2,0:0:0:0:
279,6,58828,1,10,0:0:0:0:
216,96,59171,2,0,L|85:83,1,110.000003356934,2|10,1:2|0:0,0:0:0:0:
54,103,59685,1,2,0:0:0:0:
110,197,60028,1,2,1:2:0:0:
110,197,60200,2,0,P|96:238|93:255,1,55.0000016784668,10|2,0:0|0:0,0:0:0:0:
125,294,60542,6,0,P|198:285|257:283,1,110.000003356934,6|10,1:2|0:0,0:0:0:0:
285,305,61057,1,2,0:0:0:0:
397,292,61400,1,2,1:2:0:0:
397,292,61571,2,0,L|410:215,1,55.0000016784668,10|0,0:0|0:0,0:0:0:0:
387,185,61914,2,0,P|455:170|480:117,1,110.000003356934,2|8,1:2|0:0,0:0:0:0:
459,86,62428,2,0,P|379:75|276:71,1,165.000005035401,2|10,0:0|0:0,0:0:0:0:
192,30,63285,6,0,P|209:104|218:203,1,165.000005035401,6|2,1:2|0:0,0:0:0:0:
207,305,64142,1,2,1:2:0:0:
207,305,64314,2,0,P|169:295|141:292,1,55.0000016784668,10|2,0:0|0:0,0:0:0:0:
107,323,64657,2,0,P|57:299|53:247,1,110.000003356934,2|8,1:2|0:0,0:0:0:0:
83,204,65171,1,2,0:0:0:0:
163,128,65514,1,2,1:2:0:0:
163,128,65685,2,0,L|150:58,1,55.0000016784668,10|2,0:0|0:0,0:0:0:0:
144,19,66028,6,0,B|204:-4|204:-4|251:93,1,165.000005035401,6|2,1:2|0:0,0:0:0:0:
303,188,66885,1,2,1:2:0:0:
303,188,67057,2,0,L|381:175,1,55.0000016784668,10|2,0:0|0:0,0:0:0:0:
403,209,67400,2,0,P|483:199|483:109,1,165.000005035401,2|2,1:2|0:0,0:0:0:0:
401,81,68257,1,2,1:2:0:0:
401,81,68428,2,0,L|409:19,1,55.0000016784668,10|2,0:0|0:0,0:0:0:0:
359,0,68771,6,0,B|312:16|312:16|293:137,1,165.000005035401,6|2,1:2|0:0,0:0:0:0:
283,184,69457,1,2,0:0:0:0:
344,275,69800,1,10,0:0:0:0:
254,338,70142,2,0,P|195:321|124:312,1,110.000003356934,2|10,1:2|0:0,0:0:0:0:
95,333,70657,1,2,0:0:0:0:
38,245,71000,1,2,1:2:0:0:
38,245,71171,2,0,P|69:222|68:184,1,55.0000016784668,10|2,0:0|0:0,0:0:0:0:
47,158,71514,6,0,L|179:135,1,110.000003356934,6|10,1:2|0:0,0:0:0:0:
202,167,72028,1,2,0:0:0:0:
293,104,72371,1,2,1:2:0:0:
293,104,72542,2,0,L|305:180,1,55.0000016784668,10|0,0:0|0:0,0:0:0:0:
331,204,72885,2,0,L|312:318,1,110.000003356934,2|8,1:2|0:0,0:0:0:0:
274,352,73400,2,0,L|451:326,1,165.000005035401,2|10,0:0|0:0,0:0:0:0:
480,224,74257,6,0,B|451:183|451:183|483:52,1,165.000005035401,6|2,1:2|0:0,0:0:0:0:
373,92,75114,1,2,1:2:0:0:
373,92,75285,2,0,L|305:80,1,55.0000016784668,10|2,0:0|0:0,0:0:0:0:
272,112,75628,2,0,P|291:180|303:240,1,110.000003356934,2|8,1:2|0:0,0:0:0:0:
293,273,76142,1,2,0:0:0:0:
215,351,76485,1,2,1:2:0:0:
215,351,76657,2,0,L|137:340,1,55.0000016784668,10|2,0:0|0:0,0:0:0:0:
108,360,77000,6,0,P|49:331|70:226,1,165.000005035401,6|2,1:2|0:0,0:0:0:0:
146,185,77857,1,2,1:2:0:0:
146,185,78028,2,0,L|134:113,1,55.0000016784668,10|2,0:0|0:0,0:0:0:0:
129,76,78371,2,0,P|202:107|309:99,1,165.000005035401,2|2,1:2|0:0,0:0:0:0:
395,76,79228,1,2,1:2:0:0:
395,76,79399,2,0,L|403:14,1,55.0000016784668,10|2,0:0|0:0,0:0:0:0:
456,9,79742,6,0,P|483:29|494:63,1,55.0000016784668,6|2,1:2|1:2,0:0:0:0:
494,102,80085,2,0,P|467:122|456:156,1,55.0000016784668,10|0,0:0|0:0,0:0:0:0:
456,195,80428,1,2,0:0:0:0:
503,294,80771,1,10,0:0:0:0:
404,343,81114,2,0,P|348:328|272:322,1,110.000003356934,2|10,1:2|0:0,0:0:0:0:
250,352,81628,1,10,0:0:0:0:
179,267,81971,1,2,1:2:0:0:
179,267,82142,2,0,P|194:216|197:192,1,55.0000016784668,10|2,0:0|0:0,0:0:0:0:
171,164,82485,6,0,L|177:84,2,55.0000016784668,6|2|10,1:2|1:2|0:0,0:0:0:0:
120,187,83000,1,2,0:0:0:0:
23,146,83342,1,2,1:2:0:0:
23,146,83514,2,0,L|29:66,1,55.0000016784668,10|0,0:0|0:0,0:0:0:0:
16,36,83857,2,0,P|84:35|106:82,1,110.000003356934,2|10,1:2|0:0,0:0:0:0:
149,96,84371,1,10,0:0:0:0:
243,37,84714,1,2,1:2:0:0:
243,37,84885,2,0,P|289:50|312:51,1,55.0000016784668,10|2,0:0|0:0,0:0:0:0:
349,37,85228,6,0,P|395:24|418:23,1,55.0000016784668,6|2,1:2|1:2,0:0:0:0:
437,65,85571,2,0,P|424:111|423:134,1,55.0000016784668,10|2,0:0|0:0,0:0:0:0:
445,168,85914,1,2,0:0:0:0:
484,270,86257,1,10,0:0:0:0:
401,342,86600,2,0,P|345:327|269:321,1,110.000003356934,2|10,1:2|0:0,0:0:0:0:
242,343,87114,1,10,0:0:0:0:
165,271,87457,1,2,1:2:0:0:
165,271,87628,2,0,P|150:220|147:196,1,55.0000016784668,10|2,0:0|0:0,0:0:0:0:
173,168,87971,6,0,L|167:88,2,55.0000016784668,6|2|10,1:2|1:2|0:0,0:0:0:0:
224,191,88486,1,2,0:0:0:0:
333,226,88828,1,2,1:2:0:0:
333,226,89000,2,0,L|410:206,1,55.0000016784668,10|2,0:0|0:0,0:0:0:0:
436,234,89342,2,0,P|451:151|466:109,1,110.000003356934,2|10,1:2|0:0,0:0:0:0:
489,80,89857,1,10,0:0:0:0:
405,17,90200,1,2,1:2:0:0:
405,17,90371,2,0,P|359:30|336:31,1,55.0000016784668,10|2,0:0|0:0,0:0:0:0:
298,17,90714,6,0,P|271:37|260:71,1,55.0000016784668,6|2,1:2|1:2,0:0:0:0:
260,110,91057,2,0,P|287:130|298:164,1,55.0000016784668,10|0,0:0|0:0,0:0:0:0:
298,203,91400,1,2,0:0:0:0:
241,297,91743,1,10,0:0:0:0:
332,358,92086,2,0,L|464:337,1,110.000003356934,2|10,1:2|0:0,0:0:0:0:
495,332,92600,1,10,0:0:0:0:
432,248,92943,1,2,1:2:0:0:
432,248,93114,2,0,L|448:171,1,55.0000016784668,10|2,0:0|0:0,0:0:0:0:
415,146,93457,6,0,L|399:69,2,55.0000016784668,6|2|10,1:2|1:2|0:0,0:0:0:0:
367,173,93971,1,2,0:0:0:0:
273,125,94314,1,0,1:0:0:0:
273,125,94485,2,0,L|289:48,1,55.0000016784668,10|0,0:0|0:0,0:0:0:0:
322,31,94828,2,0,P|278:9|209:9,1,110.000003356934,2|10,1:2|0:0,0:0:0:0:
172,38,95343,1,10,0:0:0:0:
171,152,95686,1,2,1:2:0:0:
171,152,95857,2,0,P|217:165|240:166,1,55.0000016784668,10|2,0:0|0:0,0:0:0:0:
277,152,96200,6,0,P|323:139|346:138,1,55.0000016784668,6|2,1:2|1:2,0:0:0:0:
372,172,96542,2,0,L|362:249,1,55.0000016784668,10|2,0:0|0:0,0:0:0:0:
353,280,96885,1,2,0:0:0:0:
244,260,97228,1,10,0:0:0:0:
181,350,97571,2,0,P|125:335|49:329,1,110.000003356934,2|10,1:2|0:0,0:0:0:0:
27,359,98085,1,10,0:0:0:0:
23,253,98428,1,2,1:2:0:0:
23,253,98599,2,0,L|5:178,1,55.0000016784668,10|2,0:0|0:0,0:0:0:0:
33,149,98942,6,0,L|104:157,2,55.0000016784668,6|2|10,1:2|1:2|0:0,0:0:0:0:
4,101,99457,1,2,0:0:0:0:
100,44,99800,1,2,1:2:0:0:
100,44,99971,2,0,L|171:36,1,55.0000016784668,10|2,0:0|0:0,0:0:0:0:
203,11,100314,2,0,P|191:81|193:132,1,110.000003356934,2|10,1:2|0:0,0:0:0:0:
210,171,100828,1,10,0:0:0:0:
284,259,101171,1,2,1:2:0:0:
284,259,101342,2,0,P|330:272|353:273,1,55.0000016784668,10|2,0:0|0:0,0:0:0:0:
390,259,101685,5,6,0:0:0:0:
352,96,102200,1,2,0:0:0:0:
