osu file format v14

[General]
AudioFilename: audio.mp3
AudioLeadIn: 0
PreviewTime: 57457
Countdown: 0
SampleSet: Soft
StackLeniency: 0.5
Mode: 0
LetterboxInBreaks: 0
WidescreenStoryboard: 0

[Editor]
Bookmarks: 200,5685,11171,16657,22142,27628,33114,38600,44085,49571,53685,57800,101685,102200
DistanceSpacing: 0.7
BeatDivisor: 4
GridSize: 32
TimelineZoom: 2.5

[Metadata]
Title:The Showdown
TitleUnicode:The Showdown
Artist:Lifetheory
ArtistUnicode:Lifetheory
Creator:eiri-
Version:Expert
Source:osu!
Tags:Ayyri Zelq fieryrage Featured Artist FA Electronic Instrumental Drum and Bass DnB
BeatmapID:2745048
BeatmapSetID:1325151

[Difficulty]
HPDrainRate:5
CircleSize:5
OverallDifficulty:8.5
ApproachRate:9
SliderMultiplier:1.6
SliderTickRate:1

[Events]
//Background and Video events
0,0,"The Showdown.jpg",0,0
//Break Periods
//Storyboard Layer 0 (Background)
//Storyboard Layer 1 (Fail)
//Storyboard Layer 2 (Pass)
//Storyboard Layer 3 (Foreground)
//Storyboard Layer 4 (Overlay)
//Storyboard Sound Samples

[TimingPoints]
200,342.857142857143,4,2,1,75,1,0
22142,-100,4,2,1,80,0,0
33114,-86.9565217391304,4,2,1,90,0,0
53685,-133.333333333333,4,2,1,90,0,0
54371,-133.333333333333,4,2,1,30,0,0
55057,-133.333333333333,4,2,1,40,0,0
55742,-133.333333333333,4,2,1,50,0,0
56428,-133.333333333333,4,2,1,60,0,0
57114,-133.333333333333,4,2,1,75,0,0
57457,-133.333333333333,4,2,1,80,0,0
57800,-80,4,2,1,100,0,1
101685,-80,4,2,1,100,0,0
102200,-80,4,2,1,75,0,0

[Colours]
Combo1 : 255,191,223
Combo2 : 168,226,255
Combo3 : 0,128,192
Combo4 : 255,121,188

[HitObjects]
46,339,200,6,0,P|124:332|224:329,1,160,2|0,1:2|0:0,0:0:0:0:
352,288,714,1,2,0:0:0:0:
323,347,885,2,0,P|329:276|347:183,1,160,2|0,0:0|0:0,0:0:0:0:
192,128,1400,1,2,0:0:0:0:
221,187,1571,2,0,P|215:116|197:23,1,160,2|0,0:0|0:0,0:0:0:0:
399,9,2085,1,2,0:0:0:0:
336,86,2257,2,0,P|377:60|361:30,1,80,2|0,0:0|0:0,0:0:0:0:
480,160,2600,2,0,P|439:134|455:104,1,80,2|0,0:0|0:0,0:0:0:0:
327,206,2942,6,0,L|352:371,1,160,2|0,0:0|0:0,0:0:0:0:
192,288,3457,1,2,0:0:0:0:
152,335,3628,2,0,P|231:300|211:219,1,160,2|0,0:0|0:0,0:0:0:0:
152,136,4142,1,2,0:0:0:0:
106,193,4314,2,0,P|162:166|227:162,1,120,2|0,0:0|0:0,0:0:0:0:
266,174,4657,1,2,1:2:0:0:
224,64,4828,1,2,0:0:0:0:
407,23,5000,2,0,L|395:115,1,80,2|0,0:0|0:0,0:0:0:0:
497,193,5342,2,0,L|485:101,1,80,2|0,0:0|0:0,0:0:0:0:
328,283,5685,6,0,B|377:260|377:260|480:288,1,160,2|0,1:2|0:0,0:0:0:0:
382,332,6200,1,2,0:0:0:0:
308,261,6371,2,0,P|373:197|366:108,1,160,2|0,0:0|0:0,0:0:0:0:
130,332,6885,1,2,0:0:0:0:
204,261,7057,2,0,P|139:197|146:108,1,160,2|0,0:0|0:0,0:0:0:0:
256,32,7571,1,2,0:0:0:0:
160,96,7742,2,0,L|44:76,1,80,2|0,0:0|0:0,0:0:0:0:
352,96,8085,2,0,L|468:76,1,80,2|0,0:0|0:0,0:0:0:0:
256,192,8428,6,0,L|256:352,1,160,2|0,0:0|0:0,0:0:0:0:
113,289,8942,1,2,0:0:0:0:
136,216,9114,2,0,P|142:302|70:304,1,160,2|0,0:0|0:0,0:0:0:0:
82,116,9628,1,2,0:0:0:0:
9,93,9800,2,0,P|95:87|108:136,1,120,2|0,0:0|0:0,0:0:0:0:
100,144,10142,1,2,1:2:0:0:
143,17,10314,1,2,0:0:0:0:
224,192,10485,2,0,L|335:178,1,80,2|0,0:0|0:0,0:0:0:0:
384,96,10828,2,0,L|495:110,1,80,2|0,0:0|0:0,0:0:0:0:
466,286,11171,6,0,B|368:289|410:205|309:217,1,160,2|0,1:2|0:0,0:0:0:0:
288,352,11685,1,2,0:0:0:0:
360,330,11857,2,0,P|277:308|175:306,1,160,2|0,0:0|0:0,0:0:0:0:
96,192,12371,1,2,0:0:0:0:
24,170,12543,2,0,P|107:148|209:146,1,160,2|0,0:0|0:0,0:0:0:0:
96,288,13057,1,2,0:0:0:0:
98,166,13228,2,0,L|69:72,1,80,2|0,0:0|0:0,0:0:0:0:
196,264,13571,2,0,L|177:368,1,80,2|0,0:0|0:0,0:0:0:0:
329,214,13914,6,0,P|395:201|504:191,1,160,2|0,0:0|0:0,0:0:0:0:
362,339,14428,1,2,0:0:0:0:
304,293,14600,2,0,L|322:110,1,160,2|0,0:0|0:0,0:0:0:0:
209,7,15114,1,2,0:0:0:0:
140,52,15285,2,0,L|156:208,1,120,2|0,0:0|0:0,0:0:0:0:
158,217,15628,1,2,1:2:0:0:
300,147,15800,1,2,0:0:0:0:
3,108,15971,2,0,P|58:130|62:165,1,80,2|0,0:0|0:0,0:0:0:0:
284,77,16314,2,0,P|234:109|238:145,1,80,2|0,0:0|0:0,0:0:0:0:
375,197,16657,6,0,P|319:110|328:38,1,160,2|0,1:2|0:0,0:0:0:0:
136,131,17171,1,2,0:0:0:0:
210,63,17342,2,0,P|192:135|106:150,1,160,2|0,0:0|0:0,0:0:0:0:
292,225,17857,1,2,0:0:0:0:
218,157,18028,2,0,P|236:229|322:244,1,160,2|0,0:0|0:0,0:0:0:0:
177,380,18542,1,2,0:0:0:0:
67,312,18714,2,0,P|135:301|177:289,1,80,2|0,0:0|0:0,0:0:0:0:
336,356,19057,2,0,P|268:345|226:333,1,80,2|0,0:0|0:0,0:0:0:0:
448,256,19400,6,0,P|453:175|457:76,1,160,2|0,0:0|0:0,0:0:0:0:
313,13,19914,1,2,0:0:0:0:
313,99,20085,2,0,P|298:50|176:37,1,160,2|0,0:0|0:0,0:0:0:0:
81,109,20600,1,2,0:0:0:0:
81,195,20771,2,0,P|96:146|183:115,1,120,2|0,0:0|0:0,0:0:0:0:
191,116,21114,1,2,1:2:0:0:
144,306,21285,1,2,0:0:0:0:
172,148,21457,2,0,L|156:57,2,80,2|2|2,0:0|0:0|0:0,0:0:0:0:
236,206,21971,1,2,0:0:0:0:
140,382,22142,6,0,B|89:357|89:357|74:312|74:312|5:283,1,160,6|0,1:2|0:0,0:0:0:0:
216,326,22657,2,0,L|211:259,1,40,2|0,0:0|0:0,0:0:0:0:
274,373,22828,2,0,P|220:315|131:315,1,160,2|0,1:2|0:0,0:0:0:0:
338,269,23342,2,0,L|356:327,1,40,2|0,0:0|0:0,0:0:0:0:
360,188,23514,6,0,P|472:170|524:142,1,160,2|0,1:2|0:0,0:0:0:0:
305,111,24028,1,2,0:0:0:0:
401,41,24200,2,0,P|346:77|309:67,1,80,2|0,1:2|0:0,0:0:0:0:
256,240,24542,2,0,P|201:204|164:214,1,80,2|0,0:0|0:0,0:0:0:0:
111,41,24885,6,0,P|131:96|112:199,1,160,2|0,1:2|0:0,0:0:0:0:
193,338,25400,2,0,P|155:315|131:320,1,40,2|0,0:0|0:0,0:0:0:0:
46,368,25571,2,0,P|138:353|217:358,1,160,2|0,1:2|0:0,0:0:0:0:
336,239,26085,2,0,L|346:294,1,40,2|0,0:0|0:0,0:0:0:0:
204,229,26257,6,0,P|302:210|355:192,1,120,2|0,1:2|0:0,0:0:0:0:
351,185,26600,1,6,1:2:0:0:
205,127,26771,1,2,0:0:0:0:
395,34,26942,2,0,P|352:70|355:106,1,80,2|0,1:2|0:0,0:0:0:0:
213,0,27285,2,0,P|249:43|285:40,1,80,2|0,0:0|0:0,0:0:0:0:
178,193,27628,6,0,L|195:14,1,160,6|0,1:2|0:0,0:0:0:0:
378,109,28142,2,0,L|303:123,1,40,2|0,0:0|0:0,0:0:0:0:
417,53,28314,2,0,P|426:131|354:128,1,160,2|0,1:2|0:0,0:0:0:0:
250,269,28828,2,0,L|244:201,1,40,2|0,0:0|0:0,0:0:0:0:
142,303,29000,6,0,P|224:299|226:389,1,160,2|0,1:2|0:0,0:0:0:0:
201,176,29514,1,2,0:0:0:0:
83,229,29685,2,0,P|40:215|41:165,1,80,2|0,1:2|0:0,0:0:0:0:
149,51,30028,2,0,P|106:65|107:115,1,80,2|0,0:0|0:0,0:0:0:0:
288,160,30371,6,0,B|307:135|307:135|344:150|344:150|463:136,1,160,6|0,1:2|0:0,0:0:0:0:
504,80,30885,1,2,0:0:0:0:
359,4,31057,2,0,L|354:97,1,80,2|0,1:2|0:0,0:0:0:0:
224,140,31400,2,0,L|219:47,1,80,2|0,0:0|0:0,0:0:0:0:
317,185,31742,6,0,B|332:137|332:137|386:126|437:101,2,160,6|2|2,1:2|1:2|0:0,0:0:0:0:
317,185,33114,5,6,1:2:0:0:
480,224,33285,1,2,0:0:0:0:
480,224,33371,1,2,0:0:0:0:
480,224,33457,1,10,0:0:0:0:
308,323,33628,2,0,L|244:308,1,46.0000008773804,2|0,0:0|0:0,0:0:0:0:
389,371,33800,2,0,P|419:323|402:257,1,92.0000017547608,2|2,1:2|1:2,0:0:0:0:
418,289,34057,1,2,0:0:0:0:
418,289,34142,1,10,0:0:0:0:
414,178,34314,2,0,L|408:104,1,46.0000008773804,2|0,0:0|0:0,0:0:0:0:
397,4,34485,5,2,1:2:0:0:
397,4,34828,1,10,0:0:0:0:
390,30,34913,1,2,0:0:0:0:
385,58,34999,1,2,0:0:0:0:
383,85,35085,1,2,0:0:0:0:
382,113,35171,2,0,P|385:148|400:189,1,46.0000008773804,2|0,0:0|0:0,0:0:0:0:
421,246,35342,1,2,1:2:0:0:
266,225,35514,2,0,P|263:259|248:300,1,46.0000008773804,10|0,0:0|0:0,0:0:0:0:
227,357,35685,1,2,0:0:0:0:
64,288,35857,6,0,L|1:298,2,46.0000008773804,2|2|2,1:2|0:0|0:0,0:0:0:0:
134,310,36114,1,2,0:0:0:0:
134,310,36200,1,10,0:0:0:0:
57,178,36371,2,0,L|69:108,1,46.0000008773804,2|0,0:0|0:0,0:0:0:0:
3,62,36542,2,0,P|45:24|101:13,1,92.0000017547608,2|2,0:0|1:2,0:0:0:0:
77,13,36800,1,2,0:0:0:0:
77,13,36885,1,10,0:0:0:0:
238,81,37057,2,0,P|210:72|173:71,1,46.0000008773804,2|0,0:0|0:0,0:0:0:0:
58,108,37228,5,2,1:2:0:0:
58,108,37571,1,14,0:0:0:0:
93,130,37656,1,2,0:0:0:0:
119,162,37742,1,2,0:0:0:0:
132,201,37828,1,2,0:0:0:0:
133,243,37914,2,0,L|75:238,1,46.0000008773804,2|0,0:0|0:0,0:0:0:0:
17,270,38085,1,2,1:2:0:0:
128,320,38257,2,0,L|186:314,1,46.0000008773804,10|0,0:0|0:0,0:0:0:0:
244,346,38428,1,2,0:0:0:0:
271,112,38600,6,0,L|281:187,1,46.0000008773804,6|0,1:2|0:0,0:0:0:0:
355,231,38771,1,2,0:0:0:0:
360,185,38856,1,2,0:0:0:0:
366,139,38942,1,10,0:0:0:0:
341,16,39114,2,0,L|275:28,1,46.0000008773804,2|0,0:0|0:0,0:0:0:0:
455,76,39285,2,0,P|493:35|473:17,1,92.0000017547608,2|2,0:0|1:2,0:0:0:0:
478,19,39543,1,2,0:0:0:0:
478,19,39628,1,10,0:0:0:0:
439,147,39800,2,0,L|449:222,1,46.0000008773804,2|0,0:0|0:0,0:0:0:0:
465,318,39971,5,2,1:2:0:0:
465,318,40314,1,10,0:0:0:0:
440,306,40399,1,2,0:0:0:0:
413,296,40485,1,2,0:0:0:0:
387,290,40571,1,2,0:0:0:0:
360,284,40657,2,0,P|325:280|282:288,1,46.0000008773804,2|0,0:0|0:0,0:0:0:0:
222,299,40828,1,2,1:2:0:0:
326,165,41000,2,0,P|358:173|396:195,1,46.0000008773804,10|0,0:0|0:0,0:0:0:0:
449,226,41171,1,2,0:0:0:0:
273,365,41342,6,0,L|206:373,2,46.0000008773804,2|2|2,1:2|0:0|0:0,0:0:0:0:
337,319,41600,1,2,0:0:0:0:
337,319,41686,1,10,0:0:0:0:
221,222,41857,2,0,L|232:150,1,46.0000008773804,2|0,0:0|0:0,0:0:0:0:
345,144,42028,2,0,P|303:106|247:95,1,92.0000017547608,2|2,0:0|1:2,0:0:0:0:
270,95,42286,1,2,0:0:0:0:
270,95,42371,1,10,0:0:0:0:
298,255,42543,2,0,P|326:246|363:245,1,46.0000008773804,2|0,0:0|0:0,0:0:0:0:
478,282,42714,5,2,1:2:0:0:
478,282,43057,1,14,0:0:0:0:
483,237,43142,1,2,0:0:0:0:
487,191,43228,1,2,0:0:0:0:
492,145,43314,1,2,0:0:0:0:
497,100,43400,2,0,L|416:109,1,46.0000008773804,2|0,0:0|0:0,0:0:0:0:
325,116,43571,1,2,1:2:0:0:
247,223,43742,2,0,L|328:214,1,46.0000008773804,10|0,0:0|0:0,0:0:0:0:
419,207,43913,1,2,0:0:0:0:
363,373,44085,5,6,1:2:0:0:
403,295,44256,1,2,0:0:0:0:
403,295,44342,1,2,0:0:0:0:
403,295,44428,1,10,0:0:0:0:
192,320,44599,2,0,L|118:299,1,46.0000008773804,2|0,0:0|0:0,0:0:0:0:
247,223,44771,2,0,L|224:106,1,92.0000017547608,2|2,1:2|1:2,0:0:0:0:
229,132,45028,1,2,0:0:0:0:
229,132,45113,1,10,0:0:0:0:
346,194,45285,2,0,L|333:261,1,46.0000008773804,2|0,0:0|0:0,0:0:0:0:
256,352,45457,5,2,1:2:0:0:
256,352,45800,1,10,0:0:0:0:
301,346,45885,1,2,0:0:0:0:
347,340,45971,1,2,0:0:0:0:
393,335,46057,1,2,0:0:0:0:
438,329,46142,2,0,L|426:258,1,46.0000008773804,2|0,0:0|0:0,0:0:0:0:
406,157,46314,1,2,1:2:0:0:
257,208,46485,2,0,L|269:137,1,46.0000008773804,10|0,0:0|0:0,0:0:0:0:
289,36,46657,1,2,0:0:0:0:
384,81,46828,6,0,L|447:71,2,46.0000008773804,2|2|2,1:2|0:0|0:0,0:0:0:0:
314,59,47085,1,2,0:0:0:0:
314,59,47171,1,10,0:0:0:0:
342,197,47342,2,0,L|354:268,1,46.0000008773804,2|0,0:0|0:0,0:0:0:0:
275,363,47514,2,0,P|232:347|236:296,1,92.0000017547608,2|2,0:0|1:2,0:0:0:0:
229,305,47771,1,2,0:0:0:0:
229,305,47857,1,10,0:0:0:0:
360,220,48028,2,0,P|332:211|295:210,1,46.0000008773804,2|0,0:0|0:0,0:0:0:0:
119,272,48200,5,2,1:2:0:0:
119,272,48542,1,14,0:0:0:0:
123,220,48627,1,2,0:0:0:0:
128,170,48713,1,2,0:0:0:0:
132,120,48799,1,2,0:0:0:0:
137,69,48885,2,0,P|164:59|201:57,1,46.0000008773804,2|0,0:0|0:0,0:0:0:0:
307,76,49057,1,2,1:2:0:0:
332,237,49228,2,0,P|303:228|266:228,1,46.0000008773804,10|0,0:0|0:0,0:0:0:0:
162,250,49400,1,2,0:0:0:0:
368,123,49571,6,0,L|377:193,1,46.0000008773804,6|0,1:2|0:0,0:0:0:0:
470,276,49742,1,2,0:0:0:0:
475,230,49827,1,2,0:0:0:0:
481,184,49913,1,10,0:0:0:0:
361,308,50085,2,0,L|294:316,1,46.0000008773804,2|0,0:0|0:0,0:0:0:0:
192,250,50256,2,0,P|230:209|210:191,1,92.0000017547608,2|2,0:0|1:2,0:0:0:0:
215,193,50514,1,2,0:0:0:0:
215,193,50599,1,10,0:0:0:0:
41,253,50771,2,0,L|51:335,1,46.0000008773804,2|0,0:0|0:0,0:0:0:0:
224,352,50942,5,2,1:2:0:0:
224,352,51285,1,10,0:0:0:0:
231,326,51370,1,2,0:0:0:0:
236,298,51456,1,2,0:0:0:0:
238,271,51542,1,2,0:0:0:0:
239,243,51628,2,0,P|236:208|221:167,1,46.0000008773804,2|0,0:0|0:0,0:0:0:0:
200,110,51799,1,2,1:2:0:0:
350,189,51971,2,0,P|347:223|332:264,1,46.0000008773804,10|0,0:0|0:0,0:0:0:0:
311,321,52142,1,2,0:0:0:0:
64,256,52314,5,6,1:2:0:0:
128,288,52657,5,2,1:2:0:0:
224,256,53000,5,10,0:0:0:0:
160,224,53171,1,10,0:0:0:0:
192,352,53342,1,2,1:2:0:0:
192,352,53428,1,2,1:2:0:0:
192,352,53514,1,2,1:2:0:0:
192,352,53600,1,2,1:2:0:0:
192,352,53685,5,6,1:2:0:0:
224,128,54028,1,2,1:2:0:0:
224,128,54371,6,0,L|303:118,3,60.0000022888184,2|0|2|0,0:1|0:0|0:1|0:0,0:0:0:0:
177,177,55057,2,0,L|98:167,3,60.0000022888184,2|0|2|0,0:1|0:0|0:1|0:0,0:0:0:0:
224,226,55742,2,0,L|303:216,2,60.0000022888184,2|0|2,0:1|0:0|0:1,0:0:0:0:
160,288,56257,1,2,0:1:0:0:
160,288,56428,6,0,L|171:373,2,60.0000022888184,2|0|2,0:1|0:0|0:1,0:0:0:0:
64,256,56942,1,2,0:1:0:0:
64,256,57114,2,0,L|53:171,1,60.0000022888184,2|0,0:1|0:0,0:0:0:0:
224,256,57457,5,2,0:1:0:0:
32,352,57628,1,2,0:1:0:0:
128,96,57800,6,0,B|122:145|167:152|167:152|201:117|274:136,1,150,6|0,1:2|0:0,0:0:0:0:
264,158,58142,2,0,P|269:203|225:213,1,100,10|0,0:0|0:0,0:0:0:0:
241,48,58485,2,0,P|286:42|295:87,1,100,2|0,0:0|1:0,0:0:0:0:
128,96,58828,2,0,P|86:44|-22:54,1,150,10|0,0:0|0:0,0:0:0:0:
16,48,59171,6,0,L|48:276,1,200,2|10,1:2|0:0,0:0:0:0:
192,288,59685,1,2,0:0:0:0:
32,352,59857,1,2,0:0:0:0:
32,352,60028,1,2,1:2:0:0:
128,224,60200,1,10,0:0:0:0:
320,288,60371,1,2,0:0:0:0:
320,288,60457,1,2,0:0:0:0:
320,288,60542,6,0,B|369:272|369:272|373:239|373:239|469:208,1,150,6|0,1:2|0:0,0:0:0:0:
469,242,60885,2,0,L|452:356,1,100,10|0,0:0|0:0,0:0:0:0:
342,213,61228,2,0,L|359:99,1,100,2|0,0:0|1:0,0:0:0:0:
267,32,61571,2,0,P|351:22|435:-3,1,150,10|0,0:0|0:0,0:0:0:0:
450,19,61914,6,0,L|435:218,1,200,2|8,1:2|0:0,0:0:0:0:
274,287,62428,2,0,P|221:251|154:247,1,100,2|0,0:0|0:0,0:0:0:0:
335,134,62771,1,2,1:2:0:0:
370,371,62942,1,10,0:0:0:0:
489,301,63114,1,2,0:0:0:0:
489,301,63200,1,2,0:0:0:0:
489,301,63285,6,0,P|410:333|432:253,1,200,6|8,1:2|0:0,0:0:0:0:
485,121,63800,2,0,P|500:180|455:205,1,100,2|0,0:0|0:0,0:0:0:0:
335,143,64142,1,2,1:2:0:0:
263,312,64314,1,10,0:0:0:0:
108,283,64485,2,0,L|101:238,2,25,2|2|2,0:0|0:0|0:0,0:0:0:0:
159,330,64657,6,0,P|180:270|138:125,1,200,2|8,1:2|0:0,0:0:0:0:
64,64,65171,1,2,0:0:0:0:
219,9,65342,2,0,B|263:20|263:20|249:98,1,100,2|0,0:0|1:0,0:0:0:0:
238,163,65685,1,10,0:0:0:0:
404,140,65857,2,0,L|397:95,2,25,2|2|2,0:0|0:0|0:0,0:0:0:0:
362,226,66028,6,0,P|361:126|475:120,1,200,6|8,1:2|0:0,0:0:0:0:
474,260,66542,2,0,P|404:245|365:247,1,100,2|0,0:0|0:0,0:0:0:0:
256,288,66885,1,2,1:2:0:0:
288,128,67057,1,10,0:0:0:0:
387,216,67228,2,0,L|379:128,1,50,2|2,0:0|0:0,0:0:0:0:
320,352,67400,6,0,P|260:329|110:325,1,200,2|8,1:2|0:0,0:0:0:0:
32,224,67914,2,0,P|43:282|89:254,1,100,2|0,0:0|0:0,0:0:0:0:
96,128,68257,1,2,1:2:0:0:
160,256,68428,1,10,0:0:0:0:
192,32,68600,1,2,0:0:0:0:
192,32,68685,1,2,0:0:0:0:
192,32,68771,6,0,B|199:61|224:70|224:70|272:43|345:58,1,150,6|0,1:2|0:0,0:0:0:0:
355,82,69114,2,0,P|347:145|298:124,1,100,10|0,0:0|0:0,0:0:0:0:
175,185,69457,2,0,P|183:248|232:227,1,100,2|0,0:0|1:0,0:0:0:0:
384,320,69800,2,0,P|427:253|519:242,1,150,10|0,0:0|0:0,0:0:0:0:
503,274,70142,6,0,B|470:316|470:316|312:282,1,200,2|10,1:2|0:0,0:0:0:0:
168,334,70657,1,2,0:0:0:0:
256,160,70829,1,2,0:0:0:0:
256,160,71000,1,2,1:2:0:0:
119,205,71172,1,10,0:0:0:0:
353,311,71342,1,2,0:0:0:0:
353,311,71428,1,2,0:0:0:0:
353,311,71514,6,0,B|402:295|402:295|406:262|406:262|502:231,1,150,6|0,1:2|0:0,0:0:0:0:
501,269,71857,2,0,P|458:311|455:302,1,100,10|0,0:0|0:0,0:0:0:0:
352,160,72200,2,0,P|403:190|395:195,1,100,2|0,0:0|1:0,0:0:0:0:
256,288,72542,2,0,P|171:253|87:250,1,150,10|0,0:0|0:0,0:0:0:0:
85,283,72885,6,0,P|175:233|136:142,1,200,2|8,1:2|0:0,0:0:0:0:
68,100,73400,2,0,P|43:55|58:-1,1,100,2|0,0:0|0:0,0:0:0:0:
113,44,73743,1,2,1:2:0:0:
32,192,73914,1,10,0:0:0:0:
256,160,74086,1,2,0:0:0:0:
256,160,74172,1,2,0:0:0:0:
256,160,74257,6,0,B|308:166|308:166|340:137|340:137|448:116,1,200,6|8,1:2|0:0,0:0:0:0:
279,86,74771,2,0,P|262:44|323:18,1,100,2|0,0:0|0:0,0:0:0:0:
374,199,75114,1,2,1:2:0:0:
405,18,75286,1,10,0:0:0:0:
171,80,75457,2,0,L|164:35,2,25,2|2|2,0:0|0:0|0:0,0:0:0:0:
133,137,75628,6,0,P|215:127|231:242,1,200,2|8,1:2|0:0,0:0:0:0:
364,174,76143,1,2,0:0:0:0:
438,368,76314,2,0,B|394:357|394:357|408:279,1,100,2|0,0:0|1:0,0:0:0:0:
419,214,76657,1,10,0:0:0:0:
227,263,76829,2,0,L|220:218,2,25,2|2|2,0:0|0:0|0:0,0:0:0:0:
220,333,77000,6,0,P|259:249|207:146,1,200,6|8,1:2|0:0,0:0:0:0:
143,88,77514,2,0,P|180:43|236:42,1,100,2|0,0:0|0:0,0:0:0:0:
192,192,77857,1,2,1:2:0:0:
159,6,78029,1,10,0:0:0:0:
315,88,78200,2,0,L|412:75,1,50,2|2,0:0|0:0,0:0:0:0:
287,201,78371,6,0,B|265:158|265:158|314:86|300:0,1,200,2|8,1:2|0:0,0:0:0:0:
469,8,78885,2,0,P|481:56|418:58,1,100,2|0,0:0|0:0,0:0:0:0:
234,13,79229,5,2,1:2:0:0:
192,192,79400,1,10,0:0:0:0:
14,85,79572,1,2,0:0:0:0:
14,85,79657,1,2,0:0:0:0:
14,85,79742,6,0,B|58:96|58:96|44:174,1,100,6|2,1:2|1:2,0:0:0:0:
137,281,80085,2,0,B|181:270|181:270|167:192,1,100,10|0,0:0|0:0,0:0:0:0:
320,128,80428,2,0,B|364:139|364:139|350:217,1,100,2|0,0:0|1:0,0:0:0:0:
448,347,80771,2,0,P|508:321|477:233,1,150,10|0,0:0|0:0,0:0:0:0:
467,247,81114,6,0,P|439:191|471:155,1,100,2|0,1:2|0:0,0:0:0:0:
495,35,81457,2,0,L|503:110,1,50,10|0,0:0|0:0,0:0:0:0:
408,22,81628,2,0,L|422:143,1,100,10|0,0:0|0:0,0:0:0:0:
495,35,81971,1,2,1:2:0:0:
288,96,82142,2,0,L|160:73,1,100,10|2,0:0|0:0,0:0:0:0:
117,14,82400,1,2,0:0:0:0:
117,14,82485,6,0,P|165:42|141:78,1,100,6|2,1:2|1:2,0:0:0:0:
64,160,82828,2,0,P|16:188|40:224,1,100,10|0,0:0|0:0,0:0:0:0:
192,256,83171,2,0,P|240:284|216:320,1,100,2|0,0:0|1:0,0:0:0:0:
20,371,83514,2,0,P|69:291|122:311,1,150,10|0,0:0|0:0,0:0:0:0:
110,312,83857,6,0,P|57:259|78:228,1,100,2|0,1:2|0:0,0:0:0:0:
173,178,84200,2,0,L|252:186,1,50,10|0,0:0|0:0,0:0:0:0:
153,95,84371,2,0,L|277:106,1,100,10|0,0:0|0:0,0:0:0:0:
374,45,84714,1,2,1:2:0:0:
358,256,84885,2,0,L|344:117,1,100,10|2,0:0|0:0,0:0:0:0:
338,55,85142,1,2,0:0:0:0:
338,55,85228,6,0,B|356:25|356:25|438:34,2,100,6|2|10,1:2|1:2|0:0,0:0:0:0:
235,143,85742,2,0,P|150:116|23:106,1,200,2|2,0:0|1:2,0:0:0:0:
157,19,86257,2,0,P|137:79|83:64,1,100,10|2,0:0|0:0,0:0:0:0:
0,42,86514,1,2,0:0:0:0:
0,42,86600,6,0,L|14:167,1,100,2|0,1:2|0:0,0:0:0:0:
160,192,86942,2,0,L|169:103,1,50,10|0,0:0|0:0,0:0:0:0:
238,226,87114,2,0,L|247:137,1,50,10|0,0:0|0:0,0:0:0:0:
76,239,87285,1,2,0:0:0:0:
288,288,87457,1,2,1:2:0:0:
202,347,87628,2,0,P|158:304|114:324,1,100,10|2,0:0|0:0,0:0:0:0:
54,372,87885,1,2,0:0:0:0:
54,372,87971,6,0,B|15:353|15:353|28:274,2,100,6|2|10,1:2|1:2|0:0,0:0:0:0:
150,293,88485,2,0,P|96:184|5:123,1,200,2|2,0:0|1:2,0:0:0:0:
30,15,89000,2,0,P|99:44|81:81,1,100,10|2,0:0|0:0,0:0:0:0:
224,96,89257,1,2,0:0:0:0:
224,96,89342,6,0,P|308:70|391:64,1,150,2|0,1:2|0:0,0:0:0:0:
409,84,89685,2,0,L|400:180,1,50,10|0,0:0|0:0,0:0:0:0:
488,76,89857,2,0,L|477:191,1,100,10|0,0:0|0:0,0:0:0:0:
461,307,90200,1,2,1:2:0:0:
269,242,90371,2,0,P|322:192|348:203,1,100,10|2,0:0|0:0,0:0:0:0:
288,320,90628,1,2,0:0:0:0:
288,320,90714,6,0,B|264:284|264:284|197:317,1,100,6|2,1:2|1:2,0:0:0:0:
94,359,91057,2,0,B|68:308|68:308|104:284,1,100,10|0,0:0|0:0,0:0:0:0:
160,160,91400,2,0,B|136:124|136:124|69:157,1,100,2|0,0:0|1:0,0:0:0:0:
14,26,91742,2,0,P|85:14|66:80,1,150,10|0,0:0|0:0,0:0:0:0:
41,64,92085,6,0,L|163:45,1,100,2|0,1:2|0:0,0:0:0:0:
273,32,92428,2,0,L|264:96,1,50,10|0,0:0|0:0,0:0:0:0:
357,24,92600,2,0,L|341:141,1,100,10|0,0:0|0:0,0:0:0:0:
432,197,92942,1,2,1:2:0:0:
320,288,93114,2,0,P|264:252|207:271,1,100,10|2,0:0|0:0,0:0:0:0:
153,316,93371,1,2,0:0:0:0:
153,316,93457,6,0,B|187:336|187:336|224:288,1,100,6|2,1:2|1:2,0:0:0:0:
224,160,93800,2,0,B|187:111|187:111|153:131,1,100,10|0,0:0|0:0,0:0:0:0:
32,192,94142,2,0,B|41:230|41:230|102:221,1,100,2|0,0:0|1:0,0:0:0:0:
288,192,94485,2,0,L|304:68,1,100,10|2,0:0|0:0,0:0:0:0:
268,14,94742,1,2,0:0:0:0:
268,14,94828,6,0,P|317:65|401:24,1,150,2|0,1:2|0:0,0:0:0:0:
423,18,95171,2,0,L|487:25,1,50,10|0,0:0|0:0,0:0:0:0:
415,94,95342,2,0,L|479:101,1,50,10|0,0:0|0:0,0:0:0:0:
434,194,95514,1,2,0:0:0:0:
339,114,95685,1,2,1:2:0:0:
298,291,95857,2,0,B|346:285|400:260|400:260|430:281|405:320,1,150,10|0,0:0|0:0,0:0:0:0:
395,338,96200,6,0,L|285:325,2,100,6|2|10,1:2|1:2|0:0,0:0:0:0:
470,211,96714,2,0,P|421:113|344:125,1,200,2|2,0:0|1:2,0:0:0:0:
299,235,97228,2,0,P|351:234|347:181,1,100,10|2,0:0|0:0,0:0:0:0:
267,111,97486,1,2,0:0:0:0:
267,111,97571,6,0,P|183:85|100:79,1,150,2|0,1:2|0:0,0:0:0:0:
82,99,97914,2,0,L|91:195,1,50,10|0,0:0|0:0,0:0:0:0:
5,108,98085,2,0,L|14:204,1,50,10|0,0:0|0:0,0:0:0:0:
29,312,98257,1,2,0:0:0:0:
50,177,98428,1,2,1:2:0:0:
222,257,98600,2,0,P|169:207|143:218,1,100,10|2,0:0|0:0,0:0:0:0:
203,335,98857,1,2,0:0:0:0:
203,335,98942,6,0,B|227:299|227:299|294:332,2,100,6|2|10,1:2|1:2|0:0,0:0:0:0:
65,380,99457,2,0,L|85:162,1,200,2|2,0:0|1:2,0:0:0:0:
30,57,99971,2,0,P|63:117|102:76,1,100,10|2,0:0|0:0,0:0:0:0:
197,47,100228,1,2,0:0:0:0:
197,47,100314,6,0,P|131:15|28:12,1,150,2|0,1:2|0:0,0:0:0:0:
57,49,100657,2,0,L|71:136,1,50,10|0,0:0|0:0,0:0:0:0:
127,14,100828,2,0,L|144:127,1,100,10|0,0:0|0:0,0:0:0:0:
64,224,101171,1,2,1:2:0:0:
270,246,101342,2,0,P|319:212|299:186,1,100,10|2,0:0|0:0,0:0:0:0:
291,185,101600,1,2,0:0:0:0:
256,192,101685,5,6,0:0:0:0:
256,192,102200,5,2,0:0:0:0:
