osu file format v14

[General]
AudioFilename: audio.mp3
AudioLeadIn: 0
PreviewTime: 57457
Countdown: 0
SampleSet: Soft
StackLeniency: 0.7
Mode: 0
LetterboxInBreaks: 0
WidescreenStoryboard: 0

[Editor]
Bookmarks: 200,5685,11171,16657,22142,27628,33114,38600,44085,49571,53685,57800,101685,102200
DistanceSpacing: 1.2
BeatDivisor: 4
GridSize: 32
TimelineZoom: 1

[Metadata]
Title:The Showdown
TitleUnicode:The Showdown
Artist:Lifetheory
ArtistUnicode:Lifetheory
Creator:eiri-
Version:Easy
Source:osu!
Tags:Ayyri Zelq fieryrage Featured Artist FA Electronic Instrumental Drum and Bass DnB
BeatmapID:2745047
BeatmapSetID:1325151

[Difficulty]
HPDrainRate:3
CircleSize:2
OverallDifficulty:4
ApproachRate:5
SliderMultiplier:0.8
SliderTickRate:0.5

[Events]
//Background and Video events
0,0,"The Showdown.jpg",0,0
//Break Periods
//Storyboard Layer 0 (Background)
//Storyboard Layer 1 (Fail)
//Storyboard Layer 2 (Pass)
//Storyboard Layer 3 (Foreground)
//Storyboard Layer 4 (Overlay)
//Storyboard Sound Samples

[TimingPoints]
200,342.857142857143,4,2,1,75,1,0
22142,-100,4,2,1,80,0,0
33114,-100,4,2,1,90,0,0
53685,-100,4,2,1,90,0,0
57457,-100,4,2,1,80,0,0
57800,-100,4,2,1,100,0,1
101685,-100,4,2,1,100,0,0
102200,-100,4,2,1,75,0,0

[Colours]
Combo1 : 255,191,223
Combo2 : 168,226,255
Combo3 : 0,128,192
Combo4 : 255,121,188

[HitObjects]
452,358,200,6,0,P|393:352|284:348,1,160,2|2,1:2|0:0,0:0:0:0:
202,313,1228,1,0,0:0:0:0:
120,363,1571,2,0,P|51:329|65:247,1,160,2|2,0:0|0:0,0:0:0:0:
140,207,2600,1,2,0:0:0:0:
232,231,2942,6,0,L|240:137,1,80,2|0,0:0|0:0,0:0:0:0:
209,59,3628,2,0,L|303:42,1,80,2|0,0:0|0:0,0:0:0:0:
382,28,4314,1,2,0:0:0:0:
464,76,4657,2,0,L|456:170,2,80,2|2|2,1:2|0:0|0:0,0:0:0:0:
382,28,5685,6,0,P|328:18|207:14,1,160,2|2,1:2|0:0,0:0:0:0:
130,40,6714,1,0,0:0:0:0:
175,124,7057,2,0,P|188:195|190:291,1,160,2|2,0:0|0:0,0:0:0:0:
150,370,8085,1,2,0:0:0:0:
66,322,8428,6,0,L|54:231,1,80,2|0,0:0|0:0,0:0:0:0:
14,155,9114,2,0,L|26:64,1,80,2|0,0:0|0:0,0:0:0:0:
105,23,9800,1,2,0:0:0:0:
182,79,10142,2,0,P|224:69|272:63,2,80,2|2|2,1:2|0:0|0:0,0:0:0:0:
144,167,11171,6,0,P|188:228|269:205,1,160,2|2,1:2|0:0,0:0:0:0:
338,152,12200,1,0,0:0:0:0:
415,208,12542,2,0,L|433:371,1,160,2|2,0:0|0:0,0:0:0:0:
338,344,13571,1,2,0:0:0:0:
245,369,13914,6,0,L|156:358,1,80,2|0,0:0|0:0,0:0:0:0:
69,369,14600,2,0,L|48:273,1,80,2|0,0:0|0:0,0:0:0:0:
95,205,15285,1,2,0:0:0:0:
43,123,15628,2,0,L|64:27,2,80,2|2|2,1:2|0:0|0:0,0:0:0:0:
95,205,16657,6,0,P|190:191|266:174,1,160,2|2,1:2|0:0,0:0:0:0:
345,154,17685,1,0,0:0:0:0:
421,212,18028,2,0,P|485:179|469:92,1,160,2|2,0:0|0:0,0:0:0:0:
387,66,19057,1,2,0:0:0:0:
345,154,19400,6,0,L|252:146,1,80,2|0,0:0|0:0,0:0:0:0:
198,216,20085,2,0,L|105:224,1,80,2|0,0:0|0:0,0:0:0:0:
32,178,20771,1,2,0:0:0:0:
64,87,21114,2,0,L|48:2,2,80,2|2|2,1:2|0:0|0:0,0:0:0:0:
32,178,22142,5,6,1:2:0:0:
105,239,22485,1,0,0:0:0:0:
68,327,22828,2,0,P|120:335|154:343,1,80,2|0,1:2|0:0,0:0:0:0:
239,366,23514,2,0,P|296:337|288:241,1,160,2|2,1:2|1:2,0:0:0:0:
220,190,24542,1,2,0:0:0:0:
284,118,24885,6,0,L|379:130,1,80,2|0,1:2|0:0,0:0:0:0:
445,77,25571,2,0,P|433:48|393:16,1,80,2|0,1:2|0:0,0:0:0:0:
303,41,26257,1,2,1:2:0:0:
274,132,26600,2,0,L|179:144,2,80,6|2|2,1:2|1:2|0:0,0:0:0:0:
363,166,27628,5,6,1:2:0:0:
319,251,27971,1,0,0:0:0:0:
399,304,28314,2,0,P|446:285|461:248,1,80,2|0,1:2|0:0,0:0:0:0:
454,164,29000,2,0,P|400:133|375:27,1,160,2|2,1:2|1:2,0:0:0:0:
281,10,30028,1,2,0:0:0:0:
209,74,30371,6,0,L|115:65,1,80,6|0,1:2|0:0,0:0:0:0:
120,162,31057,2,0,L|214:171,1,80,2|2,1:2|0:0,0:0:0:0:
277,226,31742,1,6,1:2:0:0:
220,303,32085,1,2,1:2:0:0:
291,366,32428,1,2,0:0:0:0:
260,176,33114,6,0,P|306:164|347:161,1,80,6|10,1:2|0:0,0:0:0:0:
430,188,33800,1,2,1:2:0:0:
474,103,34142,1,10,0:0:0:0:
403,37,34485,2,0,P|325:48|297:121,1,160,2|2,1:2|0:0,0:0:0:0:
215,168,35514,1,10,0:0:0:0:
136,112,35857,6,0,L|44:103,1,80,2|10,1:2|0:0,0:0:0:0:
16,191,36542,2,0,L|108:200,1,80,2|10,0:0|0:0,0:0:0:0:
166,264,37228,1,2,1:2:0:0:
104,337,37571,2,0,P|176:315|269:309,1,160,14|10,0:0|0:0,0:0:0:0:
355,320,38600,5,6,1:2:0:0:
410,242,38942,1,10,0:0:0:0:
348,168,39285,2,0,L|258:183,1,80,2|10,0:0|0:0,0:0:0:0:
201,113,39971,2,0,P|270:54|343:50,1,160,2|2,1:2|0:0,0:0:0:0:
422,92,41000,1,10,0:0:0:0:
378,177,41342,6,0,L|393:271,2,80,2|10|2,1:2|0:0|0:0,0:0:0:0:
422,92,42371,1,10,0:0:0:0:
328,69,42714,2,0,B|286:36|286:36|170:66,1,160,2|2,1:2|0:0,0:0:0:0:
92,95,43742,1,10,0:0:0:0:
133,181,44085,6,0,L|124:272,1,80,6|10,1:2|0:0,0:0:0:0:
175,342,44771,1,2,1:2:0:0:
263,304,45113,1,10,0:0:0:0:
332,370,45457,2,0,P|394:343|496:324,1,160,2|2,1:2|0:0,0:0:0:0:
507,231,46485,1,10,0:0:0:0:
434,167,46828,6,0,L|341:178,1,80,2|10,1:2|0:0,0:0:0:0:
289,247,47514,2,0,L|196:236,1,80,2|10,0:0|0:0,0:0:0:0:
114,223,48199,1,2,1:2:0:0:
143,131,48542,2,0,B|170:99|170:99|291:113,1,160,14|10,0:0|0:0,0:0:0:0:
380,88,49571,5,6,1:2:0:0:
434,167,49913,1,10,0:0:0:0:
385,249,50257,2,0,L|397:340,1,80,2|10,0:0|0:0,0:0:0:0:
308,368,50942,2,0,P|239:309|166:305,1,160,2|2,1:2|0:0,0:0:0:0:
85,344,51971,1,10,0:0:0:0:
15,277,52314,6,0,L|0:183,2,80,6|2|10,1:2|1:2|0:0,0:0:0:0:
85,344,53342,1,2,1:2:0:0:
160,285,53685,6,0,L|257:273,1,80,6|2,1:2|1:2,0:0:0:0:
239,275,57457,1,2,0:1:0:0:
318,344,57800,6,0,P|404:320|448:312,2,120,6|2|10,1:2|0:0|0:0,0:0:0:0:
230,303,59171,2,0,P|144:279|100:271,1,120,2|2,1:2|0:0,0:0:0:0:
18,165,60200,1,10,0:0:0:0:
77,89,60542,6,0,L|169:79,1,80,6|10,1:2|0:0,0:0:0:0:
238,30,61228,1,2,0:0:0:0:
317,83,61571,1,10,0:0:0:0:
408,53,61914,2,0,L|424:180,2,120,2|2|10,1:2|0:0|0:0,0:0:0:0:
323,99,63285,6,0,L|192:87,1,120,6|2,1:2|0:0,0:0:0:0:
83,168,64314,1,10,0:0:0:0:
148,238,64657,2,0,L|141:326,1,80,2|8,1:2|0:0,0:0:0:0:
237,327,65342,2,0,L|244:239,1,80,2|10,0:0|0:0,0:0:0:0:
250,151,66028,6,0,P|187:115|182:56,2,120,6|2|10,1:2|0:0|0:0,0:0:0:0:
344,134,67400,2,0,P|338:242|340:268,1,120,2|2,1:2|0:0,0:0:0:0:
433,362,68429,1,10,0:0:0:0:
501,294,68771,6,0,L|491:202,1,80,6|10,1:2|0:0,0:0:0:0:
479,119,69457,1,2,0:0:0:0:
391,158,69800,1,10,0:0:0:0:
333,80,70143,2,0,L|203:67,2,120,2|2|10,1:2|0:0|0:0,0:0:0:0:
301,170,71514,6,0,L|171:183,1,120,6|2,1:2|0:0,0:0:0:0:
48,127,72543,1,10,0:0:0:0:
13,216,72886,2,0,L|28:313,1,80,2|8,1:2|0:0,0:0:0:0:
112,335,73571,2,0,L|127:238,1,80,2|10,0:0|0:0,0:0:0:0:
211,297,74257,6,0,P|269:288|349:282,2,120,6|2|10,1:2|0:0|0:0,0:0:0:0:
159,215,75628,2,0,L|176:39,1,160,2|2,1:2|0:0,0:0:0:0:
257,7,76657,1,10,0:0:0:0:
336,60,76999,6,0,L|469:44,1,120,6|2,1:2|0:0,0:0:0:0:
368,160,78028,1,10,0:0:0:0:
444,218,78371,2,0,L|459:347,2,120,2|2|10,1:2|0:0|0:0,0:0:0:0:
485,131,79742,6,0,L|396:121,1,80,6|10,1:2|0:0,0:0:0:0:
334,187,80428,2,0,L|245:197,1,80,2|10,0:0|0:0,0:0:0:0:
160,173,81114,2,0,P|172:239|178:302,1,120,2|10,1:2|0:0,0:0:0:0:
50,360,82142,1,10,0:0:0:0:
7,274,82485,6,0,L|13:183,1,80,6|10,1:2|0:0,0:0:0:0:
21,98,83171,1,2,0:0:0:0:
94,35,83514,1,10,0:0:0:0:
184,66,83857,2,0,P|247:56|316:41,1,120,2|10,1:2|0:0,0:0:0:0:
427,114,84886,1,10,0:0:0:0:
411,208,85228,6,0,L|398:334,1,120,6|2,1:2|0:0,0:0:0:0:
260,366,86257,1,10,0:0:0:0:
175,320,86600,2,0,L|44:335,2,120,2|10|10,1:2|0:0|0:0,0:0:0:0:
215,232,87971,6,0,L|84:217,1,120,6|2,1:2|0:0,0:0:0:0:
9,102,89000,1,10,0:0:0:0:
85,43,89342,2,0,P|132:72|160:147,1,120,2|10,1:2|0:0,0:0:0:0:
300,157,90371,1,10,0:0:0:0:
394,141,90714,6,0,L|382:53,1,80,6|10,1:2|0:0,0:0:0:0:
472,25,91400,2,0,L|484:113,1,80,2|10,0:0|0:0,0:0:0:0:
501,198,92085,2,0,P|485:246|410:259,1,120,2|10,1:2|0:0,0:0:0:0:
288,211,93114,1,10,0:0:0:0:
228,286,93457,6,0,L|136:296,1,80,6|10,1:2|0:0,0:0:0:0:
58,260,94142,1,2,0:0:0:0:
117,184,94485,1,10,0:0:0:0:
39,127,94828,2,0,L|22:-1,2,120,2|10|10,1:2|0:0|0:0,0:0:0:0:
117,184,96200,6,0,B|156:166|156:166|246:184,1,120,6|2,1:2|0:0,0:0:0:0:
373,156,97228,1,10,0:0:0:0:
388,250,97571,2,0,L|400:338,1,80,2|10,1:2|0:0,0:0:0:0:
485,286,98257,2,0,L|473:198,1,80,2|10,0:0|0:0,0:0:0:0:
414,131,98942,6,0,B|464:98|464:98|439:30,2,120,6|2|10,1:2|0:0|0:0,0:0:0:0:
326,170,100314,2,0,P|258:158|194:151,2,120,2|10|10,1:2|0:0|0:0,0:0:0:0:
398,233,101685,5,6,0:0:0:0:
421,90,102200,1,2,0:0:0:0:
