osu file format v14

[General]
AudioFilename: audio.mp3
AudioLeadIn: 0
PreviewTime: 91230
Countdown: 0
SampleSet: Normal
StackLeniency: 0.7
Mode: 0
LetterboxInBreaks: 0
WidescreenStoryboard: 1

[Editor]
DistanceSpacing: 1
BeatDivisor: 4
GridSize: 8
TimelineZoom: 1.1

[Metadata]
Title:Sakura
TitleUnicode:Sakura
Artist:Lifetheory
ArtistUnicode:Lifetheory
Creator:campa97
Version:Insane
Source:
Tags:Drum and bass dnb Instrumental Piano Violin
BeatmapID:1133971
BeatmapSetID:535371

[Difficulty]
HPDrainRate:6
CircleSize:4
OverallDifficulty:7.5
ApproachRate:9
SliderMultiplier:1.80000000596047
SliderTickRate:1

[Events]
//Background and Video events
0,0,"maxresdefault.jpg",0,0
//Break Periods
2,77725,79218
2,127097,136818
//Storyboard Layer 0 (Background)
//Storyboard Layer 1 (Fail)
//Storyboard Layer 2 (Pass)
//Storyboard Layer 3 (Foreground)
//Storyboard Sound Samples

[TimingPoints]
726,342.857142857143,4,1,1,100,1,0
726,-200,4,1,1,10,0,0
11611,-133.333333333333,4,1,1,10,0,0
23354,-133.333333333333,4,1,1,15,0,0
61068,-133.333333333333,4,1,1,10,0,0
83011,-125,4,2,1,15,0,0
85754,-125,4,2,1,25,0,0
88497,-125,4,2,1,35,0,0
91248,-125,4,2,1,45,0,0
93983,-80,4,2,1,65,0,1
110440,-66.6666666666667,4,2,1,65,0,1
115926,-100,4,1,1,55,0,0
159811,-80,4,1,1,60,0,1
159897,-80,4,1,1,60,0,0
170783,-80,4,1,1,60,0,1
170868,-80,4,1,1,60,0,0
181754,-80,4,1,1,60,0,1
181840,-80,4,1,1,60,0,0
192726,-80,4,1,1,60,0,1
192811,-80,4,1,1,60,0,0

[Colours]
Combo1 : 254,171,252
Combo2 : 255,210,255
Combo3 : 254,171,252
Combo4 : 241,146,227
Combo5 : 255,106,255
Combo6 : 241,146,227

[HitObjects]
432,320,726,6,0,L|368:256,1,90.0000002980233,2|0,0:0|0:0,0:0:0:0:
336,336,1411,2,0,L|272:272,1,90.0000002980233
208,170,2097,2,0,L|208:80,1,90.0000002980233,2|0,0:0|0:0,0:0:0:0:
128,138,2783,2,0,L|128:48,1,90.0000002980233,0|0,0:0|0:0,0:0:0:0:
80,336,3468,5,2,0:0:0:0:
80,336,3811,1,0,0:0:0:0:
208,336,4154,1,0,0:0:0:0:
208,336,4497,1,0,0:0:0:0:
336,336,4840,2,0,P|368:326|401:266,1,90.0000002980235,2|0,0:0|0:0,0:0:0:0:
360,96,5526,2,0,P|328:106|295:166,1,90.0000002980235,2|0,0:0|0:0,0:0:0:0:
360,288,6211,6,0,P|328:278|295:218,1,90.0000002980235,2|0,0:0|0:0,0:0:0:0:
208,192,6897,1,0,0:0:0:0:
208,192,7240,1,0,0:0:0:0:
64,336,7583,2,0,P|64:304|88:240,1,90.0000002980235,2|0,0:0|0:0,0:0:0:0:
144,192,8268,1,0,0:0:0:0:
168,280,8611,1,0,0:0:0:0:
240,224,8954,6,0,P|240:192|264:128,1,90.0000002980235,2|0,0:0|0:0,0:0:0:0:
320,72,9640,1,0,0:0:0:0:
352,152,9983,1,0,0:0:0:0:
400,256,10326,2,0,P|352:264|304:256,1,90.0000002980235,2|0,0:0|0:0,0:0:0:0:
160,176,11011,2,0,P|208:168|256:176,1,90.0000002980235,2|0,0:0|0:0,0:0:0:0:
256,272,11611,1,0,0:0:0:0:
256,272,11697,6,0,P|272:336|336:368,1,135.000005596876,2|0,0:0|0:0,0:0:0:0:
416,264,12383,2,0,P|400:200|336:168,1,135.000005596876
190,165,13068,2,0,P|205:229|270:277,1,135.000000447035,2|0,0:0|0:0,0:0:0:0:
342,168,13754,2,0,P|327:104|262:56,1,135.000005596877
112,128,14440,5,2,0:0:0:0:
144,256,14783,1,0,0:0:0:0:
272,272,15126,1,0,0:0:0:0:
272,272,15468,1,0,0:0:0:0:
208,160,15811,1,2,0:0:0:0:
208,160,16154,1,0,0:0:0:0:
208,160,16497,2,0,B|160:48|304:32|304:64|288:96|336:128|384:112,1,270.000011193753,2|2,0:0|0:0,0:0:0:0:
378,113,17526,5,0,0:0:0:0:
368,240,17868,2,0,B|304:256|240:176,1,135.000005596877
160,112,18554,2,0,L|160:256,1,135.000005596876,2|0,0:0|0:0,0:0:0:0:
48,176,19240,2,0,L|48:41,1,135.000005596876,0|0,0:0|0:0,0:0:0:0:
256,192,19926,5,2,0:0:0:0:
256,192,20268,1,0,0:0:0:0:
256,320,20611,1,0,0:0:0:0:
256,320,20954,1,0,0:0:0:0:
256,64,21297,2,0,P|176:96|160:160,1,135.000005596877,2|0,0:0|0:0,0:0:0:0:
160,272,21983,1,2,0:0:0:0:
272,288,22326,1,0,0:0:0:0:
352,192,22668,6,0,P|384:128|336:64,1,135.000005596877,2|0,0:0|0:0,0:0:0:0:
224,32,23354,1,0,0:0:0:0:
96,80,23697,1,0,0:0:0:0:
144,208,24040,2,0,P|192:256|256:256,1,135.000005596877,2|0,0:0|0:0,0:0:0:0:
256,128,24726,2,0,P|208:80|144:80,1,135.000005596877
16,128,25411,5,2,0:0:0:0:
48,256,25754,1,0,0:0:0:0:
160,320,26097,1,0,0:0:0:0:
288,272,26440,1,0,0:0:0:0:
272,144,26783,2,2,P|240:112|144:96,1,135.000005596877,2|0,0:0|0:0,0:0:0:0:
224,208,27468,2,0,P|256:240|352:256,1,135.000005596877,2|0,0:0|0:0,0:0:0:0:
452,176,28154,6,0,P|463:132|429:41,1,135.000005596877,2|0,0:0|0:0,0:0:0:0:
304,20,28840,1,0,0:0:0:0:
176,64,29183,1,0,0:0:0:0:
128,192,29526,2,0,P|160:224|256:240,1,135.000005596877,2|0,0:0|0:0,0:0:0:0:
380,240,30211,1,0,0:0:0:0:
316,129,30554,1,0,0:0:0:0:
384,16,30897,6,0,P|440:56|432:144,1,135.000005596877,2|0,0:0|0:0,0:0:0:0:
466,251,31583,2,0,P|402:251|346:195,1,135.000005596877
336,64,32268,2,0,L|192:64,1,135.000005596877,2|0,0:0|0:0,0:0:0:0:
105,159,32954,1,2,0:0:0:0:
200,254,33297,1,0,0:0:0:0:
295,158,33640,6,0,P|343:158|407:222,1,135.000005596877,2|0,0:0|0:0,0:0:0:0:
298,298,34326,2,0,P|250:298|186:234,1,135.000005596877
180,107,35011,1,2,0:0:0:0:
271,16,35354,1,0,0:0:0:0:
327,138,35697,1,0,0:0:0:0:
176,112,36040,1,0,0:0:0:0:
64,176,36383,6,0,L|192:256,1,135.000005596877,2|0,0:0|0:0,0:0:0:0:
176,112,37068,1,0,0:0:0:0:
272,16,37411,1,0,0:0:0:0:
326,139,37754,2,0,P|374:187|382:267,1,135.000005596877,2|0,0:0|0:0,0:0:0:0:
289,346,38440,1,2,0:0:0:0:
240,240,38783,1,0,0:0:0:0:
385,251,39126,6,0,P|425:198|428:131,1,135.000005596877,2|0,0:0|0:0,0:0:0:0:
428,131,39811,1,0,0:0:0:0:
428,131,40154,1,0,0:0:0:0:
312,152,40497,2,0,P|271:204|268:271,1,135.000005596877,2|0,0:0|0:0,0:0:0:0:
268,271,41183,1,0,0:0:0:0:
268,271,41526,1,0,0:0:0:0:
396,231,41868,6,0,L|396:87,1,135.000005596877,2|0,0:0|0:0,0:0:0:0:
273,38,42554,2,0,L|273:182,1,135.000005596877
272,312,43240,1,2,0:0:0:0:
144,240,43583,1,0,0:0:0:0:
144,112,43926,2,0,P|192:64|256:48,1,135.000005596877,2|0,0:0|0:0,0:0:0:0:
384,48,44611,5,2,0:0:0:0:
320,168,44954,1,0,0:0:0:0:
444,168,45297,1,0,0:0:0:0:
384,288,45640,1,0,0:0:0:0:
251,264,45983,2,0,P|236:189|187:136,1,135.000005596877,2|0,0:0|0:0,0:0:0:0:
160,24,46668,2,0,P|112:40|86:134,1,135.000005596877
48,256,47354,5,2,0:0:0:0:
176,304,47697,1,0,0:0:0:0:
304,304,48040,1,0,0:0:0:0:
432,256,48383,1,0,0:0:0:0:
304,192,48726,2,0,P|240:224|176:192,1,135.000005596877,2|0,0:0|0:0,0:0:0:0:
80,128,49411,2,0,P|144:96|208:128,1,135.000005596877,2|0,0:0|0:0,0:0:0:0:
272,240,50097,5,2,0:0:0:0:
367,335,50440,1,0,0:0:0:0:
462,239,50783,1,0,0:0:0:0:
366,143,51126,1,0,0:0:0:0:
241,91,51468,2,0,P|206:69|108:58,1,135.000005596877,2|0,0:0|0:0,0:0:0:0:
3,132,52154,2,0,P|35:228|83:260,1,135.000005596877
154,343,52840,5,2,0:0:0:0:
289,343,53183,1,0,0:0:0:0:
384,247,53526,2,0,P|426:173|390:122,1,135.000005596877
311,39,54211,1,2,0:0:0:0:
175,39,54554,1,0,0:0:0:0:
80,136,54897,1,2,0:0:0:0:
176,232,55240,1,2,0:0:0:0:
311,229,55583,6,0,B|364:189|276:153|339:100,1,135.000005596877,2|0,0:0|0:0,0:0:0:0:
398,16,56268,2,0,P|478:48|468:102,1,135.000005596877
416,208,56954,1,2,0:0:0:0:
320,304,57297,1,0,0:0:0:0:
192,304,57640,2,0,P|144:272|96:208,1,135.000005596877
80,80,58326,5,2,0:0:0:0:
192,144,58668,1,0,0:0:0:0:
304,208,59011,2,0,P|272:288|208:304,1,135.000005596877
96,304,59697,2,0,P|128:224|192:208,1,135.000005596877,2|0,0:0|0:0,0:0:0:0:
304,208,60383,2,0,P|368:192|384:112,1,135.000005596877,2|0,0:0|0:0,0:0:0:0:
336,0,61068,5,2,0:0:0:0:
240,96,61411,1,0,0:0:0:0:
240,224,61754,1,0,0:0:0:0:
160,320,62097,1,0,0:0:0:0:
64,224,62440,2,0,P|80:144|128:112,1,135.000005596877,2|0,0:0|0:0,0:0:0:0:
256,112,63126,2,0,P|240:192|192:224,1,135.000005596877
112,320,63811,6,0,P|176:352|240:352,1,135.000005596877,2|0,0:0|0:0,0:0:0:0:
368,352,64497,1,0,0:0:0:0:
464,256,64840,1,0,0:0:0:0:
368,160,65183,5,2,0:0:0:0:
272,256,65526,1,0,0:0:0:0:
176,352,65868,1,2,0:0:0:0:
48,304,66211,1,0,0:0:0:0:
128,192,66554,6,0,P|160:112|224:96,1,135.000005596877,2|0,0:0|0:0,0:0:0:0:
200,95,67240,1,0,0:0:0:0:
200,95,67583,1,0,0:0:0:0:
256,224,67926,2,0,P|320:192|336:128,1,135.000005596877,2|0,0:0|0:0,0:0:0:0:
336,134,68611,1,0,0:0:0:0:
336,134,68954,1,0,0:0:0:0:
208,112,69297,6,0,L|128:224,1,135.000005596877,2|0,0:0|0:0,0:0:0:0:
176,352,69983,2,0,L|256:240,1,135.000005596877,2|0,0:0|0:0,0:0:0:0:
336,144,70668,1,2,0:0:0:0:
288,32,71011,1,0,0:0:0:0:
416,32,71354,1,2,0:0:0:0:
464,144,71697,1,0,0:0:0:0:
432,272,72040,6,0,B|384:304|368:352|368:352|352:320|304:320|304:320|336:240|304:176|304:176|320:144|368:128|368:128|288:96|256:48|256:48|224:96|144:128|144:128|192:144|208:176|208:176|176:240|208:320|208:320|160:320|144:352|144:352|128:304|80:272,1,1080.00004477501
160,240,76497,6,0,B|224:224|224:144|224:144|272:256|272:256|272:176|336:96,1,405.00001679063
112,160,80268,6,0,B|96:192|96:224|112:240|128:256|176:240|176:240|176:304|160:320|160:336|160:336|160:352|160:368|208:384|240:288|256:256|256:256|272:288|304:384|352:368|352:352|352:336|352:336|352:320|336:304|336:240|336:240|384:256|400:240|416:224|416:192|400:160,1,810.00003358126
480,64,83011,6,0,L|480:144,1,72.0000002384188,4|0,0:0|0:0,0:0:0:0:
480,224,83354,1,0,0:0:0:0:
400,256,83526,1,0,0:0:0:0:
336,208,83697,2,0,L|272:144,1,72.0000002384188
200,144,84040,1,0,0:0:0:0:
144,208,84211,1,0,0:0:0:0:
144,296,84383,5,4,0:0:0:0:
56,280,84554,1,0,0:0:0:0:
24,200,84726,1,0,0:0:0:0:
64,120,84897,1,0,0:0:0:0:
128,64,85068,1,4,0:0:0:0:
208,24,85240,1,0,0:0:0:0:
264,88,85411,1,4,0:0:0:0:
328,24,85583,1,0,0:0:0:0:
360,105,85754,6,0,L|296:169,1,72.0000002384188,4|0,0:0|0:0,0:0:0:0:
376,200,86097,2,0,L|312:264,1,72.0000002384188
188,274,86440,2,0,L|239:224,1,72.0000002384188
143,206,86783,2,0,L|193:155,1,72.0000002384188
244,90,87126,5,4,0:0:0:0:
310,156,87297,1,0,0:0:0:0:
240,224,87468,1,0,0:0:0:0:
309,288,87640,1,0,0:0:0:0:
375,221,87811,2,0,P|400:152|365:80,1,144.000000476838,4|4,0:0|0:0,0:0:0:0:
201,149,88497,5,4,0:0:0:0:
217,229,88668,1,0,0:0:0:0:
265,293,88840,1,0,0:0:0:0:
345,309,89011,1,0,0:0:0:0:
400,248,89183,5,0,0:0:0:0:
384,168,89354,1,0,0:0:0:0:
336,104,89526,1,0,0:0:0:0:
256,88,89697,1,0,0:0:0:0:
256,224,89868,6,0,L|256:304,1,72.0000002384186,4|0,0:0|0:0,0:0:0:0:
256,160,90211,2,0,L|256:64,1,72.0000002384186,0|0,0:0|0:0,0:0:0:0:
224,192,90554,2,0,L|144:192,1,72.0000002384186,4|0,0:0|0:0,0:0:0:0:
288,192,90897,2,0,L|368:192,1,72.0000002384186,4|0,0:0|0:0,0:0:0:0:
416,48,91240,6,0,L|352:112,1,72.0000002384186,4|0,0:0|0:0,0:0:0:0:
432,144,91583,2,0,L|432:224,1,72.0000002384188,0|0,0:0|0:0,0:0:0:0:
384,272,91926,2,0,P|304:288|240:272,2,144.000000476838
352,128,92954,2,0,P|432:112|496:128,2,144.000000476838
256,192,93983,6,0,P|224:272|176:288,1,112.500000372529,4|0,0:0|0:0,0:0:0:0:
176,128,94325,2,0,P|240:80|304:96,1,112.500000372529,0|0,0:0|0:0,0:0:0:0:
432,160,94668,2,0,P|352:192|288:176,1,112.500000372529,4|0,0:0|0:0,0:0:0:0:
158,190,95011,1,0,0:0:0:0:
38,70,95183,1,0,0:0:0:0:
38,70,95268,1,0,0:0:0:0:
38,70,95354,6,0,P|38:166|70:198,1,112.500000372529,4|0,0:0|0:0,0:0:0:0:
168,296,95697,6,0,P|167:200|136:168,1,112.500000372529,4|0,0:0|0:0,0:0:0:0:
52,60,96040,2,0,P|80:15|148:12,1,112.500000372529,4|0,0:0|0:0,0:0:0:0:
304,32,96383,2,0,P|320:112|304:176,1,112.500000372529,4|0,0:0|0:0,0:0:0:0:
296,192,96640,1,0,0:0:0:0:
248,216,96725,6,0,P|232:136|248:72,1,112.500000372529,4|0,0:0|0:0,0:0:0:0:
144,32,97068,2,0,P|160:112|144:176,1,112.500000372529
120,184,97325,1,0,0:0:0:0:
72,208,97411,2,0,P|56:128|72:64,1,112.500000372529,4|0,0:0|0:0,0:0:0:0:
6,242,97754,2,0,P|46:284|113:267,1,112.500000372529,4|0,0:0|0:0,0:0:0:0:
336,96,98097,5,4,0:0:0:0:
176,288,98268,1,0,0:0:0:0:
176,136,98440,1,4,0:0:0:0:
336,244,98611,1,0,0:0:0:0:
168,192,98783,1,4,0:0:0:0:
256,344,98954,1,0,0:0:0:0:
336,192,99125,1,4,0:0:0:0:
256,32,99297,1,0,0:0:0:0:
256,64,99383,1,0,0:0:0:0:
256,112,99468,6,0,B|240:144|256:176|256:176|272:208|256:240,1,112.500000372529,4|0,0:0|0:0,0:0:0:0:
144,192,99811,2,0,P|160:240|224:288,1,112.500000372529
368,192,100154,2,0,P|352:240|288:288,1,112.500000372529,4|0,0:0|0:0,0:0:0:0:
256,384,100497,1,0,0:0:0:0:
256,128,100668,1,0,0:0:0:0:
256,128,100754,1,0,0:0:0:0:
256,128,100840,6,0,P|208:64|144:48,1,112.500000372529,4|0,0:0|0:0,0:0:0:0:
256,256,101183,2,0,P|304:320|368:336,1,112.500000372529,4|0,0:0|0:0,0:0:0:0:
192,192,101525,2,0,P|128:240|112:304,1,112.500000372529,4|0,0:0|0:0,0:0:0:0:
320,192,101868,2,0,P|384:144|400:80,1,112.500000372529,4|0,0:0|0:0,0:0:0:0:
368,288,102211,5,4,0:0:0:0:
256,192,102383,1,0,0:0:0:0:
256,304,102554,1,0,0:0:0:0:
368,160,102725,1,0,0:0:0:0:
256,192,102897,2,0,P|160:144|160:112,1,112.500000372529,4|0,0:0|0:0,0:0:0:0:
288,80,103240,2,0,P|384:128|384:160,1,112.500000372529
192,256,103583,5,4,0:0:0:0:
320,128,103754,1,0,0:0:0:0:
192,128,103925,1,4,0:0:0:0:
320,256,104097,1,0,0:0:0:0:
256,32,104268,1,4,0:0:0:0:
152,192,104440,1,4,0:0:0:0:
256,344,104611,1,4,0:0:0:0:
360,192,104783,1,4,0:0:0:0:
256,192,104954,6,0,P|240:272|176:288,1,112.500000372529,4|0,0:0|0:0,0:0:0:0:
176,208,105297,2,0,P|192:128|256:112,1,112.500000372529,0|0,0:0|0:0,0:0:0:0:
352,159,105640,2,0,L|352:271,1,112.500000372529,4|0,0:0|0:0,0:0:0:0:
352,271,105983,1,0,0:0:0:0:
144,192,106154,1,0,0:0:0:0:
144,192,106240,1,0,0:0:0:0:
144,192,106325,6,0,P|208:144|208:96,1,112.500000372529,4|0,0:0|0:0,0:0:0:0:
224,16,106668,2,0,P|288:48|304:96,1,112.500000372529,4|0,0:0|0:0,0:0:0:0:
304,192,107011,2,0,P|323:244|373:267,1,112.500000372529,4|0,0:0|0:0,0:0:0:0:
480,256,107354,2,0,P|461:204|411:181,1,112.500000372529,4|0,0:0|0:0,0:0:0:0:
256,80,107697,5,4,0:0:0:0:
176,144,107868,1,0,0:0:0:0:
176,256,108040,1,0,0:0:0:0:
256,192,108211,1,0,0:0:0:0:
336,256,108383,1,4,0:0:0:0:
256,320,108554,1,0,0:0:0:0:
176,256,108725,1,0,0:0:0:0:
176,256,108897,1,0,0:0:0:0:
256,192,109068,6,0,P|240:144|160:112,1,112.500000372529,4|0,0:0|0:0,0:0:0:0:
192,272,109411,2,0,P|144:288|112:368,1,112.500000372529,4|0,0:0|0:0,0:0:0:0:
304,272,109754,2,0,P|320:320|400:352,1,112.500000372529,4|0,0:0|0:0,0:0:0:0:
464,288,110097,1,4,0:0:0:0:
384,128,110268,1,0,0:0:0:0:
384,128,110354,1,0,0:0:0:0:
384,128,110440,6,0,B|328:136|320:80|304:64|272:64,1,135.000005596877,4|0,0:0|0:0,0:0:0:0:
96,192,110783,2,0,P|198:185|225:146,1,135.000005596876
272,80,111125,1,4,0:0:0:0:
384,192,111297,1,0,0:0:0:0:
272,304,111468,1,0,0:0:0:0:
384,192,111640,1,0,0:0:0:0:
384,192,111725,1,0,0:0:0:0:
384,192,111811,6,0,P|350:108|286:84,1,135.000005596877,4|0,0:0|0:0,0:0:0:0:
256,192,112154,2,0,P|290:276|354:300,1,135.000005596877
453,295,112497,2,0,P|419:211|355:187,1,135.000005596877,4|0,0:0|0:0,0:0:0:0:
256,192,112840,1,4,0:0:0:0:
320,304,113011,1,0,0:0:0:0:
320,304,113097,1,0,0:0:0:0:
320,304,113183,6,0,B|288:336|240:320|240:320|199:346,1,135.000005596876,4|0,0:0|0:0,0:0:0:0:
44,324,113525,2,0,P|108:292|108:212,1,135.000005596876
192,48,113868,2,0,P|128:80|128:160,2,135.000005596876,4|0|0,0:0|0:0|0:0,0:0:0:0:
384,128,114383,1,0,0:0:0:0:
383,160,114469,1,0,0:0:0:0:
384,191,114554,5,4,0:0:0:0:
256,328,114725,1,0,0:0:0:0:
128,272,114897,1,4,0:0:0:0:
128,136,115068,1,0,0:0:0:0:
256,192,115240,1,4,0:0:0:0:
392,192,115411,1,4,0:0:0:0:
256,112,115583,1,4,0:0:0:0:
136,192,115754,1,4,0:0:0:0:
256,192,115925,5,4,2:0:0:0:
256,272,117468,5,0,0:0:0:0:
256,272,117640,1,0,0:0:0:0:
256,272,117811,1,0,0:0:0:0:
256,272,117983,2,0,P|272:352|304:384,2,90.0000002980235,2|0|0,0:0|0:0|0:0,0:0:0:0:
256,192,118497,1,0,0:0:0:0:
256,112,118668,6,0,P|208:64|176:64,1,90.0000002980235,2|0,0:0|0:0,0:0:0:0:
104,80,119011,2,0,P|80:56|64:0,2,90.0000002980235,0|0|2,0:0|0:0|0:0,0:0:0:0:
189,108,119525,1,0,0:0:0:0:
276,136,119697,1,0,0:0:0:0:
363,164,119868,1,0,0:0:0:0:
334,248,120040,5,2,0:0:0:0:
247,220,120211,1,0,0:0:0:0:
172,168,120383,2,0,P|156:200|188:280,1,90.0000002980235,2|0,0:0|0:0,0:0:0:0:
214,325,120725,2,0,P|246:341|326:309,1,90.0000002980235,2|0,0:0|0:0,0:0:0:0:
360,268,121068,2,2,P|376:236|344:156,1,90.0000002980235
296,130,121411,6,0,P|280:162|312:242,1,90.0000002980235,2|0,0:0|0:0,0:0:0:0:
352,272,121754,1,0,0:0:0:0:
448,272,121925,1,0,0:0:0:0:
400,192,122097,2,0,P|384:144|400:96,1,90.0000002980235,2|0,0:0|0:0,0:0:0:0:
440,32,122440,1,0,0:0:0:0:
480,112,122611,1,0,0:0:0:0:
480,208,122783,6,0,P|432:240|400:240,1,90.0000002980235,2|0,0:0|0:0,0:0:0:0:
340,179,123125,2,0,P|372:195|404:259,1,90.0000002980235,0|0,0:0|0:0,0:0:0:0:
400,336,123468,2,0,L|308:336,1,90.0000002980235,2|0,0:0|0:0,0:0:0:0:
224,336,123811,1,0,0:0:0:0:
144,304,123983,1,0,0:0:0:0:
64,256,124154,6,0,P|32:224|32:176,1,90.0000002980235,2|0,0:0|0:0,0:0:0:0:
48,96,124497,1,0,0:0:0:0:
112,160,124668,1,0,0:0:0:0:
144,80,124840,1,2,0:0:0:0:
208,144,125011,1,0,0:0:0:0:
240,64,125183,1,0,0:0:0:0:
304,128,125354,1,0,0:0:0:0:
336,48,125525,6,0,P|400:80|416:128,1,90.0000002980235,2|0,0:0|0:0,0:0:0:0:
416,176,125868,2,0,P|384:240|336:256,1,90.0000002980235
280,248,126211,1,2,0:0:0:0:
184,248,126383,1,0,0:0:0:0:
136,168,126554,1,2,0:0:0:0:
232,168,126725,1,0,0:0:0:0:
328,168,126897,5,2,0:1:0:0:
256,192,137868,6,0,P|304:144|304:96,1,90.0000002980235,2|0,0:0|0:0,0:0:0:0:
224,112,138211,2,0,P|176:160|176:208,1,90.0000002980235
175,269,138554,1,0,0:0:0:0:
222,345,138725,1,0,0:0:0:0:
272,270,138897,1,0,0:0:0:0:
323,343,139068,1,0,0:0:0:0:
387,283,139240,6,0,P|419:219|405:189,1,90.0000002980235,2|0,0:0|0:0,0:0:0:0:
403,113,139583,2,0,P|356:127|335:189,1,90.0000002980235
320,256,139925,1,0,0:0:0:0:
257,308,140097,1,0,0:0:0:0:
176,320,140268,1,0,0:0:0:0:
96,304,140440,1,0,0:0:0:0:
32,256,140611,6,0,P|0:208|0:144,1,90.0000002980235,2|0,0:0|0:0,0:0:0:0:
48,112,140954,2,0,P|80:160|80:224,1,90.0000002980235
112,272,141297,2,0,P|160:240|160:176,1,90.0000002980235,2|0,0:0|0:0,0:0:0:0:
176,128,141640,1,0,0:0:0:0:
208,48,141811,1,0,0:0:0:0:
272,96,141983,5,2,0:0:0:0:
240,176,142154,1,0,0:0:0:0:
240,256,142325,1,2,0:0:0:0:
272,336,142497,1,0,0:0:0:0:
336,272,142668,2,0,P|368:192|368:160,1,90.0000002980235,2|2,0:0|0:0,0:0:0:0:
368,112,143011,2,0,P|432:144|448:192,1,90.0000002980235,2|2,0:0|0:0,0:0:0:0:
448,240,143354,6,0,P|432:288|400:336,1,90.0000002980235,2|0,0:0|0:0,0:0:0:0:
336,352,143697,1,0,0:0:0:0:
256,320,143868,1,0,0:0:0:0:
224,240,144040,1,0,0:0:0:0:
256,160,144211,1,0,0:0:0:0:
224,80,144383,1,0,0:0:0:0:
144,48,144554,1,0,0:0:0:0:
80,96,144725,6,0,P|80:176|96:208,1,90.0000002980235,2|0,0:0|0:0,0:0:0:0:
64,272,145068,2,0,P|112:304|160:304,1,90.0000002980235
224,336,145411,2,0,P|288:304|304:272,1,90.0000002980235
384,304,145754,2,0,P|432:272|448:240,1,90.0000002980235
496,176,146097,6,0,P|496:128|464:80,1,90.0000002980235,2|0,0:0|0:0,0:0:0:0:
400,48,146440,2,0,P|368:80|368:160,1,90.0000002980235
368,208,146783,1,2,0:0:0:0:
368,304,146954,1,0,0:0:0:0:
448,256,147125,1,0,0:0:0:0:
368,208,147297,1,0,0:0:0:0:
288,176,147468,6,0,P|240:208|224:272,1,90.0000002980235,2|0,0:0|0:0,0:0:0:0:
224,320,147811,1,2,0:0:0:0:
144,288,147983,1,0,0:0:0:0:
96,208,148154,2,2,P|128:144|160:128,1,90.0000002980235
231,135,148497,2,2,P|199:199|167:215,1,90.0000002980235
231,135,148840,6,0,P|297:107|331:116,1,90.0000002980235,2|0,0:0|0:0,0:0:0:0:
400,96,149183,1,0,0:0:0:0:
368,176,149354,1,0,0:0:0:0:
464,160,149525,1,0,0:0:0:0:
432,240,149697,1,0,0:0:0:0:
400,320,149868,2,0,P|352:304|320:256,1,90.0000002980235,0|0,0:0|0:0,0:0:0:0:
256,208,150211,6,0,P|224:176|176:160,1,90.0000002980235,2|0,0:0|0:0,0:0:0:0:
96,128,150554,2,0,P|55:148|25:189,1,90.0000002980235,0|0,0:0|0:0,0:0:0:0:
48,272,150897,2,0,P|88:251|118:210,1,90.0000002980235
182,160,151240,2,0,P|190:109|231:70,1,90.0000002980235
304,80,151583,5,2,0:0:0:0:
400,80,151754,1,0,0:0:0:0:
400,176,151925,1,0,0:0:0:0:
304,176,152097,1,0,0:0:0:0:
208,176,152268,1,0,0:0:0:0:
142,242,152440,1,0,0:0:0:0:
210,307,152611,1,0,0:0:0:0:
274,240,152783,1,0,0:0:0:0:
336,176,152954,6,2,P|368:208|368:288,1,90.0000002980235,2|0,0:0|0:0,0:0:0:0:
316,314,153297,2,0,P|284:282|284:202,1,90.0000002980235,0|0,0:0|0:0,0:0:0:0:
272,144,153640,2,0,L|272:48,1,90.0000002980235,0|0,0:0|0:0,0:0:0:0:
192,96,153983,2,0,L|192:192,1,90.0000002980235,0|0,0:0|0:0,0:0:0:0:
192,272,154325,5,2,0:0:0:0:
128,335,154497,1,0,0:0:0:0:
48,304,154668,1,0,0:0:0:0:
32,224,154840,1,0,0:0:0:0:
96,176,155011,1,0,0:0:0:0:
176,192,155183,1,0,0:0:0:0:
224,256,155354,1,0,0:0:0:0:
272,320,155525,1,0,0:0:0:0:
352,336,155697,5,2,0:0:0:0:
432,304,155868,1,0,0:0:0:0:
464,224,156040,1,0,0:0:0:0:
432,144,156211,1,0,0:0:0:0:
368,96,156383,1,0,0:0:0:0:
288,64,156554,1,0,0:0:0:0:
208,80,156725,1,0,0:0:0:0:
144,128,156897,1,0,0:0:0:0:
96,192,157068,6,0,P|128:240|160:256,1,90.0000002980235,2|0,0:0|0:0,0:0:0:0:
224,192,157411,2,0,P|261:215|283:254,1,90.0000002980235,0|0,0:0|0:0,0:0:0:0:
208,320,157754,2,0,P|240:368|272:384,1,90.0000002980235,0|0,0:0|0:0,0:0:0:0:
352,384,158097,2,0,P|398:349|412:316,1,90.0000002980235,0|0,0:0|0:0,0:0:0:0:
416,224,158440,6,0,L|416:128,1,90.0000002980235,2|0,0:0|0:0,0:0:0:0:
416,48,158783,1,2,0:0:0:0:
336,96,158954,1,0,0:0:0:0:
256,48,159125,1,2,0:0:0:0:
176,96,159297,1,2,0:0:0:0:
96,48,159468,2,2,P|64:80|64:144,1,90.0000002980235
80,272,159811,6,0,P|144:272|192:224,1,112.500000372529,2|0,0:0|0:0,0:0:0:0:
112,176,160154,2,0,P|157:144|212:147,1,112.500000372529,0|0,0:0|0:0,0:0:0:0:
288,224,160497,1,0,0:0:0:0:
368,288,160668,1,0,0:0:0:0:
448,224,160840,1,0,0:0:0:0:
368,160,161011,1,0,0:0:0:0:
288,96,161183,6,0,P|240:48|224:0,1,112.500000372529,2|0,0:0|0:0,0:0:0:0:
320,16,161525,2,0,P|368:64|384:112,1,112.500000372529,0|0,0:0|0:0,0:0:0:0:
384,208,161868,2,0,L|384:320,1,112.500000372529,0|0,0:0|0:0,0:0:0:0:
304,272,162211,2,0,L|304:160,1,112.500000372529,0|0,0:0|0:0,0:0:0:0:
304,64,162554,5,2,0:0:0:0:
224,16,162725,1,0,0:0:0:0:
144,64,162897,1,0,0:0:0:0:
224,128,163068,1,2,0:0:0:0:
304,192,163240,1,0,0:0:0:0:
224,240,163411,1,0,0:0:0:0:
144,192,163583,1,2,0:0:0:0:
64,144,163754,1,0,0:0:0:0:
16,64,163925,6,0,P|96:56|128:80,1,112.500000372529,2|0,0:0|0:0,0:0:0:0:
144,192,164268,2,0,P|192:192|240:144,1,112.500000372529,2|0,0:0|0:0,0:0:0:0:
272,64,164611,1,2,0:0:0:0:
352,112,164783,1,2,0:0:0:0:
352,208,164954,1,2,0:0:0:0:
272,256,165125,1,0,0:0:0:0:
176,208,165297,6,0,P|128:176|64:192,1,112.500000372529,2|0,0:0|0:0,0:0:0:0:
7,244,165640,2,0,P|55:276|119:260,1,112.500000372529
176,208,165983,2,0,P|230:200|275:232,1,112.500000372529,0|0,0:0|0:0,0:0:0:0:
304,320,166325,2,0,P|249:327|204:295,1,112.500000372529,0|0,0:0|0:0,0:0:0:0:
112,240,166668,6,0,P|80:192|80:128,1,112.500000372529,2|0,0:0|0:0,0:0:0:0:
80,32,167011,1,0,0:0:0:0:
160,80,167183,1,0,0:0:0:0:
240,128,167354,1,0,0:0:0:0:
240,32,167525,1,0,0:0:0:0:
320,80,167697,1,0,0:0:0:0:
400,128,167868,1,0,0:0:0:0:
480,176,168040,6,0,P|464:240|400:256,1,112.500000372529,2|0,0:0|0:0,0:0:0:0:
344,180,168383,2,0,P|297:208|289:262,1,112.500000372529,0|2,0:0|0:0,0:0:0:0:
353,353,168725,2,0,P|291:375|223:336,1,112.500000372529
208,255,169068,2,0,P|144:303|147:366,2,112.500000372529,2|0|2,0:0|0:0|0:0,0:0:0:0:
313,202,169583,5,0,0:0:0:0:
313,202,169668,1,0,0:0:0:0:
313,202,169754,2,0,P|361:250|409:266,1,112.500000372529,2|0,0:0|0:0,0:0:0:0:
480,272,170097,1,2,0:0:0:0:
480,176,170268,1,2,0:0:0:0:
400,112,170440,1,2,0:0:0:0:
304,112,170611,1,0,0:0:0:0:
208,160,170783,6,0,P|160:192|144:256,1,112.500000372529,2|0,0:0|0:0,0:0:0:0:
61,177,171125,2,0,P|93:225|157:241,1,112.500000372529,0|0,0:0|0:0,0:0:0:0:
78,323,171468,2,0,P|126:291|142:227,1,112.500000372529,0|0,0:0|0:0,0:0:0:0:
140,140,171811,2,0,P|140:88|192:36,1,112.500000372529,0|0,0:0|0:0,0:0:0:0:
272,16,172154,5,2,0:0:0:0:
336,96,172325,1,0,0:0:0:0:
240,112,172497,1,0,0:0:0:0:
304,192,172668,1,0,0:0:0:0:
400,176,172840,2,0,P|384:256|336:288,1,112.500000372529,0|0,0:0|0:0,0:0:0:0:
288,336,173183,2,0,P|224:336|176:304,1,112.500000372529,0|0,0:0|0:0,0:0:0:0:
144,224,173525,6,0,P|208:224|256:256,1,112.500000372529,2|0,0:0|0:0,0:0:0:0:
352,288,173868,2,0,P|400:256|400:176,1,112.500000372529,0|2,0:0|0:0,0:0:0:0:
416,96,174211,1,0,0:0:0:0:
336,32,174383,1,0,0:0:0:0:
272,112,174554,1,2,0:0:0:0:
352,176,174725,1,0,0:0:0:0:
432,224,174897,6,0,P|384:272|320:256,1,112.500000372529,2|0,0:0|0:0,0:0:0:0:
240,240,175240,1,2,0:0:0:0:
160,176,175411,1,0,0:0:0:0:
192,80,175583,1,2,0:0:0:0:
288,80,175754,1,2,0:0:0:0:
320,176,175925,1,2,0:0:0:0:
240,240,176097,1,0,0:0:0:0:
160,288,176268,6,0,P|96:288|64:256,1,112.500000372529,2|0,0:0|0:0,0:0:0:0:
64,160,176611,2,0,L|64:48,1,112.500000372529,0|0,0:0|0:0,0:0:0:0:
160,80,176954,2,0,L|160:192,1,112.500000372529,0|0,0:0|0:0,0:0:0:0:
160,288,177297,2,0,P|224:320|288:320,1,112.500000372529,0|0,0:0|0:0,0:0:0:0:
368,320,177640,5,2,0:0:0:0:
432,240,177811,1,0,0:0:0:0:
368,160,177983,1,0,0:0:0:0:
304,240,178154,1,0,0:0:0:0:
240,320,178325,1,0,0:0:0:0:
176,240,178497,1,0,0:0:0:0:
240,160,178668,2,0,L|320:64,1,112.500000372529,0|0,0:0|0:0,0:0:0:0:
416,64,179011,6,0,L|336:160,1,112.500000372529,2|0,0:0|0:0,0:0:0:0:
288,224,179354,2,0,P|224:240|176:208,1,112.500000372529,0|2,0:0|0:0,0:0:0:0:
128,144,179697,2,0,P|192:128|240:159,1,112.500000372529
230,148,180040,1,2,0:0:0:0:
230,148,180211,1,0,0:0:0:0:
304,208,180383,6,0,P|368:240|416:224,1,112.500000372529,2|0,0:0|0:0,0:0:0:0:
432,208,180640,1,0,0:0:0:0:
448,176,180725,1,2,0:0:0:0:
448,80,180897,1,0,0:0:0:0:
352,32,181068,1,2,0:0:0:0:
304,128,181240,1,2,0:0:0:0:
256,240,181411,2,2,P|208:192|208:144,1,112.500000372529,2|0,0:0|0:0,0:0:0:0:
208,48,181754,5,2,0:0:0:0:
112,96,181925,1,0,0:0:0:0:
112,192,182097,2,0,P|128:256|160:288,1,112.500000372529
256,288,182440,1,2,0:0:0:0:
352,288,182611,1,0,0:0:0:0:
448,288,182783,2,0,P|481:231|481:186,1,112.500000372529,0|0,0:0|0:0,0:0:0:0:
480,80,183125,6,0,P|416:112|384:176,1,112.500000372529,2|0,0:0|0:0,0:0:0:0:
384,240,183468,2,0,P|336:272|272:272,1,112.500000372529,0|0,0:0|0:0,0:0:0:0:
192,224,183811,2,0,P|144:176|96:176,1,112.500000372529,2|0,0:0|0:0,0:0:0:0:
48,256,184154,2,0,P|0:208|0:144,1,112.500000372529
16,64,184497,5,2,0:0:0:0:
112,32,184668,1,0,0:0:0:0:
96,128,184840,1,0,0:0:0:0:
192,96,185011,1,2,0:0:0:0:
208,0,185183,2,0,P|256:32|288:96,1,112.500000372529
288,176,185525,2,0,P|320:224|384:256,1,112.500000372529,2|0,0:0|0:0,0:0:0:0:
472,232,185868,6,0,P|440:184|376:152,1,112.500000372529,2|0,0:0|0:0,0:0:0:0:
304,112,186211,1,2,0:0:0:0:
208,112,186383,1,0,0:0:0:0:
160,192,186554,1,2,0:0:0:0:
208,272,186725,1,2,0:0:0:0:
304,272,186897,1,2,0:0:0:0:
352,192,187068,1,0,0:0:0:0:
384,96,187240,6,0,P|432:80|480:128,1,112.500000372529,2|0,0:0|0:0,0:0:0:0:
480,224,187583,2,0,P|432:288|400:288,1,112.500000372529
384,192,187925,2,0,P|331:207|310:257,1,112.500000372529,2|0,0:0|0:0,0:0:0:0:
352,352,188268,2,0,P|272:361|250:338,1,112.500000372529
176,272,188611,5,2,0:0:0:0:
112,192,188783,1,0,0:0:0:0:
176,112,188954,1,0,0:0:0:0:
240,192,189125,1,0,0:0:0:0:
304,272,189297,2,0,P|368:240|368:192,1,112.500000372529,2|0,0:0|0:0,0:0:0:0:
304,128,189640,2,0,P|320:76|372:61,1,112.500000372529
480,64,189983,6,0,L|480:176,1,112.500000372529,2|0,0:0|0:0,0:0:0:0:
480,272,190325,1,0,0:0:0:0:
400,336,190497,1,2,0:0:0:0:
320,272,190668,2,0,P|272:240|208:192,1,112.500000372529
160,272,191011,2,0,P|128:192|160:144,1,112.500000372529,2|0,0:0|0:0,0:0:0:0:
176,80,191354,6,0,P|96:80|48:128,1,112.500000372529,2|0,0:0|0:0,0:0:0:0:
48,128,191611,1,0,0:0:0:0:
32,160,191697,1,2,0:0:0:0:
32,256,191868,1,0,0:0:0:0:
96,336,192040,1,2,0:0:0:0:
160,256,192211,1,2,0:0:0:0:
224,336,192383,1,2,0:0:0:0:
288,256,192554,1,0,0:0:0:0:
336,176,192725,6,0,P|384:112|432:80,1,112.500000372529,2|0,0:0|0:0,0:0:0:0:
432,192,193068,2,0,P|384:256|336:288,1,112.500000372529
288,336,193411,1,2,0:0:0:0:
208,288,193583,1,0,0:0:0:0:
176,192,193754,2,0,P|176:112|208:80,1,112.500000372529
288,96,194097,6,0,P|288:176|256:207,2,112.500000372529,2|0|0,0:0|0:0|0:0,0:0:0:0:
240,16,194611,1,0,0:0:0:0:
144,0,194783,1,2,0:0:0:0:
64,64,194954,1,0,0:0:0:0:
80,160,195125,1,0,0:0:0:0:
176,192,195297,1,0,0:0:0:0:
240,112,195468,6,0,P|272:176|256:240,1,112.500000372529,2|0,0:0|0:0,0:0:0:0:
192,272,195811,2,0,P|240:304|304:304,1,112.500000372529,0|2,0:0|0:0,0:0:0:0:
400,288,196154,1,0,0:0:0:0:
448,192,196325,1,0,0:0:0:0:
400,96,196497,1,2,0:0:0:0:
352,192,196668,1,0,0:0:0:0:
304,288,196840,6,0,P|240:304|176:288,1,112.500000372529,2|0,0:0|0:0,0:0:0:0:
96,272,197183,1,2,0:0:0:0:
16,208,197354,1,0,0:0:0:0:
96,144,197525,1,2,0:0:0:0:
16,80,197697,1,2,0:0:0:0:
96,16,197868,1,2,0:0:0:0:
176,80,198040,1,2,0:0:0:0:
256,144,198211,6,0,P|320:176|368:160,1,112.500000372529,2|0,0:0|0:0,0:0:0:0:
400,80,198554,2,0,P|448:112|448:176,1,112.500000372529
432,256,198897,1,2,0:0:0:0:
400,352,199068,1,0,0:0:0:0:
336,272,199240,1,0,0:0:0:0:
304,368,199411,1,0,0:0:0:0:
256,288,199583,6,0,P|192:240|160:240,1,112.500000372529,2|0,0:0|0:0,0:0:0:0:
96,320,199925,2,0,P|48:256|64:192,1,112.500000372529
48,128,200268,1,2,0:0:0:0:
112,48,200440,1,0,0:0:0:0:
176,128,200611,1,0,0:0:0:0:
112,208,200783,1,0,0:0:0:0:
112,208,200954,6,0,L|112:336,1,112.500000372529,2|0,0:0|0:0,0:0:0:0:
208,288,201297,2,0,L|208:176,1,112.500000372529,0|2,0:0|0:0,0:0:0:0:
208,80,201640,1,0,0:0:0:0:
288,16,201811,1,0,0:0:0:0:
368,80,201983,2,0,P|416:144|416:192,1,112.500000372529,2|0,0:0|0:0,0:0:0:0:
416,272,202325,5,2,0:0:0:0:
336,336,202497,1,0,0:0:0:0:
336,336,202583,1,0,0:0:0:0:
336,336,202668,1,2,0:0:0:0:
256,272,202840,1,0,0:0:0:0:
336,208,203011,1,2,0:0:0:0:
416,144,203183,1,2,0:0:0:0:
336,80,203354,1,2,0:0:0:0:
256,144,203525,1,2,0:0:0:0:
176,80,203697,5,0,0:0:0:0:
256,192,203868,12,2,206440,0:0:0:0:
