osu file format v14

[General]
AudioFilename: audio.mp3
AudioLeadIn: 0
PreviewTime: 91230
Countdown: 0
SampleSet: Normal
StackLeniency: 0.7
Mode: 0
LetterboxInBreaks: 0
WidescreenStoryboard: 1

[Editor]
DistanceSpacing: 1
BeatDivisor: 4
GridSize: 16
TimelineZoom: 1.1

[Metadata]
Title:Sakura
TitleUnicode:Sakura
Artist:Lifetheory
ArtistUnicode:Lifetheory
Creator:campa97
Version:Hard
Source:
Tags:Drum and bass dnb Instrumental Piano Violin
BeatmapID:1142645
BeatmapSetID:535371

[Difficulty]
HPDrainRate:5
CircleSize:4
OverallDifficulty:5
ApproachRate:7
SliderMultiplier:1.30000000596047
SliderTickRate:1

[Events]
//Background and Video events
0,0,"maxresdefault.jpg",0,0
//Break Periods
2,77725,79368
2,127096,136308
//Storyboard Layer 0 (Background)
//Storyboard Layer 1 (Fail)
//Storyboard Layer 2 (Pass)
//Storyboard Layer 3 (Foreground)
//Storyboard Sound Samples

[TimingPoints]
726,342.857142857143,4,1,0,100,1,0
726,-200,4,1,1,10,0,0
11697,-133.333333333333,4,1,1,10,0,0
23354,-133.333333333333,4,1,1,15,0,0
61068,-133.333333333333,4,1,1,10,0,0
83011,-125,4,2,1,15,0,0
85754,-125,4,2,1,25,0,0
88497,-125,4,2,1,35,0,0
91248,-125,4,2,1,45,0,0
93983,-80,4,2,1,65,0,1
110440,-66.6666666666667,4,2,1,65,0,1
115926,-100,4,1,1,55,0,0
159811,-80,4,1,1,60,0,1
159897,-80,4,1,1,60,0,0
170783,-80,4,1,1,60,0,1
170868,-80,4,1,1,60,0,0
181754,-80,4,1,1,60,0,1
181840,-80,4,1,1,60,0,0
192726,-80,4,1,1,60,0,1
192811,-80,4,1,1,60,0,0

[Colours]
Combo1 : 254,171,252
Combo2 : 255,210,255
Combo3 : 254,171,252
Combo4 : 241,146,227
Combo5 : 255,106,255
Combo6 : 241,146,227

[HitObjects]
128,80,725,5,2,0:0:0:0:
144,160,1068,1,0,0:0:0:0:
208,208,1411,1,0,0:0:0:0:
288,192,1754,1,0,0:0:0:0:
352,144,2097,2,0,P|384:144|416:160,2,65.0000002980235,2|0|0,0:0|0:0|0:0,0:0:0:0:
272,144,3126,1,0,0:0:0:0:
192,144,3468,6,0,P|160:144|128:128,1,65.0000002980235,2|0,0:0|0:0,0:0:0:0:
176,64,4154,2,0,P|208:64|240:80,1,65.0000002980235
304,144,4840,2,0,P|336:176|352:256,1,130.000000596047,2|2,0:0|0:0,0:0:0:0:
192,320,6211,6,0,P|176:288|176:256,1,65.0000002980235,2|0,0:0|0:0,0:0:0:0:
96,256,6897,2,0,P|98:220|114:192,1,65.0000002980235
176,144,7583,2,0,P|192:176|192:208,1,65.0000002980235,2|0,0:0|0:0,0:0:0:0:
272,208,8269,2,0,P|269:243|253:271,1,65.0000002980235
176,352,8954,5,2,0:0:0:0:
112,288,9297,1,0,0:0:0:0:
112,208,9640,1,0,0:0:0:0:
176,144,9983,1,0,0:0:0:0:
256,144,10326,2,0,P|288:144|320:160,1,65.0000002980235,2|0,0:0|0:0,0:0:0:0:
336,240,11011,2,0,P|304:240|272:224,1,65.0000002980235,2|0,0:0|0:0,0:0:0:0:
176,144,11697,6,0,P|148:183|153:234,1,97.5000041663652,2|0,0:0|0:0,0:0:0:0:
208,320,12383,1,0,0:0:0:0:
304,336,12726,1,0,0:0:0:0:
304,240,13068,2,0,P|368:256|384:288,2,97.5000041663652,2|0|0,0:0|0:0|0:0,0:0:0:0:
208,272,14097,1,0,0:0:0:0:
112,304,14440,6,0,P|80:272|80:208,1,97.5000041663652,2|0,0:0|0:0,0:0:0:0:
176,224,15126,2,0,P|164:180|196:124,1,97.5000041663652
240,64,15811,2,2,B|269:76|304:48|304:48|304:112|304:144|353:164,1,195.00000833273
400,352,17183,6,0,P|352:336|304:288,1,97.5000041663652,2|0,0:0|0:0,0:0:0:0:
240,240,17868,1,0,0:0:0:0:
160,304,18211,1,0,0:0:0:0:
64,256,18554,2,0,P|80:192|112:160,1,97.5000041663652,2|0,0:0|0:0,0:0:0:0:
176,240,19240,2,0,P|205:201|208:144,1,97.5000041663652
208,64,19926,5,2,0:0:0:0:
128,16,20268,1,0,0:0:0:0:
48,64,20611,1,0,0:0:0:0:
64,160,20954,1,0,0:0:0:0:
144,96,21297,2,0,P|176:128|192:192,1,97.5000041663652,2|0,0:0|0:0,0:0:0:0:
96,224,21983,2,0,P|110:270|144:304,1,97.5000041663652,2|0,0:0|0:0,0:0:0:0:
240,320,22668,1,2,0:0:0:0:
240,320,23011,1,0,0:0:0:0:
240,320,23354,6,0,B|288:304|320:272|304:240|288:208|352:176,2,195.00000833273,2|2|2,0:0|0:0|0:0,0:0:0:0:
144,336,25068,1,0,0:0:0:0:
48,304,25411,2,0,P|32:272|32:192,1,97.5000041663652,2|0,0:0|0:0,0:0:0:0:
128,240,26097,2,0,P|126:191|107:147,1,97.5000041663652
48,64,26783,2,2,B|96:16|144:64|160:80|176:64|224:16|240:48,1,195.00000833273
320,64,27811,1,0,0:0:0:0:
416,96,28154,6,0,P|384:144|336:160,1,97.5000041663652,2|0,0:0|0:0,0:0:0:0:
320,64,28840,2,0,P|276:85|259:128,1,97.5000041663652
301,216,29526,2,0,P|248:224|197:199,1,97.5000041663652,2|0,0:0|0:0,0:0:0:0:
128,160,30211,1,0,0:0:0:0:
48,208,30554,1,0,0:0:0:0:
127,271,30897,6,0,P|175:288|224:288,1,97.5000041663652,2|0,0:0|0:0,0:0:0:0:
307,335,31583,2,0,P|314:285|306:237,1,97.5000041663652
254,156,32268,1,2,0:0:0:0:
178,80,32611,1,0,0:0:0:0:
254,5,32954,1,0,0:0:0:0:
330,80,33297,1,0,0:0:0:0:
345,176,33640,2,0,P|409:192|432:232,1,97.5000041663652,2|0,0:0|0:0,0:0:0:0:
391,296,34326,6,0,P|487:280|503:183,2,195.00000833273,0|2|0,0:0|0:0|0:0,0:0:0:0:
340,212,36040,1,0,0:0:0:0:
404,138,36383,2,0,P|437:103|452:57,1,97.5000041663652,2|0,0:0|0:0,0:0:0:0:
355,56,37068,2,0,P|320:91|306:137,1,97.5000041663652
377,205,37754,2,0,P|289:237|213:170,1,195.00000833273
167,99,38783,1,0,0:0:0:0:
80,80,39126,6,0,P|144:80|176:112,1,97.5000041663652,2|0,0:0|0:0,0:0:0:0:
240,176,39811,2,0,P|280:201|328:195,1,97.5000041663652
304,96,40497,2,0,P|263:70|215:76,1,97.5000041663652,2|0,0:0|0:0,0:0:0:0:
144,128,41183,1,0,0:0:0:0:
96,208,41526,1,0,0:0:0:0:
96,304,41868,6,0,P|160:288|176:256,1,97.5000041663652,2|0,0:0|0:0,0:0:0:0:
192,160,42554,1,0,0:0:0:0:
256,96,42897,1,0,0:0:0:0:
352,64,43240,1,2,0:0:0:0:
448,96,43583,1,0,0:0:0:0:
512,160,43926,2,0,P|482:213|450:229,1,97.5000041663652,2|0,0:0|0:0,0:0:0:0:
353,228,44611,6,0,P|382:174|414:158,1,97.5000041663652,2|0,0:0|0:0,0:0:0:0:
496,96,45297,2,0,B|432:32|400:32|304:64,1,195.00000833273,0|2,0:0|0:0,0:0:0:0:
224,96,46326,1,0,0:0:0:0:
144,144,46668,1,0,0:0:0:0:
224,192,47011,1,0,0:0:0:0:
320,192,47354,6,0,P|368:208|384:256,1,97.5000041663652,2|0,0:0|0:0,0:0:0:0:
368,336,48040,2,0,P|320:320|304:272,1,97.5000041663652
304,176,48726,2,2,B|320:112|288:80|256:48|192:64,1,195.00000833273
96,96,49754,1,0,0:0:0:0:
80,192,50097,6,0,P|112:256|144:272,1,97.5000041663652,2|0,0:0|0:0,0:0:0:0:
224,304,50783,1,0,0:0:0:0:
320,304,51126,1,0,0:0:0:0:
384,224,51468,2,0,B|352:208|304:240|272:208,1,97.5000041663652,2|0,0:0|0:0,0:0:0:0:
192,208,52154,1,0,0:0:0:0:
144,128,52497,1,0,0:0:0:0:
144,32,52840,6,0,P|224:64|240:80,1,97.5000041663652,2|0,0:0|0:0,0:0:0:0:
144,128,53526,2,0,P|197:195|203:217,1,97.5000041663652
227,298,54211,2,2,B|291:282|307:362|371:346,2,146.250006249548,2|2|0,0:0|0:0|0:0,0:0:0:0:
128,288,55583,6,0,B|80:256|80:208,1,97.5000041663652,2|0,0:0|0:0,0:0:0:0:
80,112,56268,1,0,0:0:0:0:
144,32,56611,1,0,0:0:0:0:
192,128,56954,2,0,P|224:160|288:160,1,97.5000041663652,2|0,0:0|0:0,0:0:0:0:
272,64,57640,2,0,P|319:68|354:101,1,97.5000041663652
368,192,58326,5,2,0:0:0:0:
320,272,58668,1,0,0:0:0:0:
272,192,59011,1,0,0:0:0:0:
224,272,59354,1,0,0:0:0:0:
181,359,59697,2,0,P|134:306|128:266,1,97.5000041663652,2|0,0:0|0:0,0:0:0:0:
128,192,60383,2,0,P|111:146|75:114,2,97.5000041663652,2|0|2,0:0|0:0|0:0,0:0:0:0:
256,336,61754,5,0,0:0:0:0:
384,192,62440,1,2,0:0:0:0:
256,48,63126,1,0,0:0:0:0:
256,240,63811,6,0,P|176:288|80:240,1,195.00000833273,2|0,0:0|0:0,0:0:0:0:
192,80,65183,2,0,P|272:32|368:80,1,195.00000833273,2|0,0:0|0:0,0:0:0:0:
384,256,66554,6,0,P|338:285|288:320,1,97.5000041663652,2|0,0:0|0:0,0:0:0:0:
320,208,67240,2,0,L|224:272,1,97.5000041663652
144,224,67926,2,0,L|225:169,1,97.5000041663652,2|0,0:0|0:0,0:0:0:0:
128,144,68611,2,0,L|209:89,1,97.5000041663652
288,48,69297,5,2,0:0:0:0:
384,32,69640,1,0,0:0:0:0:
464,80,69983,1,0,0:0:0:0:
464,176,70326,1,0,0:0:0:0:
464,272,70668,2,2,B|400:272|368:240|384:176|320:160,1,195.00000833273
123,159,72040,5,0,0:0:0:0:
256,192,72211,12,0,74783,0:0:0:0:
144,128,76497,6,0,B|160:176|208:160|224:96|240:80|256:64|272:80|288:96|304:160|352:176|384:112,1,292.500012499096
256,192,80268,5,0,0:0:0:0:
181,243,81983,2,0,P|227:230|256:192,1,97.5000041663652
464,128,83011,6,0,L|432:176,3,52.0000002384188,4|0|0|0,0:0|0:0|0:0|0:0,0:0:0:0:
384,160,83697,2,0,L|352:208,3,52.0000002384188
304,192,84383,2,0,L|272:240,3,52.0000002384188,4|0|0|0,0:0|0:0|0:0|0:0,0:0:0:0:
224,224,85068,2,0,L|192:272,3,52.0000002384188,4|0|0|0,0:0|0:0|0:0|0:0,0:0:0:0:
144,272,85754,6,0,B|48:224|160:192|96:176|160:160|48:144|128:80,1,208.000000953675,4|0,0:0|0:0,0:0:0:0:
208,48,86783,1,0,0:0:0:0:
304,64,87126,1,4,0:0:0:0:
368,144,87468,1,0,0:0:0:0:
320,240,87811,2,0,P|240:256|224:272,1,104.000000476838,4|0,0:0|0:0,0:0:0:0:
144,320,88497,6,0,L|112:256,1,52.0000002384188,4|0,0:0|0:0,0:0:0:0:
160,240,88840,2,0,L|128:176,1,52.0000002384188
176,160,89183,2,0,L|144:96,1,52.0000002384188
192,80,89526,2,0,L|160:16,1,52.0000002384188
272,48,89868,2,0,L|304:112,1,52.0000002384188,4|0,0:0|0:0,0:0:0:0:
256,127,90211,2,0,L|288:191,1,52.0000002384188
240,208,90554,2,0,L|272:272,1,52.0000002384188
224,288,90897,2,0,L|256:352,1,52.0000002384188
304,368,91240,5,4,0:0:0:0:
368,352,91411,1,0,0:0:0:0:
416,304,91583,1,0,0:0:0:0:
432,240,91754,1,0,0:0:0:0:
416,176,91926,1,4,0:0:0:0:
368,128,92097,1,0,0:0:0:0:
304,112,92268,2,0,P|256:112|192:80,2,104.000000476838,0|6|2,0:0|0:0|0:0,0:0:0:0:
416,112,93297,1,4,0:0:0:0:
416,112,93983,6,0,P|416:176|384:208,1,81.2500003725294,4|0,0:0|0:0,0:0:0:0:
336,224,94325,2,0,P|336:160|368:128,1,81.2500003725294
368,64,94668,2,0,P|336:64|272:96,1,81.2500003725294
224,128,95011,1,0,0:0:0:0:
160,176,95183,1,0,0:0:0:0:
96,224,95354,2,0,P|128:272|176:256,1,81.2500003725294,4|0,0:0|0:0,0:0:0:0:
224,272,95697,2,0,L|320:272,2,81.2500003725294,0|0|4,0:0|0:0|0:0,0:0:0:0:
146,273,96211,2,0,P|128:304|128:352,2,81.2500003725294,0|4|0,0:0|0:0|0:0,0:0:0:0:
186,202,96725,6,0,B|186:170|186:170|202:186|202:186|202:154|202:154|218:170|218:170|218:138|218:138|234:154|234:154|234:122|234:122|250:138|250:138|250:106|250:106|266:122|266:122|266:90|266:90|314:90|314:90,1,325.000001490117,4|0,0:0|0:0,0:0:0:0:
432,96,97754,2,4,P|464:144|448:256,2,162.500000745059,0|4|0,0:0|0:0|0:0,0:0:0:0:
288,16,98783,2,0,P|224:32|192:64,1,81.2500003725294,4|0,0:0|0:0,0:0:0:0:
272,96,99125,2,0,P|236:115|196:120,1,81.2500003725294,4|0,0:0|0:0,0:0:0:0:
128,80,99468,6,0,P|112:128|131:163,1,81.2500003725294,4|0,0:0|0:0,0:0:0:0:
160,224,99811,2,0,L|208:304,2,81.2500003725294,0|0|4,0:0|0:0|0:0,0:0:0:0:
80,224,100325,2,0,L|32:304,2,81.2500003725294
120,156,100840,2,0,P|160:128|208:128,1,81.2500003725294,4|0,0:0|0:0,0:0:0:0:
272,128,101183,2,0,P|320:128|352:112,1,81.2500003725294
304,48,101525,2,0,P|256:48|224:64,1,81.2500003725294,4|0,0:0|0:0,0:0:0:0:
191,124,101868,2,0,P|159:172|159:220,1,81.2500003725294,4|0,0:0|0:0,0:0:0:0:
156,275,102211,5,4,0:0:0:0:
204,339,102383,1,0,0:0:0:0:
284,339,102554,1,0,0:0:0:0:
332,275,102725,1,0,0:0:0:0:
244,243,102897,1,4,0:0:0:0:
292,179,103068,1,0,0:0:0:0:
372,179,103239,1,0,0:0:0:0:
420,243,103411,1,0,0:0:0:0:
461,312,103583,6,0,L|397:377,1,81.2500003725294,4|0,0:0|0:0,0:0:0:0:
314,355,103925,2,0,L|378:291,1,81.2500003725294,4|0,0:0|0:0,0:0:0:0:
420,243,104268,2,4,P|436:211|436:163,1,81.2500003725294
368,96,104611,2,4,P|352:128|352:176,1,81.2500003725294,4|0,0:0|0:0,0:0:0:0:
352,256,104954,6,0,P|304:304|256:304,1,81.2500003725294,4|0,0:0|0:0,0:0:0:0:
208,336,105297,1,0,0:0:0:0:
128,304,105468,1,0,0:0:0:0:
96,224,105640,2,0,P|96:144|112:128,1,81.2500003725294,4|0,0:0|0:0,0:0:0:0:
144,80,105983,1,0,0:0:0:0:
224,48,106154,1,0,0:0:0:0:
304,64,106325,6,0,P|352:128|352:160,1,81.2500003725294,4|0,0:0|0:0,0:0:0:0:
272,145,106668,2,0,P|288:182|320:208,1,81.2500003725294,4|0,0:0|0:0,0:0:0:0:
400,192,107011,2,4,P|400:240|352:288,2,81.2500003725294
384,112,107525,1,0,0:0:0:0:
336,48,107697,2,0,P|256:32|176:96,2,162.500000745059,4|0|0,0:0|0:0|0:0,0:0:0:0:
480,128,108725,6,0,P|448:192|416:224,1,81.2500003725294,4|0,0:0|0:0,0:0:0:0:
384,144,109068,2,0,P|352:208|320:240,1,81.2500003725294,4|0,0:0|0:0,0:0:0:0:
288,160,109411,2,0,P|256:224|224:256,1,81.2500003725294,4|0,0:0|0:0,0:0:0:0:
192,176,109754,2,0,P|160:240|96:304,1,162.500000745059,4|0,0:0|0:0,0:0:0:0:
112,112,110440,6,0,P|176:80|208:80,1,97.5000041663652,4|0,0:0|0:0,0:0:0:0:
192,176,110783,2,0,P|239:169|280:143,1,97.5000041663652
336,64,111125,2,0,P|368:80|400:144,1,97.5000041663652,4|0,0:0|0:0,0:0:0:0:
432,224,111468,2,0,P|432:272|395:320,1,97.5000041663652,0|0,0:3|0:3,0:3:0:0:
337,242,111811,6,0,P|289:230|250:202,1,97.5000041663652,4|0,0:0|0:0,0:0:0:0:
319,126,112154,2,0,P|271:94|223:86,1,97.5000041663652
151,30,112497,2,0,P|135:78|151:142,1,97.5000041663652,4|0,0:0|0:0,0:0:0:0:
116,217,112840,2,0,P|164:217|219:176,1,97.5000041663652
232,86,113183,6,0,P|264:54|312:38,1,97.5000041663652,4|0,0:0|0:0,0:0:0:0:
409,50,113525,2,0,P|441:114|441:146,1,97.5000041663652
488,224,113868,2,0,P|441:234|379:198,1,97.5000041663652,4|0,0:0|0:0,0:0:0:0:
308,146,114211,2,0,P|248:94|228:82,1,97.5000041663652
135,79,114554,6,0,P|87:127|87:191,1,97.5000041663652,4|0,0:0|0:0,0:0:0:0:
96,256,114897,1,4,0:0:0:0:
176,304,115068,1,0,0:0:0:0:
272,288,115240,1,4,0:0:0:0:
352,240,115411,1,4,0:0:0:0:
432,176,115583,1,6,2:0:0:0:
512,240,115754,1,4,0:0:0:0:
432,304,115925,5,4,0:0:0:0:
144,80,117468,6,0,P|112:112|96:144,3,65.0000002980235,0|0|0|2,0:0|0:0|0:0|0:0,0:0:0:0:
112,256,118325,2,0,P|144:240|176:208,1,65.0000002980235
208,176,118668,5,2,0:0:0:0:
336,224,119011,2,0,P|304:239|272:271,1,65.0000002980235
240,303,119354,1,2,0:0:0:0:
256,176,119697,2,0,P|258:140|246:96,1,65.0000002980235
235,53,120040,5,2,0:0:0:0:
128,112,120383,2,0,L|96:176,1,65.0000002980235
160,176,120725,2,0,L|128:240,1,65.0000002980235,2|0,0:0|0:0,0:0:0:0:
192,240,121068,2,2,L|160:304,1,65.0000002980235
144,352,121411,6,0,P|96:336|80:320,3,65.0000002980235,2|0|0|0,0:0|0:0|0:0|0:0,0:0:0:0:
96,256,122097,2,0,P|80:208|80:176,3,65.0000002980235,2|0|0|0,0:0|0:0|0:0|0:0,0:0:0:0:
144,160,122783,6,0,P|161:112|181:87,3,65.0000002980235,2|0|0|0,0:0|0:0|0:0|0:0,0:0:0:0:
240,64,123468,1,2,0:0:0:0:
240,64,123640,1,0,0:0:0:0:
240,64,123811,1,0,0:0:0:0:
240,64,123983,1,0,0:0:0:0:
240,144,124154,6,0,P|246:174|272:208,1,65.0000002980235,2|0,0:0|0:0,0:0:0:0:
336,240,124497,1,0,0:0:0:0:
336,240,124668,1,0,0:0:0:0:
384,176,124840,2,0,P|377:145|352:112,1,65.0000002980235,2|0,0:0|0:0,0:0:0:0:
288,80,125183,1,0,0:0:0:0:
288,80,125354,1,0,0:0:0:0:
208,64,125525,6,0,P|160:80|128:80,3,65.0000002980235,2|0|0|0,0:0|0:0|0:0|0:0,0:0:0:0:
80,96,126211,2,0,L|32:144,1,65.0000002980235,2|0,0:0|0:0,0:0:0:0:
96,176,126554,2,2,L|48:224,2,65.0000002980235,2|2|2,0:1|0:1|0:1,0:1:0:0:
192,224,137868,6,0,B|160:176|240:176|176:144|160:128|160:128|208:112|240:80|256:32|256:32|272:80|304:112|352:128|352:128|336:144|272:176|352:176|320:240,1,520.000002384188,2|2,0:0|0:0,0:0:0:0:
80,336,139925,5,0,0:0:0:0:
32,80,140611,1,2,0:0:0:0:
256,208,141297,1,0,0:0:0:0:
480,80,141983,1,2,0:0:0:0:
432,336,142668,1,0,0:0:0:0:
176,304,143354,6,0,P|208:224|192:176,1,130.000000596047,2|0,0:0|0:0,0:0:0:0:
112,96,144040,2,0,P|79:176|95:224,1,130.000000596047,2|0,0:0|0:0,0:0:0:0:
208,176,144725,2,0,P|272:192|336:192,1,130.000000596047,2|0,0:0|0:0,0:0:0:0:
448,112,145411,2,0,P|384:96|320:96,1,130.000000596047,2|0,0:0|0:0,0:0:0:0:
192,112,146097,1,2,0:0:0:0:
96,192,146440,1,0,0:0:0:0:
224,240,146783,1,2,0:0:0:0:
112,320,147125,1,0,0:0:0:0:
16,224,147468,6,0,P|48:160|96:112,1,130.000000596047,2|0,0:0|0:0,0:0:0:0:
176,208,148154,2,0,P|219:160|248:102,1,130.000000596047,2|0,0:0|0:0,0:0:0:0:
352,32,148840,2,0,P|416:80|432:144,1,130.000000596047,2|0,0:0|0:0,0:0:0:0:
448,256,149525,1,2,0:0:0:0:
352,352,149868,1,0,0:0:0:0:
224,336,150211,2,0,P|176:272|160:224,1,130.000000596047,2|0,0:0|0:0,0:0:0:0:
160,96,150897,1,2,0:0:0:0:
272,32,151240,1,0,0:0:0:0:
368,128,151583,6,0,P|400:171|464:256,1,130.000000596047,2|0,0:0|0:0,0:0:0:0:
240,256,152268,2,0,L|144:128,1,130.000000596047,2|0,0:0|0:0,0:0:0:0:
48,96,152954,2,0,P|93:40|176:32,1,130.000000596047,2|0,0:0|0:0,0:0:0:0:
272,48,153640,2,0,P|226:103|144:112,1,130.000000596047,2|0,0:0|0:0,0:0:0:0:
48,176,154325,5,2,0:0:0:0:
112,288,154668,1,0,0:0:0:0:
240,320,155011,1,2,0:0:0:0:
368,272,155354,1,0,0:0:0:0:
256,192,155697,2,0,P|224:176|192:80,1,130.000000596047,2|0,0:0|0:0,0:0:0:0:
320,112,156383,2,0,P|352:128|384:224,1,130.000000596047,2|0,0:0|0:0,0:0:0:0:
352,336,157068,6,0,P|304:320|224:352,1,130.000000596047,2|0,0:0|0:0,0:0:0:0:
128,272,157754,2,0,P|178:267|239:207,1,130.000000596047,2|0,0:0|0:0,0:0:0:0:
128,144,158440,2,0,P|144:80|208:48,1,130.000000596047,2|0,0:0|0:0,0:0:0:0:
320,32,159125,1,2,0:0:0:0:
432,96,159468,1,2,0:0:0:0:
381,259,159811,6,0,B|368:288|320:304|304:288|288:272|320:240|304:208|304:208|352:160|336:112|256:80|256:80|176:112|160:160|208:208|208:208|192:240|224:272|208:288|192:304|144:288|141:264,1,650.000002980235,2|0,0:0|0:0,0:0:0:0:
80,112,161525,2,0,L|160:48,1,81.2500003725294,2|0,0:0|0:0,0:0:0:0:
176,144,161868,2,0,L|256:80,1,81.2500003725294,2|0,0:0|0:0,0:0:0:0:
288,160,162211,2,0,P|336:112|432:96,2,162.500000745059,2|0|2,0:0|0:0|0:0,0:0:0:0:
235,222,163068,6,0,P|190:223|128:128,1,162.500000745059
128,48,163583,2,0,P|176:48|208:144,1,162.500000745059,2|0,0:0|0:0,0:0:0:0:
96,256,164268,2,0,P|176:304|240:288,1,162.500000745059,2|2,0:0|0:0,0:0:0:0:
304,240,164783,1,0,0:0:0:0:
352,176,164954,1,0,0:0:0:0:
432,32,165297,6,0,P|336:48|272:96,1,162.500000745059,2|0,0:0|0:0,0:0:0:0:
160,192,165983,1,0,0:0:0:0:
288,288,166325,1,0,0:0:0:0:
416,192,166668,1,0,0:0:0:0:
256,144,167011,2,0,P|224:112|160:80,1,81.2500003725294,2|0,0:0|0:0,0:0:0:0:
176,176,167354,2,0,P|144:144|80:112,1,81.2500003725294,2|0,0:0|0:0,0:0:0:0:
96,208,167697,2,2,P|128:239|240:256,1,162.500000745059
400,256,168383,6,0,P|384:192|352:160,1,81.2500003725294,0|2,0:0|0:0,0:0:0:0:
224,112,168897,2,0,P|240:175|272:207,1,81.2500003725294,0|2,0:0|0:0,0:0:0:0:
352,320,169411,2,0,P|288:352|240:352,1,81.2500003725294,2|0,0:0|0:0,0:0:0:0:
272,272,169754,2,0,P|208:304|160:304,1,81.2500003725294,2|0,0:0|0:0,0:0:0:0:
208,224,170097,2,2,P|241:201|280:190,1,81.2500003725294
224,128,170440,2,0,P|257:105|296:94,1,81.2500003725294,2|0,0:0|0:0,0:0:0:0:
384,96,170783,6,0,P|400:160|368:288,1,162.500000745059,2|0,0:0|0:0,0:0:0:0:
336,320,171297,2,0,P|288:256|208:224,1,162.500000745059,2|0,0:0|0:0,0:0:0:0:
158,284,171811,2,0,P|126:236|188:152,1,162.500000745059,2|0,0:0|0:0,0:0:0:0:
304,64,172497,1,2,0:0:0:0:
352,128,172668,1,0,0:0:0:0:
352,208,172840,1,2,0:0:0:0:
288,256,173011,1,0,0:0:0:0:
208,256,173183,2,0,P|112:224|96:160,1,162.500000745059,2|2,0:0|0:0,0:0:0:0:
96,16,173868,6,0,B|160:16|176:80|176:80|176:80,1,81.2500003725294,0|2,0:0|0:0,0:0:0:0:
256,176,174383,2,0,P|272:128|304:96,1,81.2500003725294,0|2,0:0|0:0,0:0:0:0:
448,32,174897,1,2,0:0:0:0:
448,192,175240,1,2,0:0:0:0:
288,240,175583,2,2,P|208:224|192:208,2,81.2500003725294
448,256,176268,6,0,P|368:336|317:347,1,162.500000745059,2|0,0:0|0:0,0:0:0:0:
271,282,176783,2,0,B|239:307|240:352|240:352|208:320|158:322,1,162.500000745059,2|0,0:0|0:0,0:0:0:0:
96,352,177297,2,0,P|96:288|192:256,1,162.500000745059,2|0,0:0|0:0,0:0:0:0:
336,272,177983,2,0,L|400:192,1,81.2500003725294,2|0,0:0|0:0,0:0:0:0:
304,192,178325,2,0,L|368:112,1,81.2500003725294,2|0,0:0|0:0,0:0:0:0:
400,64,178668,2,0,P|352:48|272:112,2,162.500000745059,2|0|2,0:0|0:0|0:0,0:0:0:0:
480,80,179525,6,0,P|448:128|341:121,1,162.500000745059,2|0,0:0|0:0,0:0:0:0:
288,176,180040,2,0,P|336:224|432:240,2,162.500000745059,2|0|0,0:0|0:0|0:0,0:0:0:0:
208,32,181068,1,2,0:0:0:0:
144,80,181240,1,0,0:0:0:0:
128,160,181411,2,2,P|128:208|208:304,1,162.500000745059
352,304,182097,5,0,0:0:0:0:
464,192,182440,1,2,0:0:0:0:
304,160,182783,1,0,0:0:0:0:
192,272,183125,1,2,0:0:0:0:
32,320,183468,2,0,L|32:224,1,81.2500003725294,2|0,0:0|0:0,0:0:0:0:
112,208,183811,2,0,L|112:112,1,81.2500003725294,2|0,0:0|0:0,0:0:0:0:
112,48,184154,2,0,P|176:64|192:160,1,162.500000745059,2|2,0:0|0:0,0:0:0:0:
144,304,184840,6,0,P|224:304|288:240,1,162.500000745059,0|2,0:0|0:0,0:0:0:0:
256,96,185525,2,0,P|331:121|371:189,1,162.500000745059,2|0,0:0|0:0,0:0:0:0:
416,352,186211,2,2,P|320:336|256:288,1,162.500000745059
267,300,186725,1,0,0:0:0:0:
267,300,186897,1,2,0:0:0:0:
192,155,187240,6,0,P|146:101|59:112,1,162.500000745059,2|0,0:0|0:0,0:0:0:0:
112,176,187754,2,0,L|0:304,1,162.500000745059,2|0,0:0|0:0,0:0:0:0:
48,368,188268,2,0,L|159:239,1,162.500000745059,2|0,0:0|0:0,0:0:0:0:
256,128,188954,1,2,0:0:0:0:
320,176,189125,1,0,0:0:0:0:
400,160,189297,1,6,0:0:0:0:
432,80,189468,1,0,0:0:0:0:
362,37,189640,2,2,B|346:101|346:101|314:37|250:37,1,162.500000745059
112,32,190325,6,0,P|128:80|224:128,1,162.500000745059
384,146,191011,2,0,P|474:249|338:320,1,325.000001490117
192,304,192040,2,2,L|128:240,2,81.2500003725294
352,352,192725,6,0,P|400:320|400:192,1,162.500000745059,2|0,0:0|0:0,0:0:0:0:
336,256,193240,2,0,P|336:176|432:128,1,162.500000745059,2|0,0:0|0:0,0:0:0:0:
464,160,193754,2,0,P|464:96|368:64,1,162.500000745059,2|2,0:0|0:0,0:0:0:0:
224,48,194440,2,0,L|160:112,1,81.2500003725294,2|0,0:0|0:0,0:0:0:0:
240,128,194783,2,0,L|182:185,1,81.2500003725294,2|0,0:0|0:0,0:0:0:0:
101,181,195125,2,0,P|130:247|229:247,1,162.500000745059,2|0,0:0|0:0,0:0:0:0:
384,128,195811,5,2,0:0:0:0:
269,13,196154,1,0,0:0:0:0:
269,175,196497,1,2,0:0:0:0:
154,60,196840,2,0,P|100:118|102:218,1,162.500000745059
114,359,197525,1,2,0:0:0:0:
114,359,197697,1,0,0:0:0:0:
114,359,197868,1,2,0:0:0:0:
240,304,198211,6,0,P|272:240|256:144,1,162.500000745059,2|0,0:0|0:0,0:0:0:0:
224,80,198725,2,0,P|304:32|368:48,1,162.500000745059,2|0,0:0|0:0,0:0:0:0:
448,51,199240,2,0,P|410:117|331:115,1,162.500000745059,2|0,0:0|0:0,0:0:0:0:
160,64,199925,2,0,L|112:144,1,81.2500003725294,2|0,0:0|0:0,0:0:0:0:
160,208,200268,2,0,L|208:128,1,81.2500003725294,2|0,0:0|0:0,0:0:0:0:
256,192,200611,2,0,L|208:272,1,81.2500003725294,2|0,0:0|0:0,0:0:0:0:
160,320,200954,6,0,P|224:352|288:272,2,162.500000745059,2|0|2,0:0|0:0|0:0,0:0:0:0:
192,160,201983,2,0,P|127:128|64:208,2,162.500000745059,0|2|0,0:0|0:0|0:0,0:0:0:0:
224,320,203011,1,2,0:0:0:0:
304,288,203183,1,0,0:0:0:0:
336,208,203354,1,0,0:0:0:0:
256,66,203697,5,0,0:0:0:0:
256,192,203868,12,2,206440,0:0:0:0:
