osu file format v14

[General]
AudioFilename: Sakura.mp3
AudioLeadIn: 0
PreviewTime: 91825
Countdown: 0
SampleSet: None
StackLeniency: 0.7
Mode: 0
LetterboxInBreaks: 0
WidescreenStoryboard: 1

[Editor]
Bookmarks: 74682,76396,77425,80167,81882,82910
DistanceSpacing: 1.3
BeatDivisor: 2
GridSize: 4
TimelineZoom: 1.4

[Metadata]
Title:Sakura
TitleUnicode:Sakura
Artist:Lifetheory
ArtistUnicode:Lifetheory
Creator:Zare
Version:
Source:
Tags:dnb drum and bass zarerion flower best background ever today i ate cookies and it was great Daisy
BeatmapID:1260560
BeatmapSetID:397932

[Difficulty]
HPDrainRate:7
CircleSize:4
OverallDifficulty:8.5
ApproachRate:9
SliderMultiplier:1.9
SliderTickRate:2

[Events]
//Background and Video events
0,0,"Sakura.jpg",0,0
//Break Periods
2,93760,116789
//Storyboard Layer 0 (Background)
//Storyboard Layer 1 (Fail)
//Storyboard Layer 2 (Pass)
//Storyboard Layer 3 (Foreground)
//Storyboard Sound Samples

[TimingPoints]
647,342.857142857143,4,1,0,100,1,0
71961,-300,4,2,0,15,0,0
93904,-100,4,1,0,60,0,1
94075,-100,4,3,0,60,0,0
117218,-100,4,3,0,30,0,0
126818,-125,4,3,0,40,0,0
159732,-100,4,3,0,60,0,1
181589,-125,4,3,0,60,0,0
181675,-125,4,3,0,60,0,1
203618,-125,4,3,0,60,0,0

[Colours]
Combo1 : 255,45,21
Combo2 : 148,107,107
Combo3 : 231,163,163
Combo4 : 228,118,196

[HitObjects]
253,349,71961,6,0,P|269:188|327:339,1,443.333333333333
280,271,74704,2,0,B|229:149|321:150|268:25,1,253.333333333333
187,38,76418,2,0,P|206:96|176:152,1,126.666666666667
127,90,77447,2,0,B|74:133|88:227|179:259|232:204|232:204|280:248|356:245|403:195,1,443.333333333333
335,148,80189,2,0,P|328:33|443:22,1,253.333333333333
390,86,81904,2,0,P|416:143|395:201,1,126.666666666667
370,280,82932,6,0,P|278:261|198:308,1,190
116,304,84304,1,0,0:0:0:0:
38,278,84647,1,0,0:0:0:0:
38,196,84989,1,0,0:0:0:0:
116,170,85332,1,0,0:0:0:0:
164,237,85675,6,0,P|197:184|184:124,1,126.666666666667
115,79,86704,1,0,0:0:0:0:
188,42,87047,2,0,L|254:25,1,63.3333333333333
323,60,87732,2,0,P|354:52|385:58,1,63.3333333333333
355,135,88418,2,0,B|335:228|335:228|357:320,1,190
278,341,89789,1,0,0:0:0:0:
195,342,90132,1,0,0:0:0:0:
195,259,90475,1,0,0:0:0:0:
278,260,90818,1,0,0:0:0:0:
239,187,91161,6,0,L|257:52,1,126.666666666667
333,33,92189,1,0,0:0:0:0:
190,10,92532,1,0,0:0:0:0:
370,111,92875,1,0,0:0:0:0:
124,65,93218,2,0,L|130:147,1,63.3333333333333
370,113,117389,5,0,0:0:0:0:
361,236,117561,1,0,0:0:0:0:
238,224,117732,1,0,0:0:0:0:
245,100,117904,6,0,L|129:96,1,95
54,176,118247,1,0,0:0:0:0:
61,298,118418,1,0,0:0:0:0:
182,318,118589,6,0,L|285:314,1,95
400,314,118932,1,0,0:0:0:0:
394,190,119104,1,0,0:0:0:0:
278,146,119275,6,0,L|294:28,1,95
175,6,119618,1,0,0:0:0:0:
81,86,119789,1,0,0:0:0:0:
162,178,119961,6,0,L|166:290,1,95
288,261,120304,2,0,L|423:276,1,95
403,149,120647,1,0,0:0:0:0:
398,25,120818,6,0,L|188:89,1,190
185,200,121332,1,0,0:0:0:0:
64,171,121504,1,0,0:0:0:0:
33,290,121675,1,0,0:0:0:0:
153,320,121847,1,0,0:0:0:0:
327,200,122018,5,0,0:0:0:0:
448,171,122189,1,0,0:0:0:0:
479,290,122361,1,0,0:0:0:0:
359,320,122532,1,0,0:0:0:0:
185,200,122704,5,0,0:0:0:0:
64,171,122875,1,0,0:0:0:0:
33,290,123047,1,0,0:0:0:0:
153,320,123218,1,0,0:0:0:0:
327,200,123389,5,0,0:0:0:0:
448,171,123561,1,0,0:0:0:0:
479,290,123732,1,0,0:0:0:0:
359,320,123904,1,0,0:0:0:0:
185,200,124075,5,0,0:0:0:0:
64,171,124247,1,0,0:0:0:0:
33,290,124418,1,0,0:0:0:0:
153,320,124589,1,0,0:0:0:0:
327,200,124761,5,0,0:0:0:0:
448,171,124932,1,0,0:0:0:0:
479,290,125104,1,0,0:0:0:0:
359,320,125275,1,0,0:0:0:0:
185,200,125447,5,0,0:0:0:0:
64,171,125618,1,0,0:0:0:0:
33,290,125789,1,0,0:0:0:0:
153,320,125961,1,0,0:0:0:0:
327,200,126132,5,0,0:0:0:0:
448,171,126304,1,0,0:0:0:0:
479,290,126475,1,0,0:0:0:0:
359,320,126647,1,0,0:0:0:0:
