osu file format v14

[General]
AudioFilename: audio.mp3
AudioLeadIn: 0
PreviewTime: 63042
Countdown: 0
SampleSet: Soft
StackLeniency: 0.4
Mode: 0
LetterboxInBreaks: 0
WidescreenStoryboard: 1

[Editor]
Bookmarks: 23668,57953,63668,69381,80810,92238,103667,115095,126524
DistanceSpacing: 0.2
BeatDivisor: 4
GridSize: 4
TimelineZoom: 3.260001

[Metadata]
Title:Lullaby For A Tough Guy
TitleUnicode:Lullaby For A Tough Guy
Artist:Lifetheory
ArtistUnicode:Lifetheory
Creator:Maiev
Version:Dream
Source:osu!
Tags:featured artist fa mappersguild mappers guild mpg mg dnb drum and bass daisy xchorse kyle_y kyle y instrumental electronic
BeatmapID:2533237
BeatmapSetID:1202258

[Difficulty]
HPDrainRate:5.2
CircleSize:4.4
OverallDifficulty:7.5
ApproachRate:8.8
SliderMultiplier:1.7
SliderTickRate:1

[Events]
//Background and Video events
0,0,"bg.jpg",0,0
//Break Periods
//Storyboard Layer 0 (Background)
//Storyboard Layer 1 (Fail)
//Storyboard Layer 2 (Pass)
//Storyboard Layer 3 (Foreground)
//Storyboard Layer 4 (Overlay)
//Storyboard Sound Samples

[TimingPoints]
96,357.142857142858,4,2,1,30,1,0
810,357.142857142858,4,2,1,30,1,0
810,-250,4,2,1,30,0,0
1167,-250,4,2,1,5,0,0
1524,-250,4,2,1,30,0,0
1881,-250,4,2,1,5,0,0
2238,-250,4,2,1,30,0,0
4024,-250,4,2,1,5,0,0
4381,-250,4,2,1,30,0,0
4738,-250,4,2,1,5,0,0
5095,-250,4,2,1,30,0,0
5452,-250,4,2,1,5,0,0
5810,-250,4,2,1,30,0,0
6881,-250,4,2,1,5,0,0
7238,-250,4,2,1,30,0,0
7595,-250,4,2,1,5,0,0
7893,-250,4,2,1,30,0,0
9738,-250,4,2,1,5,0,0
10095,-250,4,2,1,30,0,0
10452,-250,4,2,1,5,0,0
10810,-250,4,2,1,30,0,0
11167,-250,4,2,1,5,0,0
11524,-250,4,2,1,30,0,0
12773,-250,4,2,1,5,0,0
12952,-250,4,2,1,30,0,0
15452,-250,4,2,1,5,0,0
15810,-250,4,2,1,30,0,0
16167,-250,4,2,1,5,0,0
16524,-250,4,2,1,30,0,0
16881,-250,4,2,1,5,0,0
17238,-250,4,2,1,30,0,0
22774,-250,4,2,1,5,0,0
22952,-250,4,2,1,30,0,0
23667,-111.111111111111,4,2,1,60,0,0
35362,-111.111111111111,4,2,1,5,0,0
35452,-111.111111111111,4,2,1,60,0,0
57952,-111.111111111111,4,2,1,35,0,0
58667,-249.999999999999,4,2,1,35,0,0
63131,-249.999999999999,4,2,1,40,0,0
63310,-249.999999999999,4,2,1,45,0,0
63488,-249.999999999999,4,2,1,50,0,0
63667,-90.9090909090909,4,2,1,60,0,1
63756,-90.9090909090909,4,2,1,60,0,0
63934,-90.9090909090909,4,2,1,5,0,0
64024,-100,4,2,1,60,0,0
66791,-100,4,2,1,5,0,0
66881,-100,4,2,1,60,0,0
68667,-100,4,2,1,50,0,0
68845,-100,4,2,1,55,0,0
69024,-100,4,2,1,60,0,0
69202,-100,4,2,1,65,0,0
69381,-100,4,2,1,70,0,1
72505,-100,4,2,1,5,0,1
72595,-100,4,2,1,70,0,1
73935,-100,4,2,1,5,0,1
74024,-100,4,2,1,70,0,1
75362,-100,4,2,1,5,0,1
75452,-100,4,2,1,70,0,1
78219,-100,4,2,1,5,0,1
78310,-100,4,2,1,70,0,1
86791,-100,4,2,1,5,0,1
86881,-100,4,2,1,70,0,1
89648,-100,4,2,1,5,0,1
89738,-100,4,2,1,70,0,1
95362,-100,4,2,1,5,0,1
95452,-100,4,2,1,70,0,1
96792,-100,4,2,1,5,0,1
96881,-100,4,2,1,70,0,1
98219,-100,4,2,1,5,0,1
98310,-100,4,2,1,70,0,1
101077,-100,4,2,1,5,0,1
101167,-100,4,2,1,70,0,1
115095,-125,4,2,1,35,0,0

[Colours]
Combo1 : 196,225,193
Combo2 : 255,255,128
Combo3 : 203,191,255
Combo4 : 255,202,202

[HitObjects]
504,15,96,5,2,2:2:0:0:
447,81,453,1,2,2:2:0:0:
470,161,810,2,0,P|452:188|420:199,1,68,2|0,2:2|2:2,2:2:0:0:
415,283,1524,2,0,P|381:280|356:258,1,68,2|0,2:2|2:2,2:2:0:0:
254,29,2238,5,2,2:2:0:0:
172,51,2595,1,2,2:2:0:0:
172,51,2655,1,2,2:2:0:0:
198,140,2952,1,2,2:2:0:0:
107,119,3310,1,2,2:2:0:0:
34,226,3667,6,0,L|15:160,1,68,2|0,2:2|2:2,2:2:0:0:
110,311,4381,2,0,L|128:245,1,68,2|0,2:2|2:2,2:2:0:0:
18,384,5095,2,0,L|0:318,1,68,2|0,2:2|2:2,2:2:0:0:
201,357,5810,5,2,2:2:0:0:
271,301,6167,1,2,2:2:0:0:
425,384,6524,2,0,P|458:382|486:364,1,68,2|0,2:2|2:2,2:2:0:0:
448,272,7238,2,0,P|463:242|461:208,1,68,2|0,2:2|2:2,2:2:0:0:
306,83,7908,6,0,L|308:98,1,8.5,2|0,0:2|0:2,0:0:0:0:
263,176,8310,1,2,2:2:0:0:
163,126,8667,1,2,2:2:0:0:
208,40,9024,1,2,2:2:0:0:
352,150,9381,6,0,L|360:217,1,68,2|0,2:2|2:2,2:2:0:0:
254,243,10095,2,0,L|262:176,1,68,2|0,2:2|2:2,2:2:0:0:
163,126,10810,2,0,L|171:193,1,68,2|0,2:2|2:2,2:2:0:0:
109,335,11524,5,2,2:2:0:0:
22,299,11881,1,2,2:2:0:0:
163,126,12238,2,0,B|171:78|171:78|166:69|166:69|172:26,1,102,2|0,2:2|2:2,2:2:0:0:
184,10,12952,1,2,2:2:0:0:
271,70,13310,1,2,2:2:0:0:
171,213,13667,5,2,2:2:0:0:
84,153,14024,1,2,2:2:0:0:
84,153,14083,1,2,2:2:0:0:
75,265,14381,1,2,2:2:0:0:
162,325,14738,1,2,2:2:0:0:
359,216,15095,6,0,P|360:183|372:151,1,68,2|0,2:2|2:2,2:2:0:0:
283,135,15810,2,0,P|282:101|270:69,1,68,2|0,2:2|2:2,2:2:0:0:
391,65,16524,2,0,P|391:31|403:0,1,68,2|0,2:2|2:2,2:2:0:0:
499,207,17238,1,2,2:2:0:0:
428,264,17595,1,2,2:2:0:0:
171,213,17952,6,0,B|231:197|231:197|245:204|245:204|300:188,2,136,2|2|2,2:2|2:2|2:2,2:2:0:0:
118,288,19738,1,2,2:2:0:0:
25,271,20095,1,2,2:2:0:0:
206,298,20452,1,2,2:2:0:0:
17,266,20810,5,2,2:2:0:0:
256,192,20899,12,0,22774,2:2:0:0:
17,266,22952,5,2,2:2:0:0:
63,195,23310,1,2,2:2:0:0:
4,23,23667,6,0,B|48:26|72:50|64:64|89:91|138:87,1,153,2|8,3:2|2:2,2:2:0:0:
217,19,24202,1,0,1:2:0:0:
235,23,24292,1,0,1:2:0:0:
254,27,24380,1,2,1:2:0:0:
273,31,24469,1,0,1:2:0:0:
291,35,24559,1,0,3:2:0:0:
409,37,24738,2,0,L|401:113,1,76.5000000000001,8|0,2:2|1:2,2:2:0:0:
410,137,25006,1,0,1:2:0:0:
414,142,25095,6,0,L|489:127,1,76.5000000000001,2|0,3:2|2:2,2:2:0:0:
294,110,25452,2,0,L|218:95,1,76.5000000000001,10|0,2:2|1:2,2:2:0:0:
195,91,25720,1,0,1:2:0:0:
195,91,25810,2,0,L|200:128,2,38.2499988327027,2|0|0,1:2|1:2|3:2,0:2:0:0:
141,222,26167,2,0,L|152:297,1,76.5000000000001,10|0,2:2|1:2,2:2:0:0:
179,308,26435,1,0,1:2:0:0:
183,313,26524,6,0,B|286:298|286:298|300:322|285:344,1,153,2|8,3:2|2:2,2:2:0:0:
411,384,27060,1,0,1:2:0:0:
412,364,27149,1,0,1:2:0:0:
414,345,27238,1,2,1:2:0:0:
415,326,27327,1,0,1:2:0:0:
417,307,27417,1,0,3:2:0:0:
503,218,27595,2,0,P|476:192|439:187,1,76.5000000000001,8|0,2:2|1:2,2:2:0:0:
419,199,27863,1,0,1:2:0:0:
414,205,27952,6,0,L|401:129,1,76.5000000000001,2|0,3:2|2:2,2:2:0:0:
308,42,28310,2,0,L|295:117,1,76.5000000000001,8|0,2:2|1:2,2:2:0:0:
284,141,28577,1,0,1:2:0:0:
284,141,28667,1,2,1:2:0:0:
195,81,28845,1,0,3:2:0:0:
63,195,29024,2,0,L|74:270,1,76.5000000000001,10|0,2:2|1:2,2:2:0:0:
55,297,29292,1,0,1:2:0:0:
50,302,29381,6,0,P|89:365|161:359,1,153,2|8,3:2|2:2,2:2:0:0:
297,286,29917,1,0,1:2:0:0:
278,290,30006,1,0,1:2:0:0:
259,295,30095,1,2,1:2:0:0:
241,300,30184,1,0,1:2:0:0:
222,305,30274,1,0,3:2:0:0:
339,185,30452,2,0,L|413:204,1,76.4999976654053,8|0,2:2|1:2,2:2:0:0:
431,214,30720,1,0,1:2:0:0:
436,219,30810,6,0,P|446:255|434:291,1,76.5000000000001,2|0,3:2|2:2,2:2:0:0:
268,219,31167,2,0,P|256:183|266:146,1,76.5000000000001,10|0,2:2|1:2,2:2:0:0:
284,127,31435,1,0,1:2:0:0:
290,123,31524,2,0,L|212:104,1,76.5000000000001,2|0,1:2|3:2,2:2:0:0:
63,195,31881,2,0,L|141:176,1,76.5000000000001,10|0,2:2|2:2,2:2:0:0:
0,0,32238,6,0,B|-3:52|-11:107|-11:107|3:90|23:77,1,153,2|8,3:2|2:2,2:2:0:0:
142,101,32774,1,0,1:2:0:0:
140,81,32863,1,0,1:2:0:0:
139,62,32952,1,2,1:2:0:0:
137,43,33041,1,0,1:2:0:0:
136,24,33131,1,0,3:2:0:0:
290,123,33310,2,0,L|364:105,1,76.5000000000001,8|0,2:2|1:2,2:2:0:0:
384,85,33577,1,0,1:2:0:0:
387,78,33667,5,2,3:2:0:0:
50,302,34381,5,2,2:2:0:0:
160,359,34738,1,2,2:2:0:0:
429,240,35095,6,0,P|410:187|357:174,1,114.75,6|0,3:2|2:2,2:2:0:0:
351,178,35452,1,8,2:2:0:0:
248,267,35631,1,0,1:2:0:0:
245,259,35720,1,0,1:2:0:0:
242,251,35810,2,0,L|246:212,1,38.25,2|0,1:2|1:2,2:2:0:0:
262,186,35988,1,0,3:2:0:0:
158,74,36167,2,0,P|120:79|93:104,1,76.5000000000001,10|0,2:2|1:2,2:2:0:0:
94,125,36435,1,0,1:2:0:0:
98,131,36524,6,0,L|23:115,1,76.5000000000001,2|0,3:2|2:2,2:2:0:0:
171,229,36881,2,0,L|245:213,1,76.5000000000001,10|0,2:2|1:2,2:2:0:0:
262,186,37149,1,0,1:2:0:0:
262,176,37238,2,0,L|188:192,1,76.5000000000001,2|0,2:2|3:2,2:2:0:0:
429,240,37595,2,0,P|434:202|442:164,1,76.4999976654053,10|0,0:2|1:2,0:2:0:0:
458,134,37863,1,0,1:2:0:0:
466,133,37952,6,0,B|424:141|398:119|402:92|373:76|330:77,1,153,6|8,3:2|2:2,2:2:0:0:
250,8,38488,1,2,1:2:0:0:
178,79,38667,1,2,1:2:0:0:
168,76,38756,1,0,1:2:0:0:
158,74,38845,1,0,3:2:0:0:
0,0,39024,2,0,P|7:37|12:75,1,76.5000000000001,8|0,2:2|1:2,2:2:0:0:
7,97,39292,1,0,1:2:0:0:
5,104,39381,6,0,L|80:91,1,76.5000000000001,2|0,3:2|2:2,2:2:0:0:
264,178,39738,1,8,2:2:0:0:
204,280,39917,1,2,2:2:0:0:
328,375,40095,1,2,1:2:0:0:
329,367,40185,1,0,1:2:0:0:
330,359,40274,1,0,3:2:0:0:
429,304,40452,2,0,L|417:228,1,76.5000000000001,10|0,2:2|1:2,2:2:0:0:
434,209,40720,1,0,1:2:0:0:
439,202,40810,6,0,B|442:147|455:100|455:100|439:119|418:133,1,152.999995330811,6|8,3:2|2:2,2:2:0:0:
264,178,41345,1,2,1:2:0:0:
178,94,41524,1,2,1:2:0:0:
178,86,41613,1,0,1:2:0:0:
178,79,41702,1,0,3:2:0:0:
35,179,41881,2,0,L|47:254,1,76.5000000000001,8|0,2:2|1:2,2:2:0:0:
39,274,42149,1,0,1:2:0:0:
37,281,42238,6,0,L|111:264,1,76.5000000000001,2|0,3:2|2:2,2:2:0:0:
192,374,42595,2,0,L|214:301,1,76.5000000000001,10|0,0:2|1:2,2:2:0:0:
237,279,42863,1,0,1:2:0:0:
245,275,42952,2,0,P|269:303|305:312,1,76.4999976654053,2|0,1:2|3:2,0:2:0:0:
170,149,43310,2,0,L|157:73,1,76.5000000000001,10|0,2:2|1:2,2:2:0:0:
147,58,43577,1,0,1:2:0:0:
141,52,43667,6,0,B|184:45|213:63|208:78|239:99|285:84,1,153,6|8,3:2|2:2,2:2:0:0:
404,0,44202,1,2,1:2:0:0:
407,18,44291,1,0,1:2:0:0:
410,37,44381,1,0,1:2:0:0:
413,56,44469,1,0,1:2:0:0:
416,75,44560,1,0,3:2:0:0:
356,225,44738,2,0,L|282:208,1,76.5000000000001,8|0,2:2|1:2,2:2:0:0:
262,221,45006,1,0,1:2:0:0:
258,226,45095,6,0,L|270:302,1,76.5000000000001,2|0,3:2|2:2,2:2:0:0:
141,212,45452,2,0,P|143:174|170:148,1,76.5000000000001,8|2,2:2|1:2,2:2:0:0:
189,146,45720,1,0,1:2:0:0:
195,150,45810,1,10,0:2:0:0:
102,2,45988,1,2,3:2:0:0:
82,100,46167,1,2,1:2:0:0:
194,21,46345,1,8,2:2:0:0:
0,44,46524,6,0,P|11:119|22:195,1,153,6|8,3:2|2:2,2:2:0:0:
0,328,47060,1,0,1:2:0:0:
7,326,47149,1,0,1:2:0:0:
14,325,47238,2,0,L|51:330,1,38.25,2|0,1:2|1:2,2:2:0:0:
69,347,47417,1,0,3:2:0:0:
189,279,47595,2,0,L|197:203,1,76.5000000000001,10|0,2:2|1:2,2:2:0:0:
212,183,47863,1,0,1:2:0:0:
217,178,47952,6,0,L|289:203,1,76.5000000000001,2|0,3:2|2:2,2:2:0:0:
421,264,48310,2,0,L|348:289,1,76.5000000000001,10|0,2:2|1:2,2:2:0:0:
329,311,48577,1,0,1:2:0:0:
329,311,48667,1,2,1:2:0:0:
434,363,48845,1,0,3:2:0:0:
512,239,49024,2,0,L|503:163,1,76.5000000000001,10|0,2:2|1:2,2:2:0:0:
489,141,49292,1,0,1:2:0:0:
482,137,49381,6,0,B|479:81|465:37|465:37|480:62|500:73,1,153,6|8,3:2|2:2,2:2:0:0:
383,56,49917,1,2,1:2:0:0:
319,128,50095,1,2,1:2:0:0:
321,135,50185,1,0,1:2:0:0:
323,142,50274,1,0,3:2:0:0:
177,108,50452,2,0,P|189:72|222:56,1,76.5000000000001,8|0,2:2|1:2,2:2:0:0:
247,37,50720,1,0,1:2:0:0:
245,29,50810,6,0,L|170:11,1,76.5000000000001,2|0,3:2|2:2,2:2:0:0:
18,110,51167,1,8,2:2:0:0:
91,211,51345,1,2,1:2:0:0:
95,204,51435,1,0,1:2:0:0:
99,197,51524,1,2,1:2:0:0:
182,296,51702,1,0,3:2:0:0:
57,381,51881,2,0,P|50:343|42:306,1,76.5000000000001,10|0,2:2|1:2,2:2:0:0:
31,281,52149,1,0,1:2:0:0:
35,274,52238,6,0,B|108:282|108:282|111:290|111:290|182:296,1,152.999995330811,6|8,3:2|2:2,2:2:0:0:
284,380,52774,1,2,1:2:0:0:
386,291,52952,1,2,1:2:0:0:
393,293,53042,1,0,1:2:0:0:
400,295,53131,1,0,3:2:0:0:
304,150,53310,2,0,P|267:156|245:186,1,76.5000000000001,8|0,2:2|1:2,2:2:0:0:
237,212,53577,1,0,1:2:0:0:
242,217,53667,6,0,L|314:241,1,76.5000000000001,2|0,3:2|2:2,2:2:0:0:
185,127,54024,2,0,L|112:151,1,76.5000000000001,10|0,2:2|1:2,2:2:0:0:
96,170,54292,1,0,1:2:0:0:
94,177,54381,1,2,1:2:0:0:
18,110,54560,1,0,3:2:0:0:
142,0,54738,2,0,P|178:6|200:36,1,76.5000000000001,10|0,2:2|1:2,2:2:0:0:
219,55,55006,1,0,1:2:0:0:
226,54,55095,6,0,B|269:47|298:65|293:80|324:101|370:86,1,153,6|8,3:2|2:2,2:2:0:0:
498,76,55631,1,2,1:2:0:0:
494,94,55720,1,0,1:2:0:0:
491,113,55809,1,2,1:2:0:0:
487,132,55898,1,0,1:2:0:0:
484,151,55988,1,0,3:2:0:0:
387,265,56167,2,0,L|314:241,1,76.5000000000001,8|0,2:2|1:2,2:2:0:0:
290,250,56435,1,0,1:2:0:0:
284,255,56524,5,2,3:2:0:0:
227,313,56702,1,0,1:2:0:0:
229,320,56792,1,0,1:2:0:0:
231,327,56881,1,0,3:2:0:0:
143,307,57060,1,10,2:2:0:0:
108,230,57238,1,2,1:2:0:0:
100,230,57327,1,0,1:2:0:0:
92,230,57417,1,0,3:2:0:0:
165,162,57595,1,2,3:2:0:0:
252,186,57774,1,0,2:2:0:0:
91,154,57952,5,2,3:2:0:0:
89,138,58131,1,0,2:2:0:0:
87,122,58310,1,0,2:2:0:0:
33,66,58488,1,2,2:2:0:0:
129,0,58667,2,0,P|161:7|179:35,1,68.0000000000003,2|2,2:2|2:2,2:2:0:0:
254,182,59381,6,0,L|320:169,3,68.0000000000003,2|2|2|2,2:2|2:2|2:2|2:2,2:2:0:0:
452,353,60810,5,2,2:2:0:0:
455,336,60988,1,0,2:2:0:0:
459,319,61167,1,0,2:2:0:0:
467,222,61345,2,0,P|417:219|385:256,1,102,2|0,2:2|2:2,2:2:0:0:
225,362,62238,6,0,L|213:294,1,68.0000000000003,2|2,2:2|2:2,2:2:0:0:
200,284,62774,1,2,2:2:0:0:
109,289,62952,1,2,1:2:0:0:
33,204,63131,1,2,1:2:0:0:
77,80,63310,1,2,1:2:0:0:
213,79,63488,1,2,1:2:0:0:
292,221,63667,6,0,B|323:210|364:221|360:232|387:247|427:234,1,140.25000428009,6|0,3:2|2:2,2:2:0:0:
486,189,64024,1,10,0:2:0:0:
497,338,64202,1,0,1:2:0:0:
466,331,64292,1,0,1:2:0:0:
435,325,64381,1,0,1:2:0:0:
404,318,64470,1,0,1:2:0:0:
372,312,64559,1,0,3:2:0:0:
224,279,64738,2,0,P|204:242|208:200,1,85,8|0,2:2|1:2,2:2:0:0:
269,141,65006,1,0,1:2:0:0:
269,141,65095,6,0,L|187:115,1,85,2|0,3:2|2:2,2:2:0:0:
292,338,65452,2,0,L|373:312,1,85,8|2,2:2|2:2,2:2:0:0:
114,176,65810,1,2,1:2:0:0:
64,326,65988,1,2,3:2:0:0:
139,176,66167,1,10,2:2:0:0:
46,333,66345,1,2,2:2:0:0:
5,71,66524,6,0,B|65:59|65:59|69:53|69:53|126:38,1,127.5,6|0,3:2|2:2,2:2:0:0:
208,33,66881,2,0,L|187:115,1,85,10|0,2:2|2:2,2:2:0:0:
350,117,67238,2,0,L|268:140,1,85,2|0,1:2|3:2,2:2:0:0:
348,281,67595,2,0,L|287:221,1,85,10|0,2:2|1:2,2:2:0:0:
219,269,67863,1,0,1:2:0:0:
222,276,67952,5,2,3:2:0:0:
55,242,68131,1,0,1:2:0:0:
186,115,68310,2,0,L|165:197,1,85,8|2,2:2|2:2,2:2:0:0:
350,373,68667,5,10,2:2:0:0:
469,341,68845,1,8,2:2:0:0:
510,215,69024,1,10,2:2:0:0:
412,124,69202,1,8,2:2:0:0:
282,162,69381,5,6,3:2:0:0:
507,111,69560,1,2,2:2:0:0:
271,176,69738,1,10,2:2:0:0:
512,92,69917,1,2,2:2:0:0:
366,285,70095,1,2,1:2:0:0:
357,283,70185,1,0,1:2:0:0:
348,281,70274,1,2,3:2:0:0:
261,379,70452,1,10,2:2:0:0:
166,304,70631,1,2,1:2:0:0:
0,384,70810,6,0,P|31:356|39:315,1,85,2|0,3:2|1:2,2:2:0:0:
200,227,71167,2,0,P|192:185|160:158,1,85,10|0,2:2|2:2,2:2:0:0:
121,19,71524,2,0,P|81:5|41:18,1,85,2|0,1:2|3:2,2:2:0:0:
273,160,71881,2,0,P|312:173|352:160,1,85,10|0,2:2|2:2,2:2:0:0:
372,232,72149,1,0,1:2:0:0:
377,235,72238,6,0,P|369:298|363:361,1,127.5,6|0,3:2|2:2,2:2:0:0:
379,381,72595,2,0,L|462:359,1,85,10|0,2:2|2:2,2:2:0:0:
273,160,72952,1,2,1:2:0:0:
272,168,73042,1,0,1:2:0:0:
271,176,73131,1,0,3:2:0:0:
166,304,73310,1,10,2:2:0:0:
179,120,73488,1,0,1:2:0:0:
178,128,73577,1,0,1:2:0:0:
178,136,73667,6,0,B|118:131|118:131|112:122|112:122|55:117,1,127.5,2|0,3:2|1:2,2:2:0:0:
5,176,74024,2,0,P|31:208|42:249,1,85,10|0,2:2|0:2,2:2:0:0:
174,47,74381,1,2,1:2:0:0:
182,46,74470,1,0,1:2:0:0:
190,45,74560,1,0,1:2:0:0:
283,154,74738,1,10,2:2:0:0:
454,0,74917,1,0,1:2:0:0:
459,6,75006,1,0,1:2:0:0:
463,13,75095,6,0,B|497:47|497:47|472:122,1,127.5,6|0,3:2|2:2,2:2:0:0:
460,213,75452,2,0,P|425:188|383:187,1,85,10|2,2:2|2:2,2:2:0:0:
249,262,75810,1,2,1:2:0:0:
251,270,75899,1,0,1:2:0:0:
253,278,75988,1,0,3:2:0:0:
142,361,76167,1,10,2:2:0:0:
38,205,76345,1,0,1:2:0:0:
40,197,76435,1,0,1:2:0:0:
42,189,76524,5,2,3:2:0:0:
112,116,76702,1,0,1:2:0:0:
0,0,76881,2,0,L|12:84,1,85,10|0,2:2|2:2,2:2:0:0:
283,154,77238,1,2,1:2:0:0:
106,262,77417,1,2,3:2:0:0:
284,139,77595,1,10,2:2:0:0:
106,281,77774,1,2,1:2:0:0:
173,47,77952,6,0,P|217:3|279:9,1,127.5,6|0,3:2|2:2,2:2:0:0:
360,0,78310,2,0,L|345:83,1,85,10|0,2:2|2:2,2:2:0:0:
460,213,78667,1,2,1:2:0:0:
456,205,78756,1,0,1:2:0:0:
452,197,78845,1,0,3:2:0:0:
283,154,79024,2,0,L|298:237,1,85,10|0,2:2|1:2,2:2:0:0:
360,298,79292,1,0,1:2:0:0:
366,304,79381,6,0,B|317:297|290:322|296:345|264:365|212:357,1,170,2|8,3:2|2:2,2:2:0:0:
128,384,79917,1,2,2:2:0:0:
10,277,80095,2,0,P|51:272|84:297,1,85,2|0,2:2|3:2,0:2:0:0:
136,188,80452,2,0,L|145:103,1,85,10|0,2:2|1:2,2:2:0:0:
135,29,80720,1,0,1:2:0:0:
128,22,80810,5,6,3:2:0:0:
283,154,80988,1,2,2:2:0:0:
101,20,81167,1,10,2:2:0:0:
309,158,81345,1,2,2:2:0:0:
395,33,81524,1,2,1:2:0:0:
403,32,81613,1,0,1:2:0:0:
411,32,81702,1,2,3:2:0:0:
512,123,81881,1,10,2:2:0:0:
461,214,82060,1,2,1:2:0:0:
507,364,82238,6,0,P|482:330|441:325,1,85,2|0,3:2|2:2,2:2:0:0:
342,189,82595,2,0,P|300:193|276:227,1,85,10|0,2:2|2:2,2:2:0:0:
142,290,82952,2,0,P|125:328|141:366,1,85,2|0,1:2|3:2,2:2:0:0:
190,194,83310,2,0,P|165:160|124:155,1,85,10|0,2:2|2:2,2:2:0:0:
60,225,83577,1,0,1:2:0:0:
52,221,83667,6,0,L|28:139,1,85,6|0,3:2|2:2,2:2:0:0:
276,225,84024,2,0,L|252:306,1,85,10|0,2:2|2:2,2:2:0:0:
461,214,84381,1,2,1:2:0:0:
459,205,84470,1,0,1:2:0:0:
457,196,84560,1,0,3:2:0:0:
381,132,84738,1,10,2:2:0:0:
473,18,84917,1,0,1:2:0:0:
465,15,85006,1,0,1:2:0:0:
455,13,85095,6,0,P|414:9|378:30,1,85,2|0,3:2|0:2,2:2:0:0:
251,169,85452,2,0,P|209:173|173:152,1,85,10|0,2:2|2:2,2:2:0:0:
381,132,85810,1,2,1:2:0:0:
388,134,85899,1,0,1:2:0:0:
395,136,85988,1,0,1:2:0:0:
461,214,86167,1,10,2:2:0:0:
306,341,86345,1,2,1:2:0:0:
298,337,86435,1,0,1:2:0:0:
289,334,86524,6,0,B|237:350|237:350|225:343|225:343|168:360,1,127.5,6|0,3:2|2:2,2:2:0:0:
73,384,86881,2,0,L|60:299,1,85,10|0,2:2|2:2,2:2:0:0:
10,235,87149,1,0,1:2:0:0:
10,235,87238,1,2,1:2:0:0:
141,282,87417,1,0,3:2:0:0:
249,94,87595,2,0,P|232:55|194:39,1,85,10|0,2:2|1:2,2:2:0:0:
102,17,87863,1,0,1:2:0:0:
98,24,87952,6,0,L|110:108,1,85,2|0,3:2|1:2,2:2:0:0:
189,216,88310,2,0,P|211:181|251:168,1,85,10|0,2:2|2:2,2:2:0:0:
461,320,88667,1,2,1:2:0:0:
395,136,88845,1,2,3:2:0:0:
450,336,89024,1,10,2:2:0:0:
407,121,89202,1,2,1:2:0:0:
334,364,89381,6,0,P|274:345|211:334,1,127.5,6|0,3:2|2:2,2:2:0:0:
136,374,89738,2,0,P|108:342|106:300,1,85,10|0,2:2|2:2,2:2:0:0:
212,182,90095,2,0,P|198:221|163:244,1,85,2|0,1:2|3:2,2:2:0:0:
7,212,90452,2,0,P|48:204|85:222,1,85,10|0,2:2|1:2,2:2:0:0:
318,219,90810,6,0,L|329:121,1,85,2|0,3:2|2:2,2:2:0:0:
425,63,91167,1,8,2:2:0:0:
212,182,91345,1,2,1:2:0:0:
203,179,91435,1,0,1:2:0:0:
195,176,91524,1,10,2:2:0:0:
85,222,91702,1,8,2:2:0:0:
0,136,91881,1,10,2:2:0:0:
73,18,92060,1,8,2:2:0:0:
199,75,92238,5,6,3:2:0:0:
0,223,92417,1,2,2:2:0:0:
200,60,92595,1,10,2:2:0:0:
2,234,92774,1,2,2:2:0:0:
79,115,92952,1,2,1:2:0:0:
79,106,93042,1,0,1:2:0:0:
80,97,93131,1,2,3:2:0:0:
162,243,93310,2,0,P|190:275|231:279,1,85,10|2,2:2|1:2,2:2:0:0:
314,277,93577,1,0,1:2:0:0:
319,285,93667,6,0,L|312:369,1,85,2|0,3:2|2:2,2:2:0:0:
424,188,94024,2,0,L|494:236,1,85,10|0,2:2|2:2,2:2:0:0:
368,50,94381,2,0,L|444:13,1,85,2|0,1:2|3:2,2:2:0:0:
238,176,94738,2,0,L|161:139,1,85,10|0,2:2|2:2,2:2:0:0:
34,139,95006,1,0,1:2:0:0:
41,142,95095,6,0,B|67:187|67:187|50:260,1,127.5,6|0,3:2|2:2,2:2:0:0:
61,359,95452,2,0,P|88:328|130:323,1,85,10|0,2:2|2:2,2:2:0:0:
271,384,95810,1,2,1:2:0:0:
269,375,95899,1,0,1:2:0:0:
267,366,95988,1,0,3:2:0:0:
313,225,96167,1,10,2:2:0:0:
407,384,96345,1,0,1:2:0:0:
405,375,96435,1,0,1:2:0:0:
403,367,96524,6,0,B|460:335|460:335|512:368,1,127.5,2|0,3:2|1:2,2:2:0:0:
503,277,96881,2,0,B|464:255|464:255|427:271,1,85,10|0,2:2|2:2,2:2:0:0:
417,282,97149,1,0,1:2:0:0:
417,282,97238,1,2,1:2:0:0:
313,225,97417,1,0,1:2:0:0:
465,44,97595,2,0,L|485:126,1,85,10|0,2:2|1:2,2:2:0:0:
419,173,97863,1,0,1:2:0:0:
410,168,97952,6,0,B|377:177|351:153|357:140|331:126|293:132,1,127.5,6|0,3:2|2:2,2:2:0:0:
233,191,98310,1,10,2:2:0:0:
111,99,98488,1,0,1:2:0:0:
112,90,98577,1,0,1:2:0:0:
113,81,98667,1,2,1:2:0:0:
213,26,98845,1,0,3:2:0:0:
141,190,99024,2,0,L|57:175,1,85,10|0,2:2|1:2,2:2:0:0:
0,241,99292,1,0,1:2:0:0:
7,238,99381,6,0,P|37:266|45:316,1,85,2|0,3:2|1:2,2:2:0:0:
192,370,99738,2,0,P|200:329|231:300,1,85,10|0,2:2|2:2,2:2:0:0:
477,201,100095,1,2,1:2:0:0:
293,131,100274,1,2,3:2:0:0:
483,223,100452,1,10,2:2:0:0:
283,112,100631,1,2,1:2:0:0:
326,361,100810,6,0,B|408:337|408:337|445:355,1,127.5,6|0,3:2|2:2,2:2:0:0:
497,306,101167,2,0,L|482:219,1,85,10|0,2:2|2:2,2:2:0:0:
342,198,101524,2,0,L|409:141,1,85,2|0,1:2|3:2,2:2:0:0:
319,12,101881,2,0,L|401:42,1,85,10|0,2:2|1:2,2:2:0:0:
233,191,102238,6,0,P|200:165|190:124,1,85,2|0,3:2|2:2,2:2:0:0:
342,198,102595,1,8,2:2:0:0:
230,300,102774,1,2,1:2:0:0:
226,307,102863,1,0,1:2:0:0:
222,314,102952,2,0,L|138:300,1,85,2|0,2:2|3:2,2:2:0:0:
0,191,103310,2,0,L|83:177,1,85,10|0,2:2|1:2,2:2:0:0:
113,192,103577,1,0,1:2:0:0:
119,197,103667,5,6,3:2:0:0:
218,21,103845,1,2,2:2:0:0:
132,214,104024,1,10,2:2:0:0:
206,7,104202,1,2,2:2:0:0:
259,135,104381,1,2,1:2:0:0:
264,140,104470,1,0,1:2:0:0:
270,146,104560,1,2,3:2:0:0:
367,232,104738,1,10,2:2:0:0:
437,172,104917,1,2,1:2:0:0:
366,360,105095,6,0,P|341:326|301:314,1,85,2|0,3:2|2:2,2:2:0:0:
259,135,105452,2,0,P|217:139|187:168,1,85,10|0,2:2|2:2,2:2:0:0:
12,176,105810,2,0,P|-5:214|5:254,1,85,2|0,1:2|3:2,2:2:0:0:
211,370,106167,2,0,P|221:329|204:291,1,85,10|0,2:2|2:2,2:2:0:0:
286,211,106435,1,0,1:2:0:0:
282,220,106524,6,0,L|366:231,1,85,6|0,3:2|2:2,2:2:0:0:
187,167,106881,2,0,L|102:178,1,85,10|0,2:2|2:2,2:2:0:0:
293,311,107238,1,2,1:2:0:0:
301,314,107327,1,0,1:2:0:0:
309,316,107417,1,0,3:2:0:0:
457,312,107595,1,10,2:2:0:0:
350,158,107774,1,0,1:2:0:0:
353,165,107863,1,0,1:2:0:0:
355,171,107952,6,0,P|386:200|427:208,1,85,2|0,3:2|0:2,2:2:0:0:
490,54,108310,2,0,P|448:62|418:90,1,85,10|0,2:2|2:2,2:2:0:0:
268,205,108667,1,2,1:2:0:0:
259,203,108756,1,0,1:2:0:0:
250,200,108845,1,0,1:2:0:0:
153,101,109024,1,10,2:2:0:0:
32,249,109202,1,0,1:2:0:0:
35,256,109292,1,0,1:2:0:0:
38,263,109381,6,0,B|93:268|116:298|105:313|142:341|184:336,1,170,6|10,3:2|2:2,2:2:0:0:
307,384,109917,1,0,2:2:0:0:
398,276,110095,1,2,1:2:0:0:
395,267,110185,1,0,1:2:0:0:
392,258,110274,1,0,3:2:0:0:
481,126,110452,1,10,2:2:0:0:
288,246,110631,1,0,1:2:0:0:
285,237,110720,1,0,1:2:0:0:
282,228,110810,5,2,3:2:0:0:
217,137,110988,1,0,1:2:0:0:
375,57,111167,2,0,L|362:141,1,85,10|0,2:2|2:2,2:2:0:0:
201,298,111524,1,2,1:2:0:0:
96,231,111702,1,2,3:2:0:0:
241,384,111881,1,10,2:2:0:0:
370,340,112060,1,2,1:2:0:0:
377,343,112149,1,0,1:2:0:0:
384,347,112238,6,0,L|465:323,1,85,6|0,3:2|2:2,2:2:0:0:
241,384,112595,2,0,L|159:360,1,85,10|0,2:2|1:2,2:2:0:0:
131,367,112863,1,0,1:2:0:0:
125,372,112952,1,2,1:2:0:0:
265,257,113131,1,0,3:2:0:0:
66,169,113310,2,0,P|36:198|29:240,1,85,10|0,2:2|1:2,2:2:0:0:
111,250,113577,1,0,1:2:0:0:
114,240,113667,6,0,L|195:215,1,85,2|0,3:2|2:2,2:2:0:0:
342,268,114024,1,8,2:2:0:0:
429,147,114202,1,0,1:2:0:0:
431,125,114292,1,0,1:2:0:0:
433,104,114381,1,0,1:2:0:0:
435,83,114470,1,0,1:2:0:0:
437,62,114560,1,0,3:2:0:0:
331,0,114738,2,0,P|289:5|265:38,1,85,8|0,2:2|1:2,2:2:0:0:
272,71,115006,1,0,1:2:0:0:
276,76,115095,6,0,B|218:62|218:62|202:70|202:70|145:56,1,136,6|2,3:2|2:2,2:2:0:0:
145,56,115810,5,2,2:2:0:0:
76,122,115988,1,2,2:2:0:0:
143,185,116167,1,2,2:2:0:0:
212,119,116345,1,2,2:2:0:0:
306,332,116702,5,2,2:2:0:0:
306,230,116881,1,2,2:2:0:0:
394,281,117060,1,2,2:2:0:0:
114,283,117417,5,2,2:2:0:0:
143,185,117595,1,2,2:2:0:0:
214,334,117774,1,2,2:2:0:0:
212,340,117863,1,2,2:2:0:0:
210,346,117952,6,0,B|126:337|168:384|80:373,1,136,2|2,2:2|2:2,2:2:0:0:
81,373,118667,5,2,2:2:0:0:
9,301,118845,1,2,2:2:0:0:
62,213,119024,1,2,2:2:0:0:
158,246,119202,1,2,2:2:0:0:
421,107,119560,5,2,2:2:0:0:
439,206,119738,1,2,2:2:0:0:
457,306,119917,1,2,2:2:0:0:
188,119,120274,5,2,2:2:0:0:
265,53,120452,1,2,2:2:0:0:
334,131,120631,1,2,2:2:0:0:
257,197,120810,6,0,B|265:243|274:294|274:294|285:271|294:262,1,136,2|2,2:2|2:2,2:2:0:0:
294,262,121524,5,2,2:2:0:0:
375,322,121702,1,2,2:2:0:0:
457,262,121881,1,2,2:2:0:0:
417,167,122060,1,2,2:2:0:0:
210,346,122417,5,2,2:2:0:0:
126,288,122595,1,2,2:2:0:0:
24,303,122774,1,2,2:2:0:0:
188,119,123131,5,2,2:2:0:0:
116,45,123310,1,2,2:2:0:0:
89,142,123488,1,2,2:2:0:0:
90,148,123577,1,2,2:2:0:0:
90,154,123667,6,0,B|124:208|124:208|195:202,1,136,2|2,2:2|2:2,2:2:0:0:
195,201,124381,5,2,2:2:0:0:
272,268,124560,1,2,2:2:0:0:
339,192,124738,1,2,2:2:0:0:
262,125,124917,1,2,2:2:0:0:
459,353,125274,5,2,2:2:0:0:
366,310,125452,1,2,2:2:0:0:
272,268,125631,1,2,2:2:0:0:
474,48,125988,5,2,2:2:0:0:
396,114,126167,1,2,2:2:0:0:
491,149,126345,1,2,2:2:0:0:
377,19,126524,1,2,2:2:0:0:
