osu file format v14

[General]
AudioFilename: audio.mp3
AudioLeadIn: 0
PreviewTime: 62952
Countdown: 0
SampleSet: Drum
StackLeniency: 0.2
Mode: 0
LetterboxInBreaks: 0
WidescreenStoryboard: 0

[Editor]
Bookmarks: 65095,68309,69381,106524,111524
DistanceSpacing: 1.6
BeatDivisor: 4
GridSize: 4
TimelineZoom: 1.1

[Metadata]
Title:Lullaby For A Tough Guy
TitleUnicode:Lullaby For A Tough Guy
Artist:Lifetheory
ArtistUnicode:Lifetheory
Creator:Zare
Version:Insane
Source:
Tags:DnB Drum and Bass DrumnBass Zarerion Daisy Im Electronica
BeatmapID:1271021
BeatmapSetID:459004

[Difficulty]
HPDrainRate:6.5
CircleSize:4
OverallDifficulty:8.3
ApproachRate:8.5
SliderMultiplier:1.8
SliderTickRate:1

[Events]
//Background and Video events
0,0,"Konachan.com - 212434 sample.jpg",0,0
//Break Periods
//Storyboard Layer 0 (Background)
//Storyboard Layer 1 (Fail)
//Storyboard Layer 2 (Pass)
//Storyboard Layer 3 (Foreground)
//Storyboard Layer 4 (Overlay)
//Storyboard Sound Samples

[TimingPoints]
95,357.142857142857,4,3,0,15,1,0
810,357.142857142857,4,3,0,15,1,0
810,-200,4,3,0,20,0,0
23667,-125,4,3,0,40,0,0
63667,-100,4,3,0,50,0,1
63756,-100,4,3,0,50,0,0
68667,-100,4,3,0,55,0,0
68845,-100,4,3,0,60,0,0
69024,-100,4,3,0,65,0,0
69202,-100,4,3,0,68,0,0
69381,-100,4,3,0,70,0,1
92059,-100,4,3,0,70,0,0
92238,-100,4,3,0,70,0,1
115095,-125,4,3,0,50,0,0

[Colours]
Combo1 : 103,164,197
Combo2 : 193,243,118
Combo3 : 238,95,79
Combo4 : 218,218,218

[HitObjects]
80,165,95,5,0,0:3:0:0:
161,81,452,1,8,0:3:0:0:
268,127,810,6,0,P|307:128|364:106,1,90,6|0,0:3|0:3,0:3:0:0:
449,42,1524,2,0,L|443:140,1,90,0|0,0:3|0:3,0:3:0:0:
337,180,2238,1,2,0:3:0:0:
411,270,2595,1,0,0:3:0:0:
335,359,2952,1,0,0:3:0:0:
225,318,3309,1,8,0:3:0:0:
217,124,3667,6,0,L|229:229,1,90,6|0,0:3|0:3,0:3:0:0:
123,351,4381,2,0,L|136:250,1,90,0|0,0:3|0:3,0:3:0:0:
55,174,5095,1,6,0:3:0:0:
199,17,5809,1,0,0:3:0:0:
316,10,6167,1,8,0:3:0:0:
129,111,6524,6,0,P|124:155|130:200,1,90,6|0,0:3|0:3,0:3:0:0:
307,246,7238,2,0,L|206:259,1,90,0|0,0:3|0:3,0:3:0:0:
156,357,7952,1,2,0:3:0:0:
93,258,8309,1,0,0:3:0:0:
107,141,8667,1,0,0:3:0:0:
173,44,9024,1,8,0:3:0:0:
384,85,9381,6,0,P|339:93|295:94,1,90,6|0,0:3|0:3,0:3:0:0:
107,141,10095,2,0,L|202:150,1,90,0|0,0:3|0:3,0:3:0:0:
280,184,10809,1,6,0:0:0:0:
293,364,11524,1,0,0:3:0:0:
176,355,11881,1,8,0:3:0:0:
94,271,12238,6,0,P|90:226|104:174,1,90,2|0,0:3|0:3,0:3:0:0:
173,90,12952,1,0,0:3:0:0:
57,73,13309,1,8,0:3:0:0:
284,18,13667,1,6,0:0:0:0:
304,133,14024,1,0,0:0:0:0:
350,327,14381,1,0,0:0:0:0:
330,212,14738,1,8,0:0:0:0:
159,192,15095,6,0,L|248:194,1,90,6|0,0:0|0:0,0:0:0:0:
475,153,15809,2,0,L|385:150,1,90
257,25,16524,1,6,0:0:0:0:
77,41,17238,1,0,0:3:0:0:
129,145,17595,1,8,0:3:0:0:
244,126,17952,6,0,P|246:155|228:228,1,90,6|0,0:3|0:3,0:3:0:0:
95,326,18667,2,0,L|190:319,1,90,0|0,0:3|0:3,0:3:0:0:
404,283,19381,1,2,0:3:0:0:
276,148,19738,1,0,0:3:0:0:
300,337,20095,1,0,0:3:0:0:
392,166,20452,1,8,0:3:0:0:
221,251,20809,5,6,0:2:0:0:
342,164,22952,1,0,0:3:0:0:
423,128,23309,1,0,0:3:0:0:
257,133,23667,6,0,L|159:134,1,72,6|0,0:2|0:2,0:2:0:0:
23,227,24024,1,8,0:2:0:0:
48,309,24202,1,0,0:2:0:0:
51,315,24292,1,0,0:2:0:0:
54,321,24381,2,0,P|110:329|141:325,1,72,2|0,0:2|0:2,0:2:0:0:
275,215,24738,1,8,0:2:0:0:
305,296,24917,1,0,0:2:0:0:
330,146,25095,6,0,P|330:111|324:75,1,72,2|0,0:2|0:2,0:2:0:0:
180,64,25452,2,0,P|179:99|185:135,1,72,10|0,0:2|0:2,0:2:0:0:
365,230,25809,2,0,L|352:322,1,72,2|0,0:2|0:2,0:2:0:0:
166,287,26167,2,0,L|179:195,1,72,10|0,0:2|0:2,0:2:0:0:
217,32,26524,6,0,P|183:40|147:40,1,72,6|0,0:3|0:2,0:2:0:0:
6,165,26881,1,8,0:2:0:0:
86,134,27059,1,0,0:2:0:0:
93,135,27149,1,0,0:2:0:0:
100,135,27238,2,0,P|135:131|170:139,1,72,2|0,0:2|0:2,0:2:0:0:
226,318,27595,1,8,0:2:0:0:
142,340,27774,1,0,0:2:0:0:
236,187,27952,6,0,L|307:185,1,72,2|0,0:2|0:2,0:2:0:0:
449,288,28309,1,8,0:2:0:0:
375,333,28488,1,0,0:2:0:0:
469,202,28667,2,0,P|468:167|463:131,1,72,2|0,0:2|0:2,0:2:0:0:
338,12,29024,2,0,P|338:47|343:83,1,72,10|0,0:2|0:2,0:2:0:0:
299,269,29381,6,0,L|306:184,1,72,6|0,0:2|0:2,0:2:0:0:
212,38,29738,1,8,0:2:0:0:
174,116,29917,1,0,0:2:0:0:
166,115,30006,1,0,0:2:0:0:
158,115,30095,2,0,L|68:126,1,72,2|0,0:2|0:2,0:2:0:0:
14,252,30452,1,8,0:2:0:0:
91,212,30631,1,0,0:2:0:0:
256,298,30809,6,0,L|335:290,1,72,2|0,0:2|0:2,0:2:0:0:
450,143,31167,2,0,L|371:151,1,72,10|0,0:2|0:2,0:2:0:0:
210,225,31524,2,0,L|289:217,1,72,2|0,0:2|0:2,0:2:0:0:
404,70,31882,2,0,L|325:78,1,72,10|0,0:2|0:2,0:2:0:0:
154,13,32238,6,0,P|151:51|156:87,1,72,6|0,0:3|0:2,0:2:0:0:
90,242,32595,1,8,0:2:0:0:
115,159,32774,1,0,0:2:0:0:
113,151,32863,1,0,0:2:0:0:
110,142,32952,2,0,P|75:139|42:152,1,72,2|0,0:2|0:2,0:2:0:0:
59,324,33309,1,8,0:2:0:0:
90,242,33488,1,0,0:2:0:0:
127,376,33667,5,6,0:3:0:0:
127,375,34381,2,0,P|161:364|196:361,1,72,2|0,0:2|0:2,0:2:0:0:
343,295,34738,2,0,P|308:306|273:309,1,72,2|0,0:2|0:2,0:2:0:0:
117,262,35095,6,0,L|206:267,1,72,6|0,0:2|0:2,0:2:0:0:
242,108,35452,1,8,0:2:0:0:
247,194,35631,1,0,0:2:0:0:
253,196,35720,1,0,0:2:0:0:
259,198,35809,2,0,P|294:198|329:189,1,72,2|0,0:2|0:2,0:2:0:0:
412,20,36167,2,0,P|393:51|384:85,1,72,10|0,0:2|0:2,0:2:0:0:
422,256,36524,6,0,L|415:327,1,72,2|0,0:2|0:2,0:2:0:0:
323,350,36881,2,0,L|330:279,1,72,10|0,0:2|0:2,0:2:0:0:
512,222,37238,2,0,L|505:293,1,72,2|0,0:2|0:2,0:2:0:0:
231,371,37595,2,0,L|238:300,1,72,10|0,0:2|0:2,0:2:0:0:
317,111,37952,6,0,P|281:106|245:112,1,72,6|0,0:3|0:2,0:2:0:0:
65,102,38309,1,8,0:2:0:0:
192,177,38488,1,2,0:3:0:0:
2,160,38667,2,0,L|6:234,1,72,2|0,0:2|0:2,0:2:0:0:
119,355,39024,1,8,0:2:0:0:
83,276,39202,1,0,0:2:0:0:
85,269,39292,1,0,0:2:0:0:
88,261,39381,6,0,P|123:257|158:266,1,72,2|0,0:2|0:2,0:2:0:0:
320,284,39738,1,8,0:2:0:0:
242,244,39917,1,2,0:3:0:0:
394,239,40095,2,0,P|439:235|466:228,1,72,2|0,0:2|0:2,0:2:0:0:
438,71,40452,2,0,L|433:162,1,72,10|0,0:2|0:2,0:2:0:0:
319,283,40809,6,0,P|308:250|310:214,1,72,6|0,0:2|0:2,0:2:0:0:
334,31,41167,1,8,0:2:0:0:
373,173,41345,1,2,0:3:0:0:
254,27,41524,2,0,L|181:21,1,72,2|0,0:2|0:2,0:2:0:0:
55,137,41881,1,8,0:2:0:0:
111,202,42059,1,0,0:2:0:0:
110,209,42149,1,0,0:2:0:0:
108,216,42238,6,0,P|109:251|113:287,1,72,2|0,0:2|0:2,0:2:0:0:
329,264,42595,2,0,P|328:228|324:192,1,72,10|0,0:2|0:2,0:2:0:0:
171,134,42952,2,0,P|207:130|242:130,1,72,2|0,0:2|0:2,0:2:0:0:
266,345,43309,2,0,P|230:349|195:350,1,72,10|0,0:2|0:2,0:2:0:0:
31,308,43667,6,0,L|106:316,1,72,6|0,0:3|0:2,0:2:0:0:
259,256,44024,1,8,0:2:0:0:
127,157,44202,2,0,P|124:113|131:83,1,72,6|0,0:3|0:2,0:2:0:0:
193,26,44559,1,0,0:2:0:0:
189,213,44738,1,8,0:2:0:0:
262,167,44917,1,0,0:2:0:0:
269,168,45006,1,0,0:2:0:0:
276,169,45095,6,0,L|357:169,1,72,6|0,0:3|0:2,0:2:0:0:
394,20,45452,1,8,0:2:0:0:
422,211,45631,1,6,0:3:0:0:
210,249,45809,2,0,L|291:249,1,72,6|0,0:2|0:2,0:2:0:0:
494,211,46167,2,0,L|413:211,1,72,10|0,0:2|0:2,0:2:0:0:
238,163,46524,6,0,P|234:128|239:92,1,72,6|0,0:2|0:2,0:2:0:0:
63,17,46881,1,8,0:2:0:0:
117,83,47059,1,0,0:2:0:0:
115,90,47149,1,0,0:2:0:0:
113,97,47238,2,0,L|110:168,1,72,2|0,0:2|0:2,0:2:0:0:
88,328,47595,1,10,0:2:0:0:
61,245,47774,1,0,0:2:0:0:
167,361,47952,6,0,P|202:362|238:357,1,72,2|0,0:2|0:2,0:2:0:0:
378,302,48309,2,0,L|307:304,1,72,10|0,0:2|0:2,0:2:0:0:
122,262,48667,2,0,P|157:258|193:258,1,72,2|0,0:2|0:2,0:2:0:0:
406,184,49024,2,0,P|370:187|334:187,1,72,10|0,0:2|0:2,0:2:0:0:
213,66,49381,6,0,L|206:158,1,72,6|0,0:3|0:2,0:2:0:0:
45,231,49738,1,8,0:2:0:0:
201,230,49917,1,2,0:3:0:0:
33,65,50095,2,0,L|40:157,1,72,2|0,0:2|0:2,0:2:0:0:
122,272,50452,1,8,0:2:0:0:
201,230,50631,1,0,0:2:0:0:
200,222,50720,1,0,0:0:0:0:
199,214,50809,6,0,P|234:214|270:219,1,72,2|0,0:2|0:2,0:2:0:0:
452,313,51167,1,8,0:2:0:0:
288,309,51345,1,2,0:3:0:0:
480,231,51524,2,0,L|480:132,1,72,2|0,0:2|0:2,0:2:0:0:
441,9,51881,2,0,L|441:81,1,72,10|0,0:2|0:2,0:2:0:0:
357,246,52238,6,0,P|362:210|355:175,1,72,6|0,0:2|0:2,0:2:0:0:
187,129,52595,1,8,0:2:0:0:
313,98,52774,1,2,0:3:0:0:
140,55,52952,2,0,P|104:56|68:63,1,72,2|0,0:2|0:2,0:2:0:0:
10,240,53309,1,8,0:2:0:0:
82,287,53488,1,0,0:2:0:0:
89,286,53577,1,0,0:2:0:0:
96,284,53667,6,0,P|131:284|165:295,1,72,2|0,0:2|0:2,0:2:0:0:
342,319,54024,2,0,P|306:319|272:308,1,72,10|0,0:2|0:2,0:2:0:0:
221,113,54381,2,0,L|226:197,1,72,2|0,0:2|0:2,0:2:0:0:
416,249,54738,2,0,L|411:165,1,72,10|0,0:2|0:2,0:2:0:0:
258,42,55095,6,0,P|224:34|189:40,1,72,6|0,0:3|0:2,0:2:0:0:
155,224,55452,1,8,0:2:0:0:
83,175,55631,1,0,0:2:0:0:
82,167,55720,1,0,0:2:0:0:
81,159,55809,2,0,L|85:78,1,72,2|0,0:2|0:2,0:2:0:0:
255,24,56167,1,8,0:2:0:0:
337,49,56345,1,0,0:2:0:0:
171,46,56524,6,0,L|167:127,1,72,2|0,0:2|0:2,0:2:0:0:
212,200,56881,1,2,0:2:0:0:
380,136,57059,1,10,0:2:0:0:
117,195,57238,2,0,P|117:230|123:266,1,72,2|0,0:2|0:2,0:2:0:0:
347,285,57595,2,0,P|347:249|341:213,1,72,10|0,0:2|0:2,0:2:0:0:
275,156,57952,5,6,0:2:0:0:
306,75,58131,1,0,0:2:0:0:
225,44,58309,1,2,0:2:0:0:
194,125,58488,1,0,0:2:0:0:
206,210,58667,5,2,0:2:0:0:
286,241,58845,1,0,0:2:0:0:
253,321,59024,1,2,0:2:0:0:
173,290,59202,1,0,0:2:0:0:
48,222,59381,6,0,L|120:220,1,72,2|0,0:2|0:2,0:2:0:0:
346,153,59738,2,0,L|275:156,1,72,2|0,0:2|0:2,0:2:0:0:
26,129,60095,2,0,L|110:132,1,72,2|0,0:2|0:2,0:2:0:0:
373,260,60452,2,0,L|289:257,1,72,2|0,0:2|0:2,0:2:0:0:
202,83,60809,5,6,0:2:0:0:
281,49,60988,1,0,0:2:0:0:
361,83,61167,1,2,0:2:0:0:
394,162,61345,1,0,0:2:0:0:
361,242,61524,5,2,0:2:0:0:
281,275,61702,1,0,0:2:0:0:
202,242,61881,1,2,0:2:0:0:
168,162,62059,1,0,0:2:0:0:
281,161,62238,6,0,P|316:159|352:164,1,72,2|0,0:2|0:2,0:2:0:0:
436,333,62595,2,0,P|400:335|364:330,1,72,2|0,0:2|0:2,0:2:0:0:
330,250,62952,1,2,0:3:0:0:
409,229,63131,1,0,0:2:0:0:
278,319,63309,1,2,0:3:0:0:
436,150,63488,1,2,0:3:0:0:
246,243,63667,6,0,L|126:239,1,90,6|0,0:2|0:2,0:2:0:0:
28,348,64024,1,8,0:2:0:0:
78,213,64202,1,0,0:2:0:0:
77,203,64292,1,0,0:2:0:0:
76,193,64381,2,0,P|74:149|70:104,1,90,2|0,0:2|0:2,0:2:0:0:
240,21,64738,1,8,0:2:0:0:
179,110,64917,1,0,0:2:0:0:
375,124,65095,6,0,L|286:123,1,90,2|0,0:2|0:2,0:2:0:0:
81,271,65452,1,8,0:2:0:0:
179,110,65631,1,2,0:2:0:0:
34,188,65809,1,2,0:2:0:0:
223,191,65988,1,2,0:2:0:0:
83,106,66166,1,10,0:2:0:0:
176,272,66345,1,2,0:2:0:0:
354,150,66524,6,0,P|360:193|364:238,1,90,6|0,0:2|0:2,0:2:0:0:
188,361,66881,2,0,P|179:316|175:271,1,90,10|0,0:2|0:2,0:2:0:0:
376,338,67238,2,0,P|331:345|286:349,1,90,2|0,0:2|0:2,0:2:0:0:
166,172,67595,2,0,P|209:163|255:159,1,90,10|0,0:2|0:2,0:2:0:0:
408,183,67952,6,0,L|399:93,1,90,2|0,0:2|0:2,0:2:0:0:
232,20,68309,1,8,0:2:0:0:
245,127,68488,1,6,0:3:0:0:
243,135,68577,1,0,0:2:0:0:
241,144,68667,5,6,0:3:0:0:
241,348,68845,1,4,0:3:0:0:
361,183,69024,1,10,0:3:0:0:
167,246,69202,1,4,0:3:0:0:
361,309,69381,5,6,0:2:0:0:
436,146,69559,1,2,0:2:0:0:
280,296,69738,1,10,0:2:0:0:
334,125,69916,1,2,0:2:0:0:
200,295,70095,1,2,0:2:0:0:
232,119,70273,1,2,0:2:0:0:
118,303,70452,1,10,0:2:0:0:
128,124,70630,1,2,0:2:0:0:
254,354,70809,6,0,L|343:347,1,90,6|0,0:3|0:2,0:2:0:0:
510,236,71167,2,0,L|420:242,1,90,10|0,0:2|0:2,0:2:0:0:
203,234,71524,2,0,P|246:224|291:227,1,90,10|0,0:3|0:2,0:2:0:0:
475,113,71881,2,0,P|431:122|386:119,1,90,10|0,0:2|0:2,0:2:0:0:
179,30,72238,6,0,P|124:31|86:45,1,90,6|0,0:2|0:2,0:2:0:0:
29,211,72595,1,10,0:2:0:0:
118,149,72774,1,0,0:2:0:0:
126,150,72863,1,0,0:2:0:0:
134,151,72952,2,0,L|224:146,1,90,2|0,0:2|0:2,0:2:0:0:
402,55,73309,1,10,0:2:0:0:
300,202,73488,1,0,0:2:0:0:
482,215,73667,6,0,P|483:259|477:304,1,90,6|0,0:3|0:2,0:2:0:0:
292,379,74024,2,0,L|288:289,1,90,10|0,0:2|0:2,0:2:0:0:
278,67,74381,1,10,0:3:0:0:
195,277,74559,1,10,0:3:0:0:
338,211,74738,1,10,0:2:0:0:
135,133,74916,1,6,0:3:0:0:
429,243,75095,6,0,L|419:332,1,90,6|0,0:2|0:2,0:2:0:0:
208,370,75452,1,10,0:2:0:0:
338,308,75631,1,0,0:2:0:0:
337,299,75720,1,0,0:2:0:0:
336,290,75809,2,0,L|346:200,1,90,2|0,0:2|0:2,0:2:0:0:
312,4,76167,1,10,0:2:0:0:
397,122,76345,1,0,0:2:0:0:
253,137,76524,6,0,P|201:142|150:136,1,90,6|0,0:3|0:2,0:2:0:0:
47,38,76881,2,0,L|137:33,1,90,10|0,0:2|0:2,0:2:0:0:
321,81,77238,1,10,0:3:0:0:
97,180,77417,1,2,0:2:0:0:
162,26,77595,1,10,0:2:0:0:
256,235,77774,1,6,0:3:0:0:
407,68,77952,6,0,P|415:113|408:157,1,90,6|0,0:2|0:2,0:2:0:0:
201,173,78309,1,10,0:2:0:0:
335,205,78488,1,0,0:2:0:0:
337,213,78577,1,0,0:2:0:0:
339,221,78667,1,2,0:2:0:0:
233,311,78845,1,0,0:2:0:0:
117,155,79024,2,0,P|115:111|119:66,1,90,10|0,0:2|0:2,0:2:0:0:
299,17,79381,6,0,L|290:117,1,90,6|0,0:3|0:2,0:2:0:0:
142,237,79738,1,8,0:2:0:0:
316,183,79917,1,6,0:3:0:0:
154,321,80095,2,0,P|109:327|64:323,1,90,6|0,0:3|0:2,0:2:0:0:
0,156,80452,2,0,P|44:150|89:154,1,90,10|0,0:3|0:2,0:2:0:0:
316,49,80809,5,6,0:2:0:0:
152,90,80988,1,2,0:2:0:0:
360,137,81167,1,10,0:2:0:0:
193,163,81346,1,2,0:2:0:0:
395,227,81524,1,2,0:2:0:0:
226,238,81703,1,2,0:2:0:0:
425,317,81881,1,10,0:2:0:0:
255,313,82060,1,2,0:2:0:0:
484,245,82238,6,0,L|478:155,1,90,6|0,0:3|0:2,0:2:0:0:
289,20,82595,2,0,L|294:109,1,90,10|0,0:2|0:2,0:2:0:0:
311,345,82952,2,0,L|305:255,1,90,10|0,0:3|0:2,0:2:0:0:
116,120,83309,2,0,L|121:209,1,90,10|0,0:2|0:2,0:2:0:0:
349,186,83667,5,6,0:2:0:0:
173,273,83845,1,0,0:2:0:0:
217,141,84024,1,10,0:2:0:0:
304,317,84202,1,0,0:2:0:0:
312,313,84292,1,0,0:2:0:0:
319,307,84381,2,0,P|319:262|317:217,1,90,2|0,0:2|0:2,0:2:0:0:
125,193,84738,1,10,0:2:0:0:
285,149,84917,1,0,0:2:0:0:
72,134,85095,6,0,P|72:89|73:44,1,90,6|0,0:3|0:2,0:2:0:0:
263,19,85452,2,0,P|219:18|175:30,1,90,10|0,0:2|0:2,0:2:0:0:
125,193,85809,1,10,0:3:0:0:
191,337,85988,1,2,0:3:0:0:
182,126,86167,1,10,0:2:0:0:
281,337,86345,1,6,0:3:0:0:
269,120,86524,6,0,P|313:117|358:117,1,90,6|0,0:2|0:2,0:2:0:0:
432,278,86881,1,10,0:2:0:0:
424,170,87059,1,0,0:2:0:0:
432,167,87149,1,0,0:2:0:0:
440,163,87238,2,0,L|436:69,1,90,2|0,0:2|0:2,0:2:0:0:
223,31,87595,1,10,0:2:0:0:
202,156,87774,1,0,0:2:0:0:
94,77,87952,6,0,L|-6:89,1,90,6|0,0:3|0:2,0:2:0:0:
26,268,88309,1,10,0:2:0:0:
238,227,88488,1,2,0:2:0:0:
63,197,88667,1,6,0:3:0:0:
214,302,88845,1,2,0:2:0:0:
130,157,89024,1,10,0:2:0:0:
146,341,89202,1,6,0:3:0:0:
149,78,89381,6,0,P|194:76|239:82,1,90,6|0,0:2|0:2,0:2:0:0:
425,128,89738,2,0,L|336:131,1,90,10|0,0:2|0:2,0:2:0:0:
247,275,90095,2,0,P|241:230|242:186,1,90,2|0,0:2|0:2,0:2:0:0:
430,38,90452,2,0,P|431:82|425:127,1,90,10|0,0:2|0:2,0:2:0:0:
411,351,90809,6,0,P|367:361|322:359,1,90,6|0,0:3|0:2,0:2:0:0:
356,177,91167,1,10,0:2:0:0:
266,118,91345,1,0,0:2:0:0:
258,123,91434,1,0,0:2:0:0:
250,128,91524,5,6,0:3:0:0:
130,293,91703,1,4,0:3:0:0:
324,230,91881,1,10,0:3:0:0:
130,167,92060,1,4,0:3:0:0:
250,332,92238,5,6,0:2:0:0:
85,367,92417,1,2,0:2:0:0:
213,262,92595,1,10,0:2:0:0:
45,282,92774,1,2,0:2:0:0:
183,188,92952,1,2,0:2:0:0:
13,193,93131,1,2,0:2:0:0:
170,112,93309,1,10,0:2:0:0:
0,102,93488,1,2,0:2:0:0:
207,40,93667,6,0,P|251:44|296:41,1,90,6|0,0:3|0:2,0:2:0:0:
479,80,94024,2,0,P|434:75|389:78,1,90,10|0,0:2|0:2,0:2:0:0:
170,112,94381,2,0,L|178:203,1,90,10|0,0:3|0:2,0:2:0:0:
395,246,94738,2,0,L|387:155,1,90,10|0,0:2|0:2,0:2:0:0:
207,40,95095,5,6,0:2:0:0:
367,81,95274,1,0,0:2:0:0:
170,112,95452,1,10,0:2:0:0:
275,136,95631,1,0,0:2:0:0:
274,144,95720,1,0,0:2:0:0:
272,151,95809,2,0,P|280:196|280:241,1,90,2|0,0:2|0:2,0:2:0:0:
117,343,96167,1,10,0:2:0:0:
257,314,96345,1,0,0:2:0:0:
60,289,96524,6,0,L|62:199,1,90,6|0,0:3|0:2,0:2:0:0:
0,58,96881,2,0,P|44:54|88:62,1,90,10|0,0:2|0:2,0:2:0:0:
300,231,97238,2,0,P|255:234|211:226,1,90,10|0,0:3|0:2,0:2:0:0:
240,0,97595,2,0,L|237:89,1,90,10|0,0:2|0:2,0:2:0:0:
129,219,97952,5,6,0:2:0:0:
305,147,98131,1,0,0:2:0:0:
280,335,98309,1,10,0:2:0:0:
342,246,98488,1,0,0:2:0:0:
350,245,98577,1,0,0:2:0:0:
358,247,98667,2,0,P|401:258|446:262,1,90,2|0,0:2|0:2,0:2:0:0:
499,85,99024,1,10,0:2:0:0:
512,220,99202,1,0,0:2:0:0:
430,47,99381,6,0,P|385:53|342:67,1,90,6|0,0:3|0:2,0:2:0:0:
223,261,99738,1,10,0:2:0:0:
226,62,99917,1,2,0:2:0:0:
395,163,100095,1,10,0:3:0:0:
170,164,100274,1,2,0:2:0:0:
342,66,100453,1,10,0:2:0:0:
339,265,100631,1,6,0:3:0:0:
137,252,100809,6,0,L|31:244,1,90,6|0,0:2|0:2,0:2:0:0:
11,114,101167,2,0,L|117:122,1,90,10|0,0:2|0:2,0:2:0:0:
312,268,101524,2,0,L|205:259,1,90,2|0,0:2|0:2,0:2:0:0:
185,129,101882,2,0,L|291:137,1,90,10|0,0:2|0:2,0:2:0:0:
476,119,102238,6,0,P|477:74|473:26,1,90,6|0,0:3|0:2,0:2:0:0:
262,24,102595,1,10,0:2:0:0:
395,48,102774,1,6,0:3:0:0:
184,59,102952,2,0,P|140:62|96:74,1,90,6|0,0:3|0:2,0:2:0:0:
65,252,103309,2,0,P|109:249|153:237,1,90,10|0,0:3|0:2,0:2:0:0:
275,79,103667,5,6,0:2:0:0:
226,261,103845,1,2,0:2:0:0:
341,194,104024,1,10,0:2:0:0:
159,145,104202,1,2,0:2:0:0:
340,118,104381,1,2,0:2:0:0:
160,221,104559,1,2,0:2:0:0:
302,259,104738,1,10,0:2:0:0:
198,80,104916,1,2,0:2:0:0:
394,60,105095,6,0,P|438:58|480:74,1,90,6|0,0:3|0:2,0:2:0:0:
479,273,105452,2,0,P|434:274|392:258,1,90,10|0,0:2|0:2,0:2:0:0:
315,39,105809,2,0,L|225:47,1,90,10|0,0:3|0:2,0:2:0:0:
18,119,106167,2,0,L|107:110,1,90,10|0,0:2|0:2,0:2:0:0:
314,132,106524,5,6,0:2:0:0:
172,162,106702,1,0,0:2:0:0:
200,303,106881,1,10,0:2:0:0:
342,273,107059,1,0,0:2:0:0:
340,263,107149,1,0,0:2:0:0:
339,253,107238,2,0,P|382:244|427:250,1,90,2|0,0:2|0:2,0:2:0:0:
512,104,107595,2,0,L|413:117,1,90,10|0,0:2|0:2,0:2:0:0:
265,22,107952,6,0,P|268:66|265:111,1,90,6|0,0:3|0:2,0:2:0:0:
220,283,108309,2,0,L|220:192,1,90,10|0,0:2|0:2,0:2:0:0:
187,33,108667,1,10,0:3:0:0:
130,184,108845,1,2,0:3:0:0:
305,188,109024,1,10,0:2:0:0:
128,99,109202,1,6,0:3:0:0:
316,274,109381,6,0,L|308:365,1,90,6|0,0:2|0:2,0:2:0:0:
114,366,109738,1,10,0:2:0:0:
59,272,109917,1,0,0:2:0:0:
61,263,110006,1,0,0:2:0:0:
63,254,110095,1,2,0:2:0:0:
136,174,110274,1,0,0:2:0:0:
216,12,110452,2,0,P|220:57|216:102,1,90,10|0,0:2|0:2,0:2:0:0:
138,287,110809,6,0,L|245:281,1,90,6|0,0:3|0:2,0:2:0:0:
427,225,111167,1,10,0:2:0:0:
309,313,111345,1,2,0:2:0:0:
298,127,111524,1,10,0:3:0:0:
367,267,111702,1,2,0:3:0:0:
294,48,111881,1,10,0:2:0:0:
427,225,112059,1,6,0:3:0:0:
227,91,112238,6,0,P|182:85|138:93,1,90,6|0,0:2|0:2,0:2:0:0:
71,243,112595,2,0,L|67:140,1,90,10|0,0:2|0:2,0:2:0:0:
299,178,112952,2,0,L|303:281,1,90,2|0,0:2|0:2,0:2:0:0:
150,333,113309,2,0,P|194:338|238:330,1,90,10|0,0:2|0:2,0:2:0:0:
469,319,113667,6,0,L|378:319,1,90,6|0,0:3|0:2,0:2:0:0:
194,249,114024,1,8,0:2:0:0:
434,227,114202,2,0,P|438:182|433:137,1,90,10|0,0:3|0:2,0:2:0:0:
261,43,114559,1,0,0:2:0:0:
501,1,114738,2,0,L|503:95,1,90,6|0,0:3|0:2,0:2:0:0:
298,120,115095,6,0,P|263:130|228:122,1,72,6|0,0:2|0:2,0:2:0:0:
29,169,115452,2,0,P|99:157|164:185,1,144,2|0,0:2|0:2,0:2:0:0:
225,246,115988,1,0,0:2:0:0:
196,327,116167,1,0,0:2:0:0:
307,234,116345,6,0,P|376:249|442:223,1,144,2|0,0:2|0:2,0:2:0:0:
459,138,116881,1,0,0:2:0:0:
269,156,117059,2,0,L|125:148,1,144,2|0,0:2|0:2,0:2:0:0:
71,216,117595,1,0,0:2:0:0:
98,298,117774,1,0,0:2:0:0:
102,303,117863,1,0,0:2:0:0:
106,308,117952,6,0,L|179:308,1,72,6|0,0:2|0:2,0:2:0:0:
395,293,118309,2,0,P|331:319|268:288,1,144,2|0,0:2|0:2,0:2:0:0:
334,232,118845,1,0,0:2:0:0:
417,210,119024,1,0,0:2:0:0:
252,201,119202,6,0,P|266:132|236:68,1,144,2|0,0:2|0:2,0:2:0:0:
164,145,119738,1,0,0:2:0:0:
76,90,119917,2,0,P|62:159|92:223,1,144,2|0,0:2|0:2,0:2:0:0:
175,245,120452,1,0,0:2:0:0:
115,308,120631,1,0,0:2:0:0:
250,286,120809,6,0,P|285:283|317:297,1,72,6|0,0:2|0:2,0:2:0:0:
512,245,121167,2,0,P|455:265|377:224,1,144,2|0,0:2|0:2,0:2:0:0:
353,150,121702,1,0,0:2:0:0:
407,82,121881,1,0,0:2:0:0:
267,128,122059,6,0,P|198:113|131:137,1,144,2|0,0:2|0:2,0:2:0:0:
82,208,122595,1,0,0:2:0:0:
181,360,122774,2,0,L|168:217,1,144,2|0,0:2|0:2,0:2:0:0:
82,208,123309,1,0,0:2:0:0:
131,137,123488,1,0,0:2:0:0:
130,129,123577,1,0,0:2:0:0:
129,121,123667,6,0,L|134:47,1,72,6|0,0:2|0:2,0:2:0:0:
347,39,124024,2,0,P|279:13|215:51,1,144,2|0,0:2|0:2,0:2:0:0:
285,100,124559,1,0,0:2:0:0:
367,125,124738,1,0,0:2:0:0:
202,126,124917,6,0,L|203:274,1,144,2|0,0:2|0:2,0:2:0:0:
127,312,125452,1,0,0:2:0:0:
123,81,125631,2,0,L|124:225,1,144,2|0,0:2|0:2,0:2:0:0:
51,271,126167,1,0,0:2:0:0:
202,269,126345,1,0,0:2:0:0:
331,348,126524,1,6,0:2:0:0:
