osu file format v14

[General]
AudioFilename: Lifetheory - Evening Blues...mp3
AudioLeadIn: 0
PreviewTime: 5491
Countdown: 1
SampleSet: Drum
StackLeniency: 0.7
Mode: 0
LetterboxInBreaks: 1
WidescreenStoryboard: 1

[Editor]
Bookmarks: 5491,21948,27434,32920,49377,54863,76806,79548,93263,98748
DistanceSpacing: 0.8
BeatDivisor: 3
GridSize: 8
TimelineZoom: 1

[Metadata]
Title:Evening Blues
TitleUnicode:Evening Blues
Artist:Lifetheory
ArtistUnicode:Lifetheory
Creator:Zare
Version:Normal
Source:
Tags:Zarerion
BeatmapID:1257139
BeatmapSetID:594194

[Difficulty]
HPDrainRate:4
CircleSize:3
OverallDifficulty:5
ApproachRate:6
SliderMultiplier:1.2
SliderTickRate:1

[Events]
//Background and Video events
0,0,"barBG.png",0,0
//Break Periods
2,27634,31870
2,77006,78498
//Storyboard Layer 0 (Background)
//Storyboard Layer 1 (Fail)
//Storyboard Layer 2 (Pass)
//Storyboard Layer 3 (Foreground)
//Storyboard Layer 4 (Overlay)
//Storyboard Sound Samples

[TimingPoints]
6,685.714285714286,4,3,0,30,1,0
5491,-100,4,3,0,50,0,1
27434,-100,4,3,0,50,0,0
54863,-100,4,3,0,50,0,1
76806,-100,4,3,0,50,0,0
79548,-100,4,3,0,50,0,1
99434,-100,4,3,0,50,0,0

[Colours]
Combo1 : 255,64,112
Combo2 : 250,135,233
Combo3 : 12,182,165

[HitObjects]
453,101,6,6,0,L|439:210,1,80,6|0,0:0|0:0,0:0:0:0:
427,208,691,2,0,P|436:246|436:286,1,80,2|0,0:0|0:0,0:0:0:0:
437,318,1377,2,0,P|397:323|357:322,1,80,2|0,0:0|0:0,0:0:0:0:
326,327,2063,2,0,L|286:331,2,40,2|2|2,0:0|0:0|0:0,0:0:0:0:
254,322,2748,6,0,P|215:326|175:325,1,80,6|0,0:0|0:0,0:0:0:0:
145,314,3434,1,6,0:0:0:0:
93,242,3891,1,0,0:0:0:0:
102,211,4120,2,0,L|100:132,1,80,2|0,0:0|0:0,0:0:0:0:
90,99,4806,2,0,P|94:60|112:24,1,80,2|0,0:0|0:0,0:0:0:0:
143,16,5491,6,0,L|251:33,1,80,6|0,0:0|0:0,0:0:0:0:
239,55,6177,2,0,P|288:49|331:69,1,80,10|0,0:0|0:0,0:0:0:0:
331,87,6863,1,6,0:0:0:0:
341,174,7320,1,0,0:0:0:0:
328,203,7548,2,0,L|333:242,2,40,10|2|2,0:0|0:0|0:0,0:0:0:0:
355,265,8234,6,0,L|342:357,1,80,6|0,0:0|0:0,0:0:0:0:
316,360,8920,2,0,L|212:362,1,80,10|0,0:0|0:0,0:0:0:0:
213,337,9606,2,0,P|220:298|217:259,1,80,6|0,0:0|0:0,0:0:0:0:
199,232,10291,1,10,0:0:0:0:
213,145,10748,1,0,0:0:0:0:
205,113,10977,6,0,L|294:123,1,80,2|0,0:0|0:0,0:0:0:0:
311,104,11663,2,0,P|349:112|389:107,1,80,10|0,0:0|0:0,0:0:0:0:
413,85,12348,1,6,0:0:0:0:
492,122,12806,1,0,0:0:0:0:
489,153,13034,1,10,0:0:0:0:
486,184,13263,1,0,0:0:0:0:
483,215,13491,1,2,0:0:0:0:
480,246,13720,6,0,L|366:265,1,80,6|0,0:0|0:0,0:0:0:0:
382,285,14406,2,0,P|347:303|307:304,1,80,10|0,0:0|0:0,0:0:0:0:
279,288,15091,1,6,0:0:0:0:
191,277,15548,1,0,0:0:0:0:
162,291,15777,2,0,L|84:307,1,80,10|0,0:0|0:0,0:0:0:0:
54,321,16463,6,0,P|51:282|53:242,1,80,6|0,0:0|0:0,0:0:0:0:
49,210,17148,1,10,0:0:0:0:
102,140,17606,1,0,0:0:0:0:
100,108,17834,1,2,0:0:0:0:
186,91,18291,1,4,0:0:0:0:
188,123,18520,2,0,L|194:180,1,40,10|2,0:0|0:0,0:0:0:0:
180,192,18977,1,2,0:0:0:0:
168,222,19206,6,0,L|256:225,1,80,2|4,0:0|0:0,0:0:0:0:
264,251,19891,2,0,P|303:249|340:263,1,80,10|0,0:0|0:0,0:0:0:0:
372,271,20577,1,6,0:0:0:0:
459,261,21034,1,4,0:0:0:0:
465,229,21263,2,0,L|461:144,1,80,10|0,0:0|0:0,0:0:0:0:
443,122,21948,5,6,0:0:0:0:
414,106,22177,1,0,0:0:0:0:
386,90,22406,1,0,0:0:0:0:
357,75,22634,2,0,L|317:69,2,40,8|0|0,0:0|0:0|0:0,0:0:0:0:
285,76,23320,2,0,L|245:70,2,40,4|0|0,0:0|0:0|0:0,0:0:0:0:
215,82,24006,1,8,0:0:0:0:
136,41,24463,1,0,0:0:0:0:
124,70,24691,6,0,L|124:161,1,80,6|0,0:0|0:0,0:0:0:0:
134,180,25377,2,0,L|124:238,1,40,10|0,0:0|0:0,0:0:0:0:
139,248,25834,2,0,P|141:287|135:327,1,80,2|0,0:0|0:0,0:0:0:0:
158,349,26520,2,0,L|154:371,2,20,0|0|10,0:0|0:0|0:0,0:0:0:0:
243,327,27206,1,6,0:0:0:0:
272,339,27434,5,6,0:0:0:0:
371,311,32920,6,0,L|379:220,1,80,6|0,0:0|0:0,0:0:0:0:
397,205,33606,1,10,0:0:0:0:
371,185,33834,1,0,0:0:0:0:
361,154,34063,1,0,0:0:0:0:
365,122,34291,2,0,L|372:33,1,80,6|0,0:0|0:0,0:0:0:0:
348,19,34977,1,10,0:0:0:0:
261,33,35434,1,0,0:0:0:0:
234,51,35663,6,0,P|194:48|153:52,1,80,6|0,0:0|0:0,0:0:0:0:
134,76,36348,2,0,L|75:73,2,40,10|0|0,0:0|0:0|0:0,0:0:0:0:
150,103,37034,2,0,L|143:218,1,80,6|0,0:0|0:0,0:0:0:0:
125,207,37720,1,10,0:0:0:0:
117,238,37948,1,0,0:0:0:0:
118,270,38177,1,0,0:0:0:0:
127,300,38406,6,0,L|214:314,1,80,6|0,0:0|0:0,0:0:0:0:
234,296,39091,2,0,P|253:297|272:304,1,40,10|0,0:0|0:0,0:0:0:0:
297,324,39548,1,0,0:0:0:0:
319,347,39777,2,0,P|358:353|398:349,1,80,6|0,0:0|0:0,0:0:0:0:
428,338,40463,2,0,L|441:225,1,80,10|0,0:0|0:0,0:0:0:0:
457,234,41148,5,6,0:0:0:0:
432,149,41606,1,0,0:0:0:0:
439,117,41834,2,0,L|436:77,2,40,10|0|0,0:0|0:0|0:0,0:0:0:0:
425,47,42520,2,0,P|385:40|346:46,1,80,6|0,0:0|0:0,0:0:0:0:
317,59,43206,2,0,L|259:56,1,40,10|0,0:0|0:0,0:0:0:0:
211,116,43891,6,0,L|219:211,1,80,6|0,0:0|0:0,0:0:0:0:
242,215,44577,1,10,0:0:0:0:
268,233,44806,1,0,0:0:0:0:
293,252,45034,1,0,0:0:0:0:
318,271,45263,2,0,L|307:355,1,80,6|0,0:0|0:0,0:0:0:0:
275,354,45948,1,10,0:0:0:0:
187,343,46406,1,0,0:0:0:0:
159,325,46634,6,0,P|120:333|81:328,1,80,6|0,0:0|0:0,0:0:0:0:
67,299,47320,2,0,L|73:259,2,40,10|0|0,0:0|0:0|0:0,0:0:0:0:
90,232,48006,2,0,L|84:147,1,80,6|0,0:0|0:0,0:0:0:0:
72,122,48691,1,10,0:0:0:0:
97,102,48920,1,0,0:0:0:0:
121,82,49148,1,0,0:0:0:0:
146,62,49377,6,0,P|184:73|223:66,1,80,6|0,0:0|0:0,0:0:0:0:
252,54,50063,2,0,L|333:64,1,80,10|0,0:0|0:0,0:0:0:0:
345,92,50748,2,0,P|390:88|444:101,1,80,6|0,0:0|0:0,0:0:0:0:
449,113,51434,2,0,L|453:165,1,40,10|0,0:0|0:0,0:0:0:0:
396,221,52120,6,0,L|399:260,2,40,6|0|0,0:0|0:0|0:0,0:0:0:0:
431,266,52806,2,0,L|434:305,2,40,8|0|0,0:0|0:0|0:0,0:0:0:0:
452,318,53491,1,6,0:0:0:0:
341,336,53948,1,0,0:0:0:0:
315,316,54177,1,10,0:0:0:0:
284,326,54406,1,0,0:0:0:0:
253,336,54634,1,0,0:0:0:0:
225,318,54863,6,0,P|177:324|139:313,1,80,6|0,0:0|0:0,0:0:0:0:
122,295,55548,2,0,L|135:215,1,80,10|0,0:0|0:0,0:0:0:0:
115,190,56234,1,6,0:0:0:0:
84,107,56691,1,0,0:0:0:0:
114,94,56920,2,0,P|110:55|119:16,1,80,10|0,0:0|0:0,0:0:0:0:
152,15,57606,6,0,L|232:19,1,80,6|0,0:0|0:0,0:0:0:0:
258,35,58291,2,0,P|297:30|336:37,1,80,10|0,0:0|0:0,0:0:0:0:
361,58,58977,2,0,L|357:102,1,40,6|0,0:0|0:0,0:0:0:0:
325,179,59663,2,0,L|333:277,1,80,10|0,0:0|0:0,0:0:0:0:
363,270,60348,6,0,P|367:309|362:349,1,80,6|0,0:0|0:0,0:0:0:0:
334,365,61034,2,0,L|416:371,1,80,10|0,0:0|0:0,0:0:0:0:
445,369,61720,2,0,L|443:319,1,40,6|8,0:0|0:0,0:0:0:0:
396,254,62406,2,0,L|412:176,1,80,10|0,0:0|0:0,0:0:0:0:
437,156,63091,6,0,P|433:111|424:69,1,80,6|0,0:0|0:0,0:0:0:0:
400,55,63777,2,0,P|361:57|321:63,1,80,10|0,0:0|0:0,0:0:0:0:
289,61,64463,1,6,0:0:0:0:
202,47,64920,1,0,0:0:0:0:
169,53,65148,2,0,P|130:56|90:51,1,80,10|0,0:0|0:0,0:0:0:0:
59,38,65834,6,0,P|62:77|55:116,1,80,6|0,0:0|0:0,0:0:0:0:
37,143,66520,2,0,L|41:241,1,80,10|0,0:0|0:0,0:0:0:0:
34,254,67206,1,6,0:0:0:0:
67,335,67663,1,4,0:0:0:0:
93,317,67891,2,0,L|172:333,1,80,10|0,0:0|0:0,0:0:0:0:
201,321,68577,5,6,0:0:0:0:
288,326,69034,1,0,0:0:0:0:
318,315,69263,1,10,0:0:0:0:
405,319,69720,1,0,0:0:0:0:
435,308,69948,2,0,L|427:213,1,80,6|0,0:0|0:0,0:0:0:0:
413,213,70634,2,0,P|418:174|415:134,1,80,10|0,0:0|0:0,0:0:0:0:
424,103,71320,6,0,L|411:57,1,40,6|0,0:0|0:0,0:0:0:0:
343,11,72006,2,0,L|259:23,1,80,10|0,0:0|0:0,0:0:0:0:
254,52,72691,1,6,0:0:0:0:
222,50,72920,1,8,0:0:0:0:
190,48,73148,1,4,0:0:0:0:
157,47,73377,2,0,P|159:86|157:126,1,80,10|0,0:0|0:0,0:0:0:0:
172,154,74063,6,0,L|164:233,1,80,6|0,0:0|0:0,0:0:0:0:
153,263,74748,2,0,P|168:328|285:308,1,200,10|0,0:0|0:0,0:0:0:0:
292,288,76120,2,0,L|358:286,1,40,10|4,0:0|0:0,0:0:0:0:
361,274,76577,1,8,0:0:0:0:
390,261,76806,1,6,0:0:0:0:
108,295,79548,6,0,L|112:215,1,80,6|0,0:0|0:0,0:0:0:0:
86,199,80234,2,0,L|90:119,1,80,10|0,0:0|0:0,0:0:0:0:
116,100,80920,1,6,0:0:0:0:
190,52,81377,1,0,0:0:0:0:
220,63,81606,2,0,P|226:109|221:146,1,80,10|0,0:0|0:0,0:0:0:0:
211,172,82291,6,0,L|216:278,1,80,6|0,0:0|0:0,0:0:0:0:
232,277,82977,2,0,P|193:280|155:293,1,80,10|0,0:0|0:0,0:0:0:0:
123,294,83663,2,0,L|78:224,1,80,6|0,0:0|0:0,0:0:0:0:
57,203,84348,1,10,0:0:0:0:
130,153,84806,1,0,0:0:0:0:
161,162,85034,6,0,P|207:169|245:164,1,80,6|0,0:0|0:0,0:0:0:0:
267,148,85720,2,0,L|274:55,1,80,10|0,0:0|0:0,0:0:0:0:
301,54,86406,1,6,0:0:0:0:
386,32,86863,1,0,0:0:0:0:
412,50,87091,2,0,L|418:147,1,80,10|0,0:0|0:0,0:0:0:0:
392,152,87777,6,0,P|389:191|394:231,1,80,6|0,0:0|0:0,0:0:0:0:
377,258,88463,2,0,L|381:348,1,80,10|0,0:0|0:0,0:0:0:0:
406,356,89148,2,0,P|367:364|327:358,1,80,2|0,0:0|0:0,0:0:0:0:
316,328,89834,1,10,0:0:0:0:
231,303,90291,1,0,0:0:0:0:
219,333,90520,6,0,P|180:332|140:340,1,80,6|0,0:0|0:0,0:0:0:0:
112,324,91206,2,0,P|73:326|34:317,1,80,10|0,0:0|0:0,0:0:0:0:
36,285,91891,2,0,L|34:231,1,40,6|0,0:0|0:0,0:0:0:0:
33,213,92348,1,0,0:0:0:0:
33,180,92577,2,0,L|29:100,1,80,10|0,0:0|0:0,0:0:0:0:
53,78,93263,6,0,L|102:80,2,40,6|0|0,0:0|0:0|0:0,0:0:0:0:
101,41,93948,2,0,L|140:44,2,40,10|0|0,0:0|0:0|0:0,0:0:0:0:
161,25,94634,1,6,0:0:0:0:
199,104,95091,1,0,0:0:0:0:
229,114,95320,1,10,0:0:0:0:
260,117,95548,1,0,0:0:0:0:
292,119,95777,1,0,0:0:0:0:
302,149,96006,6,0,L|406:142,1,80,6|0,0:0|0:0,0:0:0:0:
413,142,96691,2,0,L|455:146,1,40,10|0,0:0|0:0,0:0:0:0:
478,127,97148,2,0,P|472:166|474:206,1,80,4|6,0:0|0:0,0:0:0:0:
466,237,97834,2,0,L|468:270,2,20,2|0|8,0:0|0:0|0:0,0:0:0:0:
394,288,98520,1,2,0:0:0:0:
368,268,98748,5,4,0:0:0:0:
336,272,98977,1,0,0:0:0:0:
304,276,99206,1,2,0:0:0:0:
272,280,99434,1,8,0:0:0:0:
