osu file format v14

[General]
AudioFilename: Lifetheory - Evening Blues...mp3
AudioLeadIn: 0
PreviewTime: 5491
Countdown: 1
SampleSet: Drum
StackLeniency: 0.7
Mode: 0
LetterboxInBreaks: 1
WidescreenStoryboard: 1

[Editor]
Bookmarks: 5491,21948,27434,32920,49377,54863,76806,79548,93263,98748
DistanceSpacing: 1
BeatDivisor: 1
GridSize: 8
TimelineZoom: 1

[Metadata]
Title:Evening Blues
TitleUnicode:Evening Blues
Artist:Lifetheory
ArtistUnicode:Lifetheory
Creator:Zare
Version:Easy
Source:
Tags:Zarerion
BeatmapID:1257071
BeatmapSetID:594194

[Difficulty]
HPDrainRate:3
CircleSize:2.5
OverallDifficulty:3
ApproachRate:4
SliderMultiplier:0.9
SliderTickRate:1

[Events]
//Background and Video events
0,0,"barBG.png",0,0
//Break Periods
2,27634,31600
2,77006,78228
//Storyboard Layer 0 (Background)
//Storyboard Layer 1 (Fail)
//Storyboard Layer 2 (Pass)
//Storyboard Layer 3 (Foreground)
//Storyboard Layer 4 (Overlay)
//Storyboard Sound Samples

[TimingPoints]
6,685.714285714286,4,3,0,30,1,0
5491,-100,4,3,0,50,0,1
27434,-100,4,3,0,50,0,0
54863,-100,4,3,0,50,0,1
76806,-100,4,3,0,50,0,0
79548,-100,4,3,0,50,0,1
99434,-100,4,3,0,50,0,0

[Colours]
Combo1 : 255,64,112
Combo2 : 250,135,233
Combo3 : 12,182,165

[HitObjects]
92,104,6,6,0,P|221:126|324:46,1,270,6|2,0:0|0:0,0:0:0:0:
401,92,2748,2,0,L|486:65,2,90,6|6|2,0:0|0:0|0:0,0:0:0:0:
373,177,4806,1,2,0:0:0:0:
456,209,5491,6,0,P|385:267|289:145,1,270,6|10,0:0|0:0,0:0:0:0:
194,158,8234,2,0,L|201:44,2,90,6|10|6,0:0|0:0|0:0,0:0:0:0:
122,212,10291,1,10,0:0:0:0:
150,297,10977,6,0,L|245:304,1,90,2|10,0:0|0:0,0:0:0:0:
328,285,12348,1,6,0:0:0:0:
390,219,13034,2,0,P|391:175|380:131,2,90,10|6|10,0:0|0:0|0:0,0:0:0:0:
302,239,15091,2,0,L|160:251,1,90,6|10,0:0|0:0,0:0:0:0:
126,219,16463,6,0,P|57:141|170:20,1,270,6|10,0:0|0:0,0:0:0:0:
203,82,19206,2,0,L|302:70,1,90,2|10,0:0|0:0,0:0:0:0:
370,26,20577,1,6,0:0:0:0:
383,114,21263,1,10,0:0:0:0:
448,175,21948,6,0,L|475:297,1,90,6|8,0:0|0:0,0:0:0:0:
420,339,23320,2,0,P|376:329|332:339,1,90,4|8,0:0|0:0,0:0:0:0:
244,321,24691,1,6,0:0:0:0:
274,236,25377,2,0,L|262:144,2,90,10|2|0,0:0|0:0|0:0,0:0:0:0:
362,253,27434,5,6,0:0:0:0:
209,114,32920,6,0,L|306:119,1,90,6|10,0:0|0:0,0:0:0:0:
287,207,34291,2,0,P|298:250|290:293,1,90,6|10,0:0|0:0,0:0:0:0:
202,314,35663,1,6,0:0:0:0:
112,325,36348,1,10,0:0:0:0:
149,242,37034,2,0,L|148:149,1,90,6|10,0:0|0:0,0:0:0:0:
80,90,38406,6,0,P|162:60|231:111,1,180,6|6,0:0|0:0,0:0:0:0:
298,171,40463,1,10,0:0:0:0:
375,126,41148,2,0,P|427:130|472:124,2,90,6|10|6,0:0|0:0|0:0,0:0:0:0:
310,62,43206,1,10,0:0:0:0:
225,92,43891,6,0,P|128:84|60:132,1,180,6|6,0:0|0:0,0:0:0:0:
123,195,45948,1,10,0:0:0:0:
70,268,46634,2,0,L|59:365,1,90,6|10,0:0|0:0,0:0:0:0:
149,367,48006,1,6,0:0:0:0:
237,351,48691,1,10,0:0:0:0:
325,335,49377,6,0,L|420:348,2,90,6|10|6,0:0|0:0|0:0,0:0:0:0:
273,261,51434,1,10,0:0:0:0:
330,191,52120,2,0,P|373:181|418:177,1,90,6|8,0:0|0:0,0:0:0:0:
439,89,53491,1,6,0:0:0:0:
366,35,54177,1,10,0:0:0:0:
280,61,54863,6,0,L|263:166,1,90,6|10,0:0|0:0,0:0:0:0:
187,194,56234,2,0,P|198:237|201:282,1,90,6|10,0:0|0:0,0:0:0:0:
124,329,57606,1,6,0:0:0:0:
61,264,58291,1,10,0:0:0:0:
105,185,58977,2,0,L|98:86,1,90,6|10,0:0|0:0,0:0:0:0:
182,62,60348,6,0,P|228:52|276:65,1,90,6|10,0:0|0:0,0:0:0:0:
225,140,61720,2,0,P|268:149|312:139,1,90,6|6,0:0|0:0,0:0:0:0:
358,62,63091,1,6,0:0:0:0:
448,52,63777,1,10,0:0:0:0:
411,134,64463,2,0,L|415:232,1,90,6|10,0:0|0:0,0:0:0:0:
357,293,65834,6,0,P|266:255|162:307,1,180,6|6,0:0|0:0,0:0:0:0:
151,358,67891,1,10,0:0:0:0:
64,331,68577,2,0,P|61:286|76:244,1,90,6|10,0:0|0:0,0:0:0:0:
159,210,69948,2,0,L|154:96,1,90,6|10,0:0|0:0,0:0:0:0:
217,54,71320,6,0,P|306:31|395:92,2,180,6|6|6,0:0|0:0|0:0,0:0:0:0:
227,143,74748,2,0,L|219:234,1,90,10|6,0:0|0:0,0:0:0:0:
149,290,76120,1,10,0:0:0:0:
235,315,76806,5,6,0:0:0:0:
405,340,79548,6,0,P|396:297|407:254,1,90,6|10,0:0|0:0,0:0:0:0:
456,177,80920,2,0,L|430:90,1,90,6|10,0:0|0:0,0:0:0:0:
349,50,82291,1,6,0:0:0:0:
259,62,82977,1,10,0:0:0:0:
169,49,83663,2,0,P|126:65|63:60,1,90,6|10,0:0|0:0,0:0:0:0:
40,143,85034,6,0,P|50:232|16:314,1,180,6|6,0:0|0:0,0:0:0:0:
89,367,87091,1,10,0:0:0:0:
169,327,87777,2,0,L|261:340,1,90,6|10,0:0|0:0,0:0:0:0:
324,278,89148,2,0,P|368:283|412:275,1,90,2|10,0:0|0:0,0:0:0:0:
375,193,90520,6,0,L|389:102,1,90,6|10,0:0|0:0,0:0:0:0:
454,44,91891,2,0,P|418:19|374:18,1,90,6|10,0:0|0:0,0:0:0:0:
304,75,93263,1,6,0:0:0:0:
218,45,93948,1,10,0:0:0:0:
190,130,94634,1,6,0:0:0:0:
275,159,95320,1,10,0:0:0:0:
230,237,96006,6,0,L|239:335,2,90,6|10|0,0:0|0:0|0:0,0:0:0:0:
146,202,98063,1,8,0:0:0:0:
65,162,98748,2,0,L|83:65,1,90,4|8,0:0|0:0,0:0:0:0:
