osu file format v14

[General]
AudioFilename: audio.mp3
AudioLeadIn: 0
PreviewTime: 2293
Countdown: 0
SampleSet: Soft
StackLeniency: 0.7
Mode: 3
LetterboxInBreaks: 0
SpecialStyle: 0
WidescreenStoryboard: 0

[Editor]
DistanceSpacing: 0.8
BeatDivisor: 4
GridSize: 8
TimelineZoom: 1.4

[Metadata]
Title:Daisy
TitleUnicode:Daisy
Artist:Lifetheory
ArtistUnicode:Lifetheory
Creator:infilect
Version:Normal
Source:
Tags:piano flower dnb drum and bass
BeatmapID:1473481
BeatmapSetID:695418

[Difficulty]
HPDrainRate:7
CircleSize:4
OverallDifficulty:7
ApproachRate:5
SliderMultiplier:1.4
SliderTickRate:1

[Events]
//Background and Video events
0,0,"daisy.jpg",0,0
//Break Periods
//Storyboard Layer 0 (Background)
//Storyboard Layer 1 (Fail)
//Storyboard Layer 2 (Pass)
//Storyboard Layer 3 (Foreground)
//Storyboard Sound Samples
Sample,2459,0,"C4.wav",70
Sample,3459,0,"D4.wav",70
Sample,5126,0,"F4.wav",70
Sample,7793,0,"C4.wav",70
Sample,8793,0,"D4.wav",70
Sample,9793,0,"G4.wav",70
Sample,10459,0,"F4#.wav",70
Sample,11126,0,"D4.wav",70
Sample,11459,0,"A5.wav",70
Sample,11793,0,"A5.wav",70
Sample,12126,0,"C4.wav",70
Sample,12459,0,"D4.wav",70
Sample,12793,0,"A4.wav",70
Sample,13126,0,"C4.wav",70
Sample,14126,0,"D4.wav",70
Sample,15793,0,"F4.wav",70
Sample,18459,0,"C4.wav",70
Sample,19459,0,"D4.wav",70
Sample,20459,0,"G4.wav",70
Sample,21126,0,"F4#.wav",70
Sample,21793,0,"D4.wav",70
Sample,22126,0,"A5.wav",70
Sample,22459,0,"A5.wav",70
Sample,22793,0,"C4.wav",70
Sample,23126,0,"D4.wav",70
Sample,23459,0,"A4.wav",70
Sample,23793,0,"C4.wav",70
Sample,24793,0,"D4.wav",70
Sample,26459,0,"F4.wav",70
Sample,29126,0,"C4.wav",70
Sample,30126,0,"D4.wav",70
Sample,31126,0,"G4.wav",70
Sample,31793,0,"A5.wav",70
Sample,32459,0,"D4.wav",70
Sample,32793,0,"D5.wav",60
Sample,33126,0,"F4#.wav",70
Sample,33793,0,"A5.wav",70
Sample,34459,0,"A5#.wav",70
Sample,35459,0,"A5.wav",70
Sample,36459,0,"F4.wav",70
Sample,37126,0,"D4.wav",70
Sample,39793,0,"F4.wav",70
Sample,40793,0,"D4.wav",70
Sample,41793,0,"G4.wav",70
Sample,42459,0,"A5.wav",70
Sample,43126,0,"D4.wav",70
Sample,43459,0,"A5.wav",70
Sample,43793,0,"F4#.wav",70
Sample,44459,0,"A5.wav",70
Sample,45126,0,"G4.wav",70

[TimingPoints]
2460,333.333333333333,4,2,1,40,1,0

[HitObjects]
64,192,2459,5,0,0:0:0:70:Drum.wav
192,192,2459,1,0,0:0:0:35:Cymbals.wav
320,192,2626,1,0,0:0:0:0:
64,192,2793,1,0,0:0:0:0:
448,192,2793,1,0,0:0:0:70:Clap.wav
192,192,2959,1,0,0:0:0:0:
320,192,3126,1,0,0:0:0:0:
192,192,3293,1,0,0:0:0:70:Drum.wav
64,192,3459,1,0,0:0:0:70:Clap.wav
448,192,3459,1,0,0:0:0:0:
320,192,3793,1,0,0:0:0:70:Drum.wav
192,192,3959,1,0,0:0:0:0:
64,192,4126,1,0,0:0:0:0:
448,192,4126,1,0,0:0:0:70:Clap.wav
320,192,4293,1,0,0:0:0:0:
192,192,4459,1,0,0:0:0:0:
320,192,4626,1,0,0:0:0:70:Drum.wav
64,192,4793,1,0,0:0:0:70:Clap.wav
448,192,4793,1,0,0:0:0:0:
192,192,5126,1,0,0:0:0:70:Drum.wav
320,192,5126,1,0,0:0:0:35:Cymbals.wav
448,192,5293,1,0,0:0:0:0:
64,192,5459,1,0,0:0:0:0:
192,192,5459,1,0,0:0:0:70:Clap.wav
320,192,5626,1,0,0:0:0:0:
448,192,5793,1,0,0:0:0:0:
320,192,5959,1,0,0:0:0:70:Drum.wav
192,192,6126,1,0,0:0:0:0:
64,192,6126,1,0,0:0:0:70:Clap.wav
448,192,6459,1,0,0:0:0:70:Drum.wav
320,192,6626,1,0,0:0:0:0:
192,192,6793,1,0,0:0:0:70:Clap.wav
64,192,6793,1,0,0:0:0:0:
448,192,6959,1,0,0:0:0:0:
320,192,7126,1,0,0:0:0:0:
192,192,7293,1,0,0:0:0:70:Drum.wav
64,192,7459,1,0,0:0:0:70:Clap.wav
448,192,7459,1,0,0:0:0:0:
192,192,7793,1,0,0:0:0:70:Drum.wav
320,192,7793,1,0,0:0:0:35:Cymbals.wav
64,192,7959,1,0,0:0:0:0:
448,192,8126,1,0,0:0:0:0:
320,192,8126,1,0,0:0:0:70:Clap.wav
192,192,8293,1,0,0:0:0:0:
64,192,8459,1,0,0:0:0:0:
192,192,8626,1,0,0:0:0:70:Drum.wav
448,192,8793,1,0,0:0:0:70:Clap.wav
320,192,8793,1,0,0:0:0:0:
64,192,9126,1,0,0:0:0:70:Drum.wav
192,192,9293,1,0,0:0:0:0:
448,192,9459,1,0,0:0:0:0:
320,192,9459,1,0,0:0:0:70:Clap.wav
64,192,9626,1,0,0:0:0:0:
192,192,9793,1,0,0:0:0:0:
320,192,9959,1,0,0:0:0:70:Drum.wav
448,192,10126,1,0,0:0:0:70:Clap.wav
64,192,10126,1,0,0:0:0:0:
192,192,10459,1,0,0:0:0:70:Drum.wav
320,192,10459,1,0,0:0:0:35:Cymbals.wav
448,192,10626,1,0,0:0:0:0:
64,192,10793,1,0,0:0:0:0:
192,192,10793,1,0,0:0:0:70:Clap.wav
320,192,10959,1,0,0:0:0:0:
448,192,11126,1,0,0:0:0:0:
320,192,11293,1,0,0:0:0:70:Drum.wav
192,192,11459,1,0,0:0:0:70:Clap.wav
64,192,11459,1,0,0:0:0:0:
320,192,11626,1,0,0:0:0:70:Drum.wav
64,192,11793,1,0,0:0:0:70:Clap.wav
448,192,11793,1,0,0:0:0:0:
192,192,11959,1,0,0:0:0:70:Drum.wav
320,192,12126,1,0,0:0:0:70:Drum.wav
448,192,12293,1,0,0:0:0:70:Clap.wav
64,192,12293,1,0,0:0:0:0:
320,192,12459,1,0,0:0:0:70:Drum.wav
192,192,12626,1,0,0:0:0:70:Drum.wav
64,192,12793,1,0,0:0:0:70:Clap.wav
448,192,12793,1,0,0:0:0:0:
192,192,12959,1,0,0:0:0:70:Drum.wav
448,192,13126,1,0,0:0:0:35:Cymbals.wav
320,192,13126,1,0,0:0:0:70:Drum.wav
64,192,13293,1,0,0:0:0:0:
320,192,13459,1,0,0:0:0:70:Clap.wav
192,192,13459,1,0,0:0:0:0:
448,192,13626,1,0,0:0:0:0:
320,192,13793,1,0,0:0:0:0:
192,192,13959,1,0,0:0:0:70:Drum.wav
448,192,14126,1,0,0:0:0:70:Clap.wav
64,192,14126,1,0,0:0:0:0:
192,192,14459,1,0,0:0:0:70:Drum.wav
320,192,14626,1,0,0:0:0:0:
64,192,14793,1,0,0:0:0:0:
448,192,14793,1,0,0:0:0:70:Clap.wav
192,192,14959,1,0,0:0:0:0:
320,192,15126,1,0,0:0:0:0:
448,192,15293,1,0,0:0:0:70:Drum.wav
64,192,15459,1,0,0:0:0:0:
192,192,15459,1,0,0:0:0:70:Clap.wav
320,192,15793,1,0,0:0:0:70:Drum.wav
448,192,15793,1,0,0:0:0:35:Cymbals.wav
192,192,15959,1,0,0:0:0:0:
64,192,16126,1,0,0:0:0:70:Clap.wav
448,192,16126,1,0,0:0:0:0:
320,192,16293,1,0,0:0:0:0:
192,192,16459,1,0,0:0:0:0:
64,192,16626,1,0,0:0:0:70:Drum.wav
448,192,16793,1,0,0:0:0:0:
320,192,16793,1,0,0:0:0:70:Clap.wav
64,192,17126,1,0,0:0:0:70:Drum.wav
192,192,17293,1,0,0:0:0:0:
448,192,17459,1,0,0:0:0:0:
320,192,17459,1,0,0:0:0:70:Clap.wav
64,192,17626,1,0,0:0:0:0:
192,192,17793,1,0,0:0:0:0:
320,192,17959,1,0,0:0:0:70:Drum.wav
64,192,18126,1,0,0:0:0:0:
448,192,18126,1,0,0:0:0:70:Clap.wav
320,192,18459,1,0,0:0:0:70:Drum.wav
192,192,18459,1,0,0:0:0:35:Cymbals.wav
64,192,18626,1,0,0:0:0:0:
448,192,18793,1,0,0:0:0:70:Clap.wav
320,192,18793,1,0,0:0:0:0:
192,192,18959,1,0,0:0:0:0:
64,192,19126,1,0,0:0:0:0:
192,192,19293,1,0,0:0:0:70:Drum.wav
320,192,19459,1,0,0:0:0:70:Clap.wav
448,192,19459,1,0,0:0:0:0:
64,192,19793,1,0,0:0:0:70:Drum.wav
192,192,19959,1,0,0:0:0:0:
320,192,20126,1,0,0:0:0:0:
448,192,20126,1,0,0:0:0:70:Clap.wav
64,192,20293,1,0,0:0:0:0:
192,192,20459,1,0,0:0:0:0:
320,192,20626,1,0,0:0:0:70:Drum.wav
448,192,20793,1,0,0:0:0:70:Clap.wav
64,192,20793,1,0,0:0:0:0:
320,192,21126,1,0,0:0:0:35:Cymbals.wav
192,192,21126,1,0,0:0:0:70:Drum.wav
448,192,21293,1,0,0:0:0:0:
192,192,21459,1,0,0:0:0:0:
64,192,21459,1,0,0:0:0:70:Clap.wav
320,192,21626,1,0,0:0:0:0:
448,192,21793,1,0,0:0:0:0:
320,192,21959,1,0,0:0:0:70:Drum.wav
192,192,22126,1,0,0:0:0:70:Clap.wav
64,192,22126,1,0,0:0:0:0:
320,192,22293,1,0,0:0:0:70:Drum.wav
64,192,22459,1,0,0:0:0:70:Clap.wav
448,192,22459,1,0,0:0:0:0:
192,192,22626,1,0,0:0:0:70:Clap.wav
448,192,22793,1,0,0:0:0:70:Clap.wav
320,192,22793,1,0,0:0:0:0:
192,192,22959,1,0,0:0:0:70:Clap.wav
64,192,23126,1,0,0:0:0:70:Clap.wav
448,192,23126,1,0,0:0:0:0:
320,192,23293,1,0,0:0:0:70:Clap.wav
192,192,23459,1,0,0:0:0:70:Clap.wav
64,192,23459,1,0,0:0:0:0:
320,192,23626,1,0,0:0:0:70:Clap.wav
64,192,23793,128,0,26459:0:0:0:70:Drum.wav
448,192,23793,1,0,0:0:0:35:Cymbals.wav
320,192,24126,1,0,0:0:0:0:
192,192,24126,1,0,0:0:0:70:Clap.wav
192,192,24626,1,0,0:0:0:70:Drum.wav
320,192,24793,1,0,0:0:0:70:Clap.wav
448,192,24793,1,0,0:0:0:0:
448,192,25126,1,0,0:0:0:70:Drum.wav
192,192,25459,1,0,0:0:0:70:Clap.wav
320,192,25459,1,0,0:0:0:0:
320,192,25959,1,0,0:0:0:70:Drum.wav
192,192,26126,1,0,0:0:0:0:
448,192,26126,1,0,0:0:0:70:Clap.wav
320,192,26459,128,0,29126:0:0:0:70:Drum.wav
192,192,26459,1,0,0:0:0:35:Cymbals.wav
64,192,26793,1,0,0:0:0:70:Clap.wav
448,192,26793,1,0,0:0:0:0:
448,192,27293,1,0,0:0:0:70:Drum.wav
64,192,27459,1,0,0:0:0:70:Clap.wav
192,192,27459,1,0,0:0:0:0:
192,192,27793,1,0,0:0:0:70:Drum.wav
64,192,28126,1,0,0:0:0:70:Clap.wav
448,192,28126,1,0,0:0:0:0:
192,192,28626,1,0,0:0:0:70:Drum.wav
64,192,28793,1,0,0:0:0:70:Clap.wav
448,192,28793,1,0,0:0:0:0:
192,192,29126,1,0,0:0:0:35:Cymbals.wav
448,192,29126,128,0,31793:0:0:0:70:Drum.wav
320,192,29459,1,0,0:0:0:70:Clap.wav
64,192,29459,1,0,0:0:0:0:
320,192,29959,1,0,0:0:0:70:Drum.wav
192,192,30126,1,0,0:0:0:70:Clap.wav
64,192,30126,1,0,0:0:0:0:
320,192,30459,1,0,0:0:0:70:Drum.wav
192,192,30793,1,0,0:0:0:0:
64,192,30793,1,0,0:0:0:70:Clap.wav
320,192,31126,1,0,0:0:0:0:
64,192,31293,1,0,0:0:0:70:Drum.wav
320,192,31459,1,0,0:0:0:0:
192,192,31459,1,0,0:0:0:70:Clap.wav
64,192,31793,128,0,33126:0:0:0:70:Drum.wav
192,192,31793,1,0,0:0:0:35:Cymbals.wav
448,192,32126,1,0,0:0:0:70:Clap.wav
320,192,32126,1,0,0:0:0:0:
192,192,32459,1,0,0:0:0:0:
320,192,32626,1,0,0:0:0:70:Drum.wav
192,192,32793,1,0,0:0:0:70:Clap.wav
448,192,32793,1,0,0:0:0:0:
320,192,32959,1,0,0:0:0:70:Drum.wav
192,192,33126,1,0,0:0:0:70:Clap.wav
448,192,33126,1,0,0:0:0:0:
320,192,33293,1,0,0:0:0:70:Drum.wav
64,192,33459,1,0,0:0:0:70:Drum.wav
192,192,33626,1,0,0:0:0:70:Clap.wav
448,192,33626,1,0,0:0:0:0:
320,192,33793,1,0,0:0:0:70:Drum.wav
192,192,33959,1,0,0:0:0:70:Drum.wav
448,192,34126,1,0,0:0:0:70:Clap.wav
64,192,34126,1,0,0:0:0:0:
320,192,34293,1,0,0:0:0:70:Drum.wav
64,192,34459,128,0,37126:0:0:0:70:Drum.wav
192,192,34459,1,0,0:0:0:35:Cymbals.wav
320,192,34793,1,0,0:0:0:70:Clap.wav
448,192,34793,1,0,0:0:0:0:
448,192,35293,1,0,0:0:0:70:Drum.wav
192,192,35459,1,0,0:0:0:70:Clap.wav
320,192,35459,1,0,0:0:0:0:
448,192,35793,1,0,0:0:0:70:Drum.wav
192,192,36126,1,0,0:0:0:70:Clap.wav
320,192,36126,1,0,0:0:0:0:
448,192,36459,1,0,0:0:0:0:
320,192,36626,1,0,0:0:0:70:Drum.wav
448,192,36793,1,0,0:0:0:0:
192,192,36793,1,0,0:0:0:70:Clap.wav
448,192,37126,128,0,39793:0:0:0:70:Drum.wav
320,192,37126,1,0,0:0:0:35:Cymbals.wav
64,192,37459,1,0,0:0:0:70:Clap.wav
192,192,37459,1,0,0:0:0:0:
192,192,37959,1,0,0:0:0:70:Drum.wav
320,192,38126,1,0,0:0:0:70:Clap.wav
64,192,38126,1,0,0:0:0:0:
192,192,38459,1,0,0:0:0:70:Drum.wav
64,192,38793,1,0,0:0:0:0:
320,192,38793,1,0,0:0:0:70:Clap.wav
320,192,39293,1,0,0:0:0:70:Drum.wav
192,192,39459,1,0,0:0:0:70:Clap.wav
64,192,39459,1,0,0:0:0:0:
64,192,39793,128,0,42459:0:0:0:70:Drum.wav
320,192,39793,1,0,0:0:0:35:Cymbals.wav
448,192,40126,1,0,0:0:0:70:Clap.wav
192,192,40126,1,0,0:0:0:0:
192,192,40626,1,0,0:0:0:70:Drum.wav
448,192,40793,1,0,0:0:0:70:Clap.wav
320,192,40793,1,0,0:0:0:0:
320,192,41126,1,0,0:0:0:70:Drum.wav
192,192,41459,1,0,0:0:0:0:
448,192,41459,1,0,0:0:0:70:Clap.wav
320,192,41793,1,0,0:0:0:0:
192,192,41959,1,0,0:0:0:70:Drum.wav
320,192,42126,1,0,0:0:0:70:Clap.wav
448,192,42126,1,0,0:0:0:0:
448,192,42459,128,0,43793:0:0:0:70:Drum.wav
192,192,42459,1,0,0:0:0:35:Cymbals.wav
320,192,42793,1,0,0:0:0:70:Clap.wav
64,192,42793,1,0,0:0:0:0:
192,192,43126,1,0,0:0:0:0:
320,192,43293,1,0,0:0:0:70:Drum.wav
64,192,43459,1,0,0:0:0:70:Clap.wav
192,192,43459,1,0,0:0:0:0:
320,192,43626,1,0,0:0:0:70:Drum.wav
192,192,43793,1,0,0:0:0:70:Clap.wav
64,192,43793,1,0,0:0:0:0:
320,192,43959,1,0,0:0:0:70:Clap.wav
448,192,44126,1,0,0:0:0:70:Clap.wav
64,192,44126,1,0,0:0:0:0:
192,192,44293,1,0,0:0:0:70:Clap.wav
448,192,44459,1,0,0:0:0:70:Clap.wav
320,192,44459,1,0,0:0:0:0:
192,192,44626,1,0,0:0:0:70:Clap.wav
448,192,44793,1,0,0:0:0:70:Clap.wav
64,192,44793,1,0,0:0:0:0:
320,192,44959,1,0,0:0:0:70:Clap.wav
192,192,45126,1,0,0:0:0:70:Drum.wav
64,192,45126,1,0,0:0:0:35:Cymbals.wav
