osu file format v14

[General]
AudioFilename: audio.mp3
AudioLeadIn: 0
PreviewTime: 65344
Countdown: 0
SampleSet: None
StackLeniency: 0.5
Mode: 0
LetterboxInBreaks: 0
WidescreenStoryboard: 0

[Editor]
Bookmarks: 11,21344,42677,48010,53344,64010,66677,88010,109344,130677
DistanceSpacing: 1.2
BeatDivisor: 4
GridSize: 16
TimelineZoom: 1.9

[Metadata]
Title:Daisy
TitleUnicode:Daisy
Artist:Lifetheory
ArtistUnicode:Lifetheory
Creator:_Yiiiii
Version:Hard
Source:
Tags:Abhor krt KuranteMelodii flower
BeatmapID:1165154
BeatmapSetID:549738

[Difficulty]
HPDrainRate:5
CircleSize:3.5
OverallDifficulty:6
ApproachRate:7.5
SliderMultiplier:1.4
SliderTickRate:1

[Events]
//Background and Video events
0,0,"BG.jpg",0,0
//Break Periods
2,64210,65852
//Storyboard Layer 0 (Background)
//Storyboard Layer 1 (Fail)
//Storyboard Layer 2 (Pass)
//Storyboard Layer 3 (Foreground)
//Storyboard Sound Samples

[TimingPoints]
11,333.333333333333,4,3,1,50,1,0
21011,-100,4,3,1,10,0,0
21344,-100,4,3,1,20,0,0
25344,-100,4,3,1,25,0,0
26677,-100,4,3,1,35,0,0
42677,-100,4,3,1,45,0,0
53344,-100,4,3,1,55,0,0
66677,-90.9090909090909,4,3,1,90,0,1
87844,-90.9090909090909,4,3,1,90,0,0
88010,-90.9090909090909,4,3,1,90,0,1
109344,-100,4,3,1,90,0,0
109510,-100,4,3,1,30,0,0
114677,-100,4,3,1,40,0,0

[Colours]
Combo1 : 73,73,73
Combo2 : 191,191,0
Combo3 : 159,159,159
Combo4 : 240,176,96

[HitObjects]
221,327,21010,6,0,P|250:320|298:325,1,70,0|0,0:0|0:0,0:0:0:0:
366,301,21344,6,0,P|400:256|403:157,1,140,2|0,0:0|0:0,0:0:0:0:
407,90,21844,1,0,0:0:0:0:
479,44,22010,2,0,P|426:9|408:8,1,70,2|0,0:0|0:0,0:0:0:0:
341,36,22344,2,0,P|289:40|263:32,1,70,2|0,0:0|0:0,0:0:0:0:
190,17,22677,1,2,0:0:0:0:
201,100,22844,1,0,0:0:0:0:
212,182,23010,2,0,P|215:226|204:263,1,70,2|0,0:0|0:0,0:0:0:0:
291,231,23344,1,2,0:0:0:0:
372,250,23510,1,0,0:0:0:0:
429,310,23677,2,0,P|443:357|438:380,1,70,0|0,0:0|0:0,0:0:0:0:
357,355,24010,6,0,P|251:337|198:342,1,140,2|2,0:0|0:0,0:0:0:0:
139,364,24510,1,0,0:0:0:0:
64,325,24677,2,0,P|55:247|58:237,1,70,2|0,0:0|0:0,0:0:0:0:
110,195,25010,2,0,P|119:117|116:107,1,70,2|0,0:0|0:0,0:0:0:0:
122,42,25344,2,0,P|89:16|59:8,2,70,2|0|0,0:0|0:0|0:0,0:0:0:0:
191,89,25844,1,0,0:0:0:0:
274,79,26010,2,0,P|287:25|282:3,2,70,2|0|2,0:0|0:0|0:0,0:0:0:0:
236,154,26510,1,0,0:0:0:0:
319,163,26677,6,0,P|419:158|443:103,1,140,2|0,0:0|0:0,0:0:0:0:
512,98,27177,1,2,0:0:0:0:
503,181,27344,2,0,P|475:237|449:254,1,70,0|0,0:0|0:0,0:0:0:0:
393,274,27677,2,0,P|370:300|360:334,1,70,2|0,0:0|0:0,0:0:0:0:
276,327,28010,2,0,P|196:324|189:321,1,70,2|0,0:0|0:0,0:0:0:0:
128,296,28344,2,0,P|93:291|58:296,1,70,2|0,0:0|0:0,0:0:0:0:
32,216,28677,1,2,0:0:0:0:
52,135,28844,1,0,0:0:0:0:
76,54,29010,2,0,P|152:33|168:39,1,70,2|0,0:0|0:0,0:0:0:0:
195,94,29344,5,2,0:0:0:0:
249,30,29510,2,0,P|339:27|412:47,1,140,2|0,0:0|0:0,0:0:0:0:
450,93,30010,2,0,P|469:144|466:171,1,70,2|0,0:0|0:0,0:0:0:0:
411,221,30344,2,0,P|392:272|395:299,1,70,2|0,0:0|0:0,0:0:0:0:
419,366,30677,1,2,0:0:0:0:
337,346,30844,2,0,P|195:330|189:331,1,140,2|0,0:0|0:0,0:0:0:0:
117,345,31344,2,0,P|71:344|32:328,1,70,2|0,0:0|0:0,0:0:0:0:
12,260,31677,2,0,P|4:222|12:188,1,70,2|0,0:0|0:0,0:0:0:0:
87,225,32010,6,0,P|166:233|222:188,1,140,2|0,0:0|0:0,0:0:0:0:
245,122,32510,1,0,0:0:0:0:
235,38,32677,2,0,P|287:4|308:3,1,70,2|0,0:0|0:0,0:0:0:0:
377,3,33010,2,0,P|455:25|460:31,1,70,2|0,0:0|0:0,0:0:0:0:
432,98,33344,1,2,0:0:0:0:
478,167,33510,1,0,0:0:0:0:
460,249,33677,2,0,P|462:297|457:325,1,70,0|0,0:0|0:0,0:0:0:0:
374,317,34010,1,2,0:0:0:0:
293,293,34177,1,0,0:0:0:0:
226,345,34344,2,0,P|176:351|137:344,1,70,2|0,0:0|0:0,0:0:0:0:
76,322,34677,6,0,P|25:365|9:371,2,70,2|0|0,0:0|0:0|0:0,0:0:0:0:
108,244,35177,1,0,0:0:0:0:
84,163,35344,2,0,P|25:143|13:129,2,70,2|0|2,0:0|0:0|0:0,0:0:0:0:
135,96,35844,1,0,0:0:0:0:
167,172,36010,2,0,P|237:183|300:143,1,140,2|2,0:0|0:0,0:0:0:0:
358,94,36510,1,0,0:0:0:0:
374,176,36677,2,0,P|379:236|369:254,1,70,2|0,0:0|0:0,0:0:0:0:
322,307,37010,2,0,P|317:367|327:385,1,70,2|0,0:0|0:0,0:0:0:0:
237,360,37344,6,0,P|101:348|97:345,1,140,2|0,0:0|0:0,0:0:0:0:
48,286,37844,1,0,0:0:0:0:
84,210,38010,2,0,P|91:131|72:61,1,140,2|0,0:0|0:0,0:0:0:0:
245,73,38677,2,0,P|310:76|390:45,1,140,2|0,0:0|0:0,0:0:0:0:
280,187,39344,2,0,P|354:232|412:232,1,140,2|2,0:0|0:0,0:0:0:0:
493,211,39844,1,0,0:0:0:0:
493,211,39927,1,0,0:0:0:0:
493,211,40010,6,0,P|483:141|499:66,1,140,2|0,0:0|0:0,0:0:0:0:
341,139,40677,2,0,P|298:147|244:143,1,70,2|0,0:0|0:0,0:0:0:0:
187,148,41010,2,0,P|150:159|118:156,1,70,2|0,0:0|0:0,0:0:0:0:
57,214,41344,2,0,P|43:270|51:300,1,70,2|0,0:0|0:0,0:0:0:0:
128,286,41677,1,2,0:0:0:0:
197,333,41844,1,0,0:0:0:0:
266,286,42010,2,0,P|309:268|330:245,1,70,2|0,0:0|0:0,0:0:0:0:
408,265,42344,1,2,0:0:0:0:
453,335,42510,1,0,0:0:0:0:
492,260,42677,6,0,B|496:225|496:225|487:191,1,70,2|0,0:0|0:0,0:0:0:0:
415,147,43010,2,0,B|411:112|411:112|420:78,1,70,2|0,0:0|0:0,0:0:0:0:
336,65,43344,2,0,B|302:56|302:56|267:60,1,70,2|0,0:0|0:0,0:0:0:0:
215,127,43677,2,0,B|181:136|181:136|146:132,1,70,2|0,0:0|0:0,0:0:0:0:
84,189,44010,2,0,B|106:216|106:216|116:250,1,70,2|0,0:0|0:0,0:0:0:0:
200,258,44344,2,0,B|232:270|232:270|258:294,1,70,2|0,0:0|0:0,0:0:0:0:
334,260,44677,2,0,B|368:254|368:254|403:262,1,70,2|0,0:0|0:0,0:0:0:0:
451,195,45010,2,0,B|478:172|478:172|512:162,1,70
458,96,45344,6,0,B|390:117|390:117|294:101,1,140,2|2,0:0|0:0,0:0:0:0:
242,79,45844,2,0,B|207:73|207:73|172:80,1,70,0|2,0:0|0:0,0:0:0:0:
93,52,46177,1,0,0:0:0:0:
68,132,46344,1,0,0:0:0:0:
111,203,46510,1,0,0:0:0:0:
91,284,46677,2,0,B|125:278|125:278|160:286,1,70,2|0,0:0|0:0,0:0:0:0:
238,257,47010,2,0,B|272:264|272:264|307:259,2,70,2|0|2,0:0|0:0|0:0,0:0:0:0:
240,172,47510,1,0,0:0:0:0:
295,108,47677,1,0,0:0:0:0:
379,106,47844,1,0,0:0:0:0:
446,155,48010,6,0,B|437:189|437:189|441:224,1,70,4|0,0:0|0:0,0:0:0:0:
471,300,48344,1,0,0:0:0:0:
471,300,48510,2,0,B|436:307|436:307|401:302,1,70,4|0,0:0|0:0,0:0:0:0:
321,280,48844,1,0,0:0:0:0:
321,280,49010,2,0,B|287:275|287:275|252:282,1,70,4|0,0:0|0:0,0:0:0:0:
182,326,49344,1,0,0:0:0:0:
182,326,49510,2,0,B|174:291|174:291|178:257,1,70,4|0,0:0|0:0,0:0:0:0:
217,183,49844,1,0,0:0:0:0:
217,183,50010,2,0,B|224:148|224:148|220:114,1,70,4|0,0:0|0:0,0:0:0:0:
189,35,50344,2,0,B|224:32|224:32|257:40,1,70,0|0,0:0|0:0,0:0:0:0:
292,44,50594,1,0,0:0:0:0:
326,44,50677,6,0,B|359:52|359:52|394:49,1,70,4|0,0:0|0:0,0:0:0:0:
412,134,51010,1,0,0:0:0:0:
412,134,51177,2,0,B|405:167|405:167|409:202,1,70,4|0,0:0|0:0,0:0:0:0:
325,192,51510,1,0,0:0:0:0:
325,192,51677,2,0,B|290:185|290:185|255:190,1,70,4|0,0:0|0:0,0:0:0:0:
175,212,52011,1,0,0:0:0:0:
175,212,52177,2,0,B|141:217|141:217|106:210,1,70,4|0,0:0|0:0,0:0:0:0:
71,133,52510,2,0,B|105:128|105:128|140:135,1,70,4|0,0:0|0:0,0:0:0:0:
227,131,52844,1,0,0:0:0:0:
227,131,53010,2,0,B|219:96|219:96|223:62,1,70,0|0,0:0|0:0,0:0:0:0:
194,41,53260,1,0,0:0:0:0:
158,36,53344,6,0,L|68:37,1,70,4|0,0:0|0:0,0:0:0:0:
20,87,53677,1,4,0:0:0:0:
20,171,53844,2,0,L|31:241,1,70
99,289,54177,1,0,0:0:0:0:
165,238,54344,1,4,0:0:0:0:
235,283,54510,1,0,0:0:0:0:
304,236,54677,2,0,L|316:149,1,70,0|4,0:0|0:0,0:0:0:0:
396,152,55010,2,0,L|386:221,1,70,0|0,0:0|0:0,0:0:0:0:
380,305,55344,2,0,L|465:308,2,70,4|0|0,0:0|0:0|0:0,0:0:0:0:
299,328,55844,1,0,0:0:0:0:
267,343,55927,1,0,0:0:0:0:
232,346,56010,6,0,L|162:343,1,70,12|0,0:0|0:0,0:0:0:0:
156,258,56344,1,0,0:0:0:0:
238,237,56510,2,0,L|233:158,1,70,12|0,0:0|0:0,0:0:0:0:
315,188,56844,1,0,0:0:0:0:
393,160,57010,2,0,L|461:171,2,70,12|0|0,0:0|0:0|0:0,0:0:0:0:
412,78,57510,2,0,L|314:61,1,70,12|0,0:0|0:0,0:0:0:0:
267,104,57844,1,0,0:0:0:0:
213,39,58010,2,0,L|115:22,1,70,12|0,0:0|0:0,0:0:0:0:
109,104,58344,2,0,L|177:115,1,70,0|0,0:0|0:0,0:0:0:0:
178,150,58594,1,0,0:0:0:0:
169,183,58677,6,0,L|172:283,1,70,12|0,0:0|0:0,0:0:0:0:
173,337,59010,1,0,0:0:0:0:
240,287,59177,2,0,L|330:284,1,70,12|0,0:0|0:0,0:0:0:0:
383,325,59510,1,0,0:0:0:0:
448,272,59677,2,0,L|436:202,1,70,12|0,0:0|0:0,0:0:0:0:
483,133,60010,1,0,0:0:0:0:
398,128,60177,2,0,L|297:132,1,70,12|0,0:0|0:0,0:0:0:0:
270,196,60510,1,0,0:0:0:0:
219,128,60677,2,0,L|223:42,1,70,12|0,0:0|0:0,0:0:0:0:
306,37,61010,2,0,L|375:34,1,70,0|0,0:0|0:0,0:0:0:0:
407,18,61260,1,0,0:0:0:0:
441,24,61344,6,0,L|442:127,1,70,12|0,0:0|0:0,0:0:0:0:
458,176,61677,1,0,0:0:0:0:
379,207,61844,2,0,L|380:310,1,70,12|0,0:0|0:0,0:0:0:0:
298,254,62177,1,0,0:0:0:0:
269,333,62344,2,0,L|173:319,1,70,12|0,0:0|0:0,0:0:0:0:
119,349,62677,1,0,0:0:0:0:
41,220,62844,5,8,0:0:0:0:
41,220,63010,1,8,0:0:0:0:
121,196,63177,1,4,0:0:0:0:
155,202,63260,1,4,0:0:0:0:
189,210,63344,2,0,L|283:206,1,70,8|4,0:0|0:0,0:0:0:0:
346,265,63677,2,0,L|440:261,1,70,8|4,0:0|0:0,0:0:0:0:
490,155,64010,5,12,0:0:0:0:
231,285,66677,6,0,L|338:277,1,77.0000023498536,4|2,0:0|0:0,0:0:0:0:
421,231,67010,2,0,P|444:179|441:147,1,77.0000023498536,0|2,1:0|0:0,0:0:0:0:
378,93,67344,1,2,0:0:0:0:
304,148,67510,1,4,0:0:0:0:
214,63,67677,2,0,L|117:62,1,77.0000023498536,0|0,1:0|0:0,0:0:0:0:
50,11,68010,5,4,0:0:0:0:
71,108,68177,1,2,0:0:0:0:
71,108,68344,1,0,1:0:0:0:
33,200,68510,1,2,0:0:0:0:
115,256,68677,2,0,L|195:260,1,77.0000023498536,2|4,0:0|0:0,0:0:0:0:
307,302,69010,2,0,L|383:298,1,77.0000023498536,0|0,1:0|0:0,0:0:0:0:
500,251,69344,6,0,P|505:176|452:124,1,154.000004699707,4|0,0:0|1:0,0:0:0:0:
355,139,69844,1,0,0:0:0:0:
258,103,70010,2,0,P|206:98|172:102,1,77.0000023498536,2|4,0:0|0:0,0:0:0:0:
80,172,70344,2,0,P|66:219|86:272,1,77.0000023498536,0|0,1:0|0:0,0:0:0:0:
166,274,70677,6,0,P|211:284|266:263,2,77.0000023498536,4|2|8,0:0|0:0|0:0,0:0:0:0:
206,182,71177,1,0,0:0:0:0:
169,88,71344,2,0,L|271:84,1,77.0000023498536,2|4,0:0|0:0,0:0:0:0:
355,139,71677,2,0,L|431:142,1,77.0000023498536,0|0,1:0|0:0,0:0:0:0:
455,265,72010,6,0,B|431:300|431:300|290:304,1,154.000004699707,4|0,0:0|1:0,0:0:0:0:
238,244,72510,1,0,0:0:0:0:
154,299,72677,2,0,P|69:289|57:279,1,77.0000023498536,2|4,0:0|0:0,0:0:0:0:
46,176,73010,2,0,L|74:91,1,77.0000023498536,0|2,1:0|0:0,0:0:0:0:
161,145,73344,5,4,0:0:0:0:
258,122,73510,2,0,L|358:127,1,77.0000023498536,2|0,0:0|1:0,0:0:0:0:
389,210,73844,1,2,0:0:0:0:
346,300,74010,2,0,P|314:278|296:244,1,77.0000023498536,2|4,0:0|0:0,0:0:0:0:
334,125,74344,2,0,P|364:74|364:34,1,77.0000023498536,0|0,1:0|0:0,0:0:0:0:
246,26,74677,6,0,B|211:14|211:14|87:30,1,154.000004699707,4|0,0:0|1:0,0:0:0:0:
138,119,75177,1,0,0:0:0:0:
70,193,75344,2,0,L|89:284,1,77.0000023498536,2|4,0:0|0:0,0:0:0:0:
23,374,75677,2,0,L|132:375,1,77.0000023498536,0|8,1:0|0:0,0:0:0:0:
134,358,75927,1,8,0:0:0:0:
134,358,76010,6,0,L|243:359,1,77.0000023498536,8|4,1:3|0:0,0:0:0:0:
311,361,76344,1,4,0:0:0:0:
394,270,76510,2,0,P|404:193|401:185,1,77.0000023498536,8|4,1:3|0:0,0:0:0:0:
350,110,76844,1,4,0:0:0:0:
251,182,77010,2,0,P|170:190|161:184,1,77.0000023498536,8|4,1:3|0:0,0:0:0:0:
98,99,77344,6,0,P|43:142|67:235,1,154.000004699707,4|0,0:0|1:0,0:0:0:0:
138,269,77844,1,0,0:0:0:0:
83,352,78010,2,0,L|188:349,1,77.0000023498536,2|4,0:0|0:0,0:0:0:0:
281,323,78344,2,0,L|357:325,1,77.0000023498536,0|0,1:0|0:0,0:0:0:0:
335,227,78677,5,4,0:0:0:0:
381,137,78844,1,2,0:0:0:0:
381,137,79010,1,0,1:0:0:0:
334,48,79177,1,2,0:0:0:0:
235,61,79344,2,0,L|151:69,1,77.0000023498536,2|0,0:0|0:0,0:0:0:0:
201,183,79677,2,0,L|117:175,1,77.0000023498536,0|2,1:0|0:0,0:0:0:0:
121,299,80010,6,0,B|142:326|142:326|265:322,1,154.000004699707,4|0,0:0|1:0,0:0:0:0:
361,326,80510,1,0,0:0:0:0:
429,253,80677,2,0,P|443:190|433:161,1,77.0000023498536,2|4,0:0|0:0,0:0:0:0:
320,149,81010,2,0,L|216:163,1,77.0000023498536,0|0,1:0|0:0,0:0:0:0:
144,141,81344,6,0,P|92:82|91:70,2,77.0000023498536,4|2|0,0:0|0:0|1:0,0:0:0:0:
221,77,81844,1,2,0:0:0:0:
317,51,82010,2,0,L|411:63,1,77.0000023498536,2|4,0:0|0:0,0:0:0:0:
433,178,82344,2,0,L|507:221,1,77.0000023498536,0|0,1:0|0:0,0:0:0:0:
425,315,82677,6,0,P|348:351|270:297,1,154.000004699707,4|0,0:0|1:0,0:0:0:0:
273,226,83177,1,0,0:0:0:0:
308,132,83344,2,0,P|302:71|291:52,1,77.0000023498536,2|4,0:0|0:0,0:0:0:0:
171,60,83677,2,0,L|69:70,1,77.0000023498536,0|0,1:0|0:0,0:0:0:0:
130,160,84010,6,0,P|139:216|129:250,1,77.0000023498536,4|0,0:0|0:0,0:0:0:0:
188,311,84344,1,0,1:0:0:0:
269,268,84510,2,0,P|302:336|328:349,1,77.0000023498536,0|2,0:0|0:0,0:0:0:0:
357,268,84844,1,4,0:0:0:0:
479,260,85010,2,0,P|483:188|470:160,1,77.0000023498536,0|0,1:0|0:0,0:0:0:0:
358,170,85344,6,0,B|332:188|332:188|197:177,1,154.000004699707,4|0,0:0|1:0,0:0:0:0:
133,112,85844,1,0,0:0:0:0:
207,45,86010,2,0,L|312:53,1,77.0000023498536,2|4,0:0|0:0,0:0:0:0:
406,33,86344,2,0,P|419:88|410:125,1,77.0000023498536,0|4,1:0|0:0,0:0:0:0:
393,152,86594,1,4,0:0:0:0:
393,152,86677,6,0,P|390:190|403:226,1,77.0000023498536,8|8,1:3|1:3,0:0:0:0:
302,219,87010,2,0,P|318:253|347:278,1,77.0000023498536,8|8,1:3|1:3,0:0:0:0:
256,322,87344,2,0,P|287:343|325:350,1,77.0000023498536,8|8,1:3|1:3,0:0:0:0:
448,344,87677,2,0,P|496:292|494:258,1,77.0000023498536,8|8,1:3|1:3,0:0:0:0:
505,166,88010,6,0,L|500:70,1,77.0000023498536,4|0,0:0|0:0,0:0:0:0:
389,34,88344,2,0,P|334:33|302:45,1,77.0000023498536,0|0,1:0|0:0,0:0:0:0:
265,127,88677,1,2,0:0:0:0:
306,218,88844,2,0,P|356:164|361:136,1,77.0000023498536,4|0,0:0|1:0,0:0:0:0:
265,127,89177,1,0,0:0:0:0:
191,194,89344,5,4,0:0:0:0:
105,142,89510,1,2,0:0:0:0:
105,142,89677,1,0,1:0:0:0:
40,218,89844,1,2,0:0:0:0:
76,310,90010,2,0,P|130:344|157:343,1,77.0000023498536,2|4,0:0|0:0,0:0:0:0:
265,349,90344,2,0,L|355:343,1,77.0000023498536,0|0,1:0|0:0,0:0:0:0:
448,282,90677,6,0,B|462:247|462:247|450:125,1,154.000004699707,4|0,0:0|1:0,0:0:0:0:
372,67,91177,2,0,P|325:41|283:44,1,77.0000023498536,0|2,0:0|0:0,0:0:0:0:
216,91,91510,1,4,0:0:0:0:
95,66,91677,2,0,L|111:165,1,77.0000023498536,0|2,1:0|0:0,0:0:0:0:
80,238,92010,5,4,0:0:0:0:
174,204,92177,2,0,L|250:207,1,77.0000023498536,2|0,0:0|1:0,0:0:0:0:
340,253,92510,2,0,L|416:250,1,77.0000023498536,2|4,0:0|0:0,0:0:0:0:
471,165,92844,1,6,0:0:0:0:
426,50,93010,2,0,P|368:25|324:26,1,77.0000023498536,0|2,1:0|0:0,0:0:0:0:
232,64,93344,6,0,B|257:86|257:86|250:223,1,154.000004699707,4|0,0:0|1:0,0:0:0:0:
180,278,93844,1,2,0:0:0:0:
80,270,94010,2,0,P|68:195|76:183,1,77.0000023498536,2|4,0:0|0:0,0:0:0:0:
168,129,94344,2,0,L|267:126,1,77.0000023498536,0|2,1:0|0:0,0:0:0:0:
334,171,94677,5,4,0:0:0:0:
433,158,94844,2,0,P|474:112|477:96,2,77.0000023498536,2|0|2,0:0|1:0|0:0,0:0:0:0:
383,245,95344,2,0,P|372:304|381:329,1,77.0000023498536,2|4,0:0|0:0,0:0:0:0:
253,308,95677,2,0,L|145:299,1,77.0000023498536,0|2,1:0|0:0,0:0:0:0:
55,277,96010,6,0,P|16:195|71:135,1,154.000004699707,4|0,0:0|1:0,0:0:0:0:
144,162,96510,1,0,0:0:0:0:
236,201,96677,2,0,P|303:198|333:186,1,77.0000023498536,2|4,0:0|0:0,0:0:0:0:
419,134,97010,2,0,L|411:228,1,77.0000023498536,0|4,1:0|0:0,0:0:0:0:
428,254,97260,1,4,0:0:0:0:
428,254,97344,6,0,L|420:348,1,77.0000023498536,8|4,1:3|0:0,0:0:0:0:
337,370,97677,1,12,0:0:0:0:
226,314,97844,2,0,L|219:237,1,77.0000023498536,8|4,1:3|0:0,0:0:0:0:
299,176,98177,1,12,0:0:0:0:
218,82,98344,2,0,L|324:71,1,77.0000023498536,8|4,1:3|0:0,0:0:0:0:
188,11,98677,6,0,P|143:65|168:142,1,154.000004699707,4|0,0:0|1:0,0:0:0:0:
256,180,99177,1,0,0:0:0:0:
355,167,99344,2,0,P|426:167|449:178,1,77.0000023498536,2|4,0:0|0:0,0:0:0:0:
422,291,99677,2,0,P|351:291|328:280,1,77.0000023498536,0|2,1:0|0:0,0:0:0:0:
250,260,100010,5,4,0:0:0:0:
155,293,100177,2,0,P|100:292|66:274,1,77.0000023498536,0|0,0:0|1:0,0:0:0:0:
33,195,100510,1,0,0:0:0:0:
84,109,100677,2,0,P|150:97|165:100,1,77.0000023498536,2|4,0:0|0:0,0:0:0:0:
258,171,101010,2,0,P|302:173|360:157,1,77.0000023498536,0|2,1:0|0:0,0:0:0:0:
407,66,101344,6,0,P|463:90|444:178,1,154.000004699707,0|0,1:0|1:0,1:0:0:0:
374,233,101844,1,0,0:0:0:0:
378,332,102010,2,0,L|286:328,1,77.0000023498536,2|4,0:0|0:0,0:0:0:0:
190,271,102344,2,0,L|87:277,1,77.0000023498536,0|2,1:0|0:0,0:0:0:0:
62,188,102677,6,0,P|49:137|61:101,1,77.0000023498536,4|2,0:0|0:0,0:0:0:0:
174,86,103010,2,0,B|272:89,2,77.0000023498536,0|2|2,1:0|0:0|0:0,0:0:0:0:
208,180,103510,1,4,0:0:0:0:
323,135,103677,2,0,L|314:229,1,77.0000023498536,0|2,1:0|0:0,0:0:0:0:
265,324,104010,6,0,B|286:353|286:353|418:346,1,154.000004699707,4|0,0:0|1:0,0:0:0:0:
494,302,104510,1,0,0:0:0:0:
454,209,104677,2,0,P|450:141|459:121,1,77.0000023498536,2|4,0:0|0:0,0:0:0:0:
334,170,105010,2,0,L|223:188,1,77.0000023498536,0|2,1:0|0:0,0:0:0:0:
162,150,105344,5,4,0:0:0:0:
196,243,105510,1,2,0:0:0:0:
131,348,105677,2,0,L|236:342,1,77.0000023498536,0|2,1:0|0:0,0:0:0:0:
308,347,106010,2,0,P|358:336|378:312,1,77.0000023498536,0|4,0:0|0:0,0:0:0:0:
377,194,106344,2,0,L|366:104,1,77.0000023498536,0|2,1:0|0:0,0:0:0:0:
268,190,106677,6,0,B|244:213|244:213|259:93,1,154.000004699707,4|0,0:0|1:0,0:0:0:0:
325,22,107177,2,0,P|271:-5|243:-2,1,77.0000023498536,0|2,0:0|0:0,0:0:0:0:
176,56,107510,1,6,0:0:0:0:
59,31,107677,2,0,L|64:128,1,77.0000023498536,0|0,1:0|1:0,0:0:0:0:
89,150,107927,1,0,1:0:0:0:
89,150,108010,6,0,L|92:226,1,77.0000023498536,12|8,1:3|1:3,0:0:0:0:
206,175,108344,2,0,L|161:261,1,77.0000023498536,8|8,1:3|1:3,0:0:0:0:
295,255,108677,2,0,L|213:307,1,77.0000023498536,8|8,1:3|1:3,0:0:0:0:
332,368,109010,2,0,L|234:372,1,77.0000023498536,8|8,1:3|1:3,0:0:0:0:
142,371,109344,6,0,P|132:338|133:303,1,70,2|0,0:0|0:0,0:0:0:0:
168,226,109677,2,0,P|193:202|224:187,1,70,2|0,0:0|0:0,0:0:0:0:
308,173,110010,2,0,P|407:170|445:130,1,140,2|0,0:0|0:0,0:0:0:0:
506,102,110510,1,0,0:0:0:0:
508,186,110677,6,0,P|506:261|495:278,1,70,2|0,0:0|0:0,0:0:0:0:
427,292,111010,2,0,P|376:347|372:367,1,70,0|0,0:0|0:0,0:0:0:0:
295,328,111344,2,0,P|228:338|206:333,1,70,2|0,0:0|0:0,0:0:0:0:
162,283,111677,2,0,P|127:282|93:292,1,70
109,208,112010,6,0,P|115:159|101:125,1,70,2|0,0:0|0:0,0:0:0:0:
50,78,112344,2,0,P|43:43|50:9,1,70,0|0,0:0|0:0,0:0:0:0:
133,20,112677,2,0,P|208:24|212:22,1,70,2|0,0:0|0:0,0:0:0:0:
283,14,113010,2,0,P|317:10|350:21,1,70,0|0,0:0|0:0,0:0:0:0:
309,95,113344,6,0,P|295:181|317:234,1,140,2|0,0:0|0:0,0:0:0:0:
371,289,113844,1,0,0:0:0:0:
289,307,114010,2,0,L|188:302,1,70,2|0,0:0|0:0,0:0:0:0:
172,232,114344,1,2,0:0:0:0:
141,310,114510,1,0,0:0:0:0:
87,245,114677,6,0,P|77:180|105:91,1,140,2|0,0:0|0:0,0:0:0:0:
179,112,115177,1,0,0:0:0:0:
213,35,115344,2,0,P|299:39|353:20,1,140,2|0,0:0|0:0,0:0:0:0:
316,186,116010,6,0,P|305:251|371:313,1,140,2|0,0:0|0:0,0:0:0:0:
189,252,116677,2,0,P|146:261|97:246,2,70,2|0|0,0:0|0:0|0:0,0:0:0:0:
230,178,117177,1,0,0:0:0:0:
302,134,117344,6,0,P|353:125|393:129,1,70,2|0,0:0|0:0,0:0:0:0:
454,136,117677,2,0,P|475:182|482:222,1,70,0|0,0:0|0:0,0:0:0:0:
491,283,118010,2,0,P|451:316|414:332,1,70,2|0,0:0|0:0,0:0:0:0:
358,356,118344,2,0,P|315:326|290:295,1,70,0|0,0:0|0:0,0:0:0:0:
239,257,118677,6,0,P|183:241|76:266,1,140,2|0,0:0|0:0,0:0:0:0:
55,321,119177,1,0,0:0:0:0:
26,241,119344,2,0,P|26:167|38:146,1,70,2|0,0:0|0:0,0:0:0:0:
104,147,119677,2,0,P|104:73|92:52,1,70,0|0,0:0|0:0,0:0:0:0:
188,95,120010,6,0,P|250:95|331:80,1,140,2|0,0:0|0:0,0:0:0:0:
405,51,120510,1,0,0:0:0:0:
392,134,120677,2,0,P|386:197|388:210,1,70,2|0,0:0|0:0,0:0:0:0:
421,279,121010,2,0,P|427:342|425:355,1,70,0|0,0:0|0:0,0:0:0:0:
343,367,121344,6,0,P|260:358|244:362,1,70,2|0,0:0|0:0,0:0:0:0:
190,358,121677,2,0,P|155:356|121:347,1,70,0|0,0:0|0:0,0:0:0:0:
143,265,122010,2,0,P|158:196|151:177,1,70,2|0,0:0|0:0,0:0:0:0:
148,114,122344,2,0,P|106:56|87:49,1,70,0|0,0:0|0:0,0:0:0:0:
43,110,122677,6,0,P|20:184|66:244,1,140,2|0,0:0|0:0,0:0:0:0:
124,273,123177,1,0,0:0:0:0:
206,256,123344,2,0,P|282:253|293:255,1,70,2|0,0:0|0:0,0:0:0:0:
357,266,123677,2,0,P|391:262|423:247,1,70,0|0,0:0|0:0,0:0:0:0:
483,187,124010,6,0,P|507:250|500:270,1,70,2|0,0:0|0:0,0:0:0:0:
448,320,124344,2,0,P|405:338|353:340,1,70,0|0,0:0|0:0,0:0:0:0:
291,352,124677,2,0,P|206:334|199:330,1,70,2|0,0:0|0:0,0:0:0:0:
150,285,125010,2,0,P|123:212|123:209,1,70,0|0,0:0|0:0,0:0:0:0:
147,125,125344,6,0,P|228:145|307:123,1,140,2|0,0:0|0:0,0:0:0:0:
372,94,125844,1,0,0:0:0:0:
353,189,126010,2,0,P|346:240|353:261,1,70,2|0,0:0|0:0,0:0:0:0:
430,316,126344,2,0,P|437:367|430:388,1,70,0|0,0:0|0:0,0:0:0:0:
333,381,126677,6,0,P|254:379|244:377,1,70,2|0,0:0|0:0,0:0:0:0:
202,303,127010,2,0,P|281:305|291:307,1,70,0|0,0:0|0:0,0:0:0:0:
303,210,127344,2,0,P|321:166|320:120,1,70,2|0,0:0|0:0,0:0:0:0:
231,108,127677,2,0,P|213:64|214:18,1,70,0|0,0:0|0:0,0:0:0:0:
257,18,127927,1,0,0:0:0:0:
257,18,128010,6,0,P|364:25|416:61,1,140,0|0,0:0|0:0,0:0:0:0:
447,101,128510,1,0,0:0:0:0:
473,181,128677,2,0,P|464:242|446:268,1,70,2|0,0:0|0:0,0:0:0:0:
389,294,129010,2,0,L|305:298,1,70,0|0,0:0|0:0,0:0:0:0:
243,258,129344,6,0,L|159:254,1,70,2|0,0:0|0:0,0:0:0:0:
93,281,129677,2,0,L|70:199,1,70,2|0,0:0|0:0,0:0:0:0:
24,145,130010,2,0,L|94:98,1,70,2|0,0:0|0:0,0:0:0:0:
132,37,130344,2,0,L|197:89,1,70,2|0,0:0|0:0,0:0:0:0:
200,163,130677,6,0,L|199:214,2,35,2|2|0,0:0|0:0|0:0,0:0:0:0:
