osu file format v14

[General]
AudioFilename: audio.mp3
AudioLeadIn: 0
PreviewTime: 65344
Countdown: 0
SampleSet: None
StackLeniency: 0.7
Mode: 0
LetterboxInBreaks: 0
WidescreenStoryboard: 0

[Editor]
Bookmarks: 11,21344,42677,48010,53344,64010,66677,88010,109344,130677
DistanceSpacing: 1
BeatDivisor: 2
GridSize: 16
TimelineZoom: 2

[Metadata]
Title:Daisy
TitleUnicode:Daisy
Artist:Lifetheory
ArtistUnicode:Lifetheory
Creator:_Yiiiii
Version:Easy
Source:
Tags:Abhor krt KuranteMelodii flower
BeatmapID:1187416
BeatmapSetID:549738

[Difficulty]
HPDrainRate:2
CircleSize:2.8
OverallDifficulty:2
ApproachRate:3
SliderMultiplier:0.8
SliderTickRate:1

[Events]
//Background and Video events
0,0,"BG.jpg",0,0
//Break Periods
2,64210,65237
//Storyboard Layer 0 (Background)
//Storyboard Layer 1 (Fail)
//Storyboard Layer 2 (Pass)
//Storyboard Layer 3 (Foreground)
//Storyboard Sound Samples

[TimingPoints]
11,333.333333333333,4,3,1,50,1,0
21010,-100,4,3,1,10,0,0
21344,-100,4,3,1,20,0,0
25344,-100,4,3,1,25,0,0
26677,-100,4,3,1,35,0,0
42677,-100,4,3,1,45,0,0
53344,-100,4,3,1,55,0,0
66677,-100,4,3,1,90,0,1
87844,-100,4,3,1,90,0,0
88010,-100,4,3,1,90,0,1
109344,-100,4,3,1,90,0,0
109510,-100,4,3,1,30,0,0
114677,-100,4,3,1,40,0,0

[Colours]
Combo1 : 73,73,73
Combo2 : 191,191,0
Combo3 : 159,159,159
Combo4 : 240,176,96

[HitObjects]
470,306,21010,5,0,0:0:0:0:
398,342,21344,6,0,P|305:344|200:148,1,320,2|0,0:0|0:0,0:0:0:0:
490,47,24010,6,0,P|477:139|267:212,1,320,2|0,0:0|0:0,0:0:0:0:
177,104,26010,1,2,0:0:0:0:
47,197,26677,6,0,P|59:289|269:362,1,320,2|0,0:0|0:0,0:0:0:0:
510,186,29344,6,0,L|339:197,1,160,2|0,0:0|0:0,0:0:0:0:
190,190,30677,2,0,P|150:139|181:42,1,160,2|0,0:0|0:0,0:0:0:0:
329,32,32010,6,0,P|453:101|424:283,1,320,2|2,0:0|0:0,0:0:0:0:
310,351,34010,1,2,0:0:0:0:
154,314,34677,6,0,L|181:141,1,160,2|0,0:0|0:0,0:0:0:0:
18,147,36010,2,0,L|42:305,1,160,2|0,0:0|0:0,0:0:0:0:
195,353,37344,6,0,P|325:339|363:150,1,320,2|2,0:0|0:0,0:0:0:0:
226,120,39344,1,2,0:0:0:0:
102,221,40010,6,0,L|267:228,1,160,2|0,0:0|0:0,0:0:0:0:
421,235,41344,2,0,P|485:278|492:355,1,160,2|0,0:0|0:0,0:0:0:0:
343,296,42677,6,0,L|373:123,1,160,2|0,0:0|0:0,0:0:0:0:
326,71,43677,1,2,0:0:0:0:
249,43,44010,2,0,P|172:50|127:113,1,160,2|0,0:0|0:0,0:0:0:0:
132,273,45344,6,0,P|167:336|253:365,1,160,2|0,0:0|0:0,0:0:0:0:
325,355,46344,1,0,0:0:0:0:
389,308,46677,2,0,L|409:128,1,160,2|0,0:0|0:0,0:0:0:0:
246,148,48010,6,0,P|128:149|106:172,2,120,4|4|4,0:0|0:0|0:0,0:0:0:0:
296,256,49510,2,0,P|414:255|436:232,1,120,4|4,0:0|0:0,0:0:0:0:
454,192,50344,1,0,0:0:0:0:
427,116,50677,6,0,B|388:101|388:101|290:105,1,120,4|4,0:0|0:0,0:0:0:0:
225,189,51677,2,0,B|186:204|186:204|88:200,1,120,4|4,0:0|0:0,0:0:0:0:
58,91,52677,2,0,P|133:61|140:63,1,80,0|0,0:0|0:0,0:0:0:0:
206,73,53344,6,0,L|340:58,2,120,4|0|4,0:0|0:0|0:0,0:0:0:0:
129,165,54844,2,0,P|125:228|169:281,1,120,4|4,0:0|0:0,0:0:0:0:
235,287,55677,1,0,0:0:0:0:
314,291,56010,6,0,P|342:237|339:169,1,120,12|12,0:0|0:0,0:0:0:0:
230,133,57010,2,0,P|202:79|205:11,1,120,12|12,0:0|0:0,0:0:0:0:
322,24,58010,2,0,L|425:39,1,80,12|0,0:0|0:0,0:0:0:0:
451,98,58677,6,0,P|472:179|454:242,2,120,12|12|12,0:0|0:0|0:0,0:0:0:0:
333,120,60177,2,0,P|277:127|195:116,1,120,12|12,0:0|0:0,0:0:0:0:
136,100,61010,1,0,0:0:0:0:
65,137,61344,6,0,P|40:207|69:268,1,120,12|12,0:0|0:0,0:0:0:0:
133,337,62344,2,0,P|203:360|263:330,1,120,12|8,0:0|0:0,0:0:0:0:
264,228,63344,2,0,L|251:134,1,80,8|8,0:0|0:0,0:0:0:0:
201,87,64010,5,4,0:2:0:0:
201,87,66677,6,0,L|213:193,1,80,4|0,0:0|1:0,0:0:0:0:
198,245,67344,2,0,L|237:344,1,80,2|0,0:0|1:0,0:0:0:0:
298,356,68010,2,0,P|422:329|456:301,1,160,4|2,0:0|0:0,0:0:0:0:
484,241,69010,1,0,1:0:0:0:
442,172,69344,6,0,L|411:10,1,160,4|2,0:0|0:0,0:0:0:0:
334,35,70344,1,0,1:0:0:0:
288,100,70677,2,0,P|256:126|195:127,1,80,4|8,0:0|0:0,0:0:0:0:
139,121,71344,2,0,P|100:128|69:153,1,80,2|0,0:0|1:0,0:0:0:0:
28,221,72010,6,0,B|38:323,1,80,4|0,0:0|1:0,0:0:0:0:
116,295,72677,1,2,0:0:0:0:
188,329,73010,1,0,1:0:0:0:
264,304,73344,2,0,P|279:217|271:194,1,80,4|0,0:0|1:0,0:0:0:0:
255,151,74010,1,2,0:0:0:0:
96,156,74677,6,0,L|110:272,1,80,4|0,0:0|1:0,0:0:0:0:
168,284,75344,1,2,0:0:0:0:
245,302,75677,2,0,P|302:280|328:263,1,80,0|8,1:0|1:3,0:0:0:0:
358,201,76344,1,4,0:0:0:0:
335,124,76677,2,0,L|311:42,1,80,4|8,0:0|1:3,0:0:0:0:
233,33,77344,6,0,P|165:43|149:54,1,80,4|0,0:0|1:0,0:0:0:0:
109,112,78010,2,0,L|118:210,1,80,2|0,0:0|1:0,0:0:0:0:
120,271,78677,2,0,L|287:259,1,160,4|2,0:0|0:0,0:0:0:0:
353,228,79677,1,0,1:0:0:0:
368,149,80010,6,0,P|360:79|273:44,1,160,4|2,0:0|0:0,0:0:0:0:
219,87,81010,1,0,1:0:0:0:
186,160,81344,2,0,L|202:268,1,80,4|0,0:0|1:0,0:0:0:0:
264,283,82010,2,0,L|248:391,1,80,2|0,0:0|1:0,0:0:0:0:
172,356,82677,6,0,P|88:341|81:337,1,80,4|0,0:0|1:0,0:0:0:0:
87,264,83344,1,2,0:0:0:0:
112,188,83677,1,0,1:0:0:0:
179,144,84010,2,0,P|254:131|262:131,1,80,4|0,0:0|1:0,0:0:0:0:
329,165,84677,1,2,0:0:0:0:
306,323,85344,6,0,P|229:333|205:321,1,80,4|0,0:0|1:0,0:0:0:0:
180,269,86010,1,2,0:0:0:0:
189,189,86344,2,0,L|212:110,1,80,0|8,1:0|0:0,0:0:0:0:
279,70,87010,1,8,1:3:0:0:
358,57,87344,2,0,P|440:69|459:83,1,80,8|8,1:3|1:3,0:0:0:0:
460,142,88010,6,0,L|453:243,1,80,4|0,0:0|1:0,0:0:0:0:
424,296,88677,2,0,P|364:322|341:315,1,80,2|0,0:0|1:0,0:0:0:0:
288,271,89344,2,0,L|258:79,1,160,4|2,0:0|0:0,0:0:0:0:
189,81,90344,1,0,1:0:0:0:
111,102,90677,6,0,P|29:183|52:247,1,160,4|2,0:0|0:0,0:0:0:0:
107,246,91677,1,0,1:0:0:0:
186,241,92010,2,0,L|284:237,1,80,4|0,0:0|1:0,0:0:0:0:
337,201,92677,2,0,L|416:204,1,80,2|0,0:0|1:0,0:0:0:0:
478,153,93344,6,0,P|474:90|464:68,1,80,4|0,0:0|1:0,0:0:0:0:
388,63,94010,1,2,0:0:0:0:
308,72,94344,1,0,1:0:0:0:
250,127,94677,2,0,P|212:137|163:126,1,80,4|0,0:0|1:0,0:0:0:0:
105,85,95344,1,2,0:0:0:0:
6,211,96010,6,0,L|16:316,1,80,4|0,0:0|1:0,0:0:0:0:
64,352,96677,2,0,P|136:370|143:368,1,80,2|0,0:0|1:0,0:0:0:0:
203,322,97344,2,0,B|208:279|208:279|202:245|202:245|208:204,2,120,8|8|8,1:3|1:3|1:3,0:0:0:0:
279,346,98677,6,0,P|386:349|416:311,1,160,4|2,0:0|0:0,0:0:0:0:
432,236,99677,1,0,1:0:0:0:
420,156,100010,2,0,L|401:74,1,80,4|0,0:0|1:0,0:0:0:0:
333,36,100677,2,0,P|272:17|239:18,1,80,2|0,0:0|1:0,0:0:0:0:
183,49,101344,6,0,L|202:230,1,160,4|2,0:0|0:0,0:0:0:0:
251,269,102344,1,0,1:0:0:0:
249,348,102677,2,0,P|198:374|170:374,1,80,4|0,0:0|1:0,0:0:0:0:
97,359,103344,2,0,P|57:317|50:290,1,80,2|0,0:0|1:0,0:0:0:0:
40,217,104010,6,0,L|59:44,1,160,4|2,0:0|0:0,0:0:0:0:
128,19,105010,1,0,1:0:0:0:
192,67,105344,2,0,P|258:93|271:93,1,80,4|0,0:0|1:0,0:0:0:0:
345,87,106010,2,0,P|384:93|418:113,1,80,0|0,0:0|1:0,0:0:0:0:
446,188,106677,6,0,L|439:296,1,80,4|0,0:0|1:0,0:0:0:0:
397,335,107344,2,0,P|354:338|284:324,1,80,2|0,0:0|1:0,0:0:0:0:
246,297,108010,5,8,1:3:0:0:
224,219,108344,1,8,1:3:0:0:
252,144,108677,2,0,P|253:81|241:45,1,80,0|0,1:3|1:3,0:0:0:0:
181,21,109344,1,2,0:0:0:0:
256,192,109510,12,2,113344,0:0:0:0:
336,362,114677,6,0,P|226:299|258:194,1,240,2|0,0:0|0:0,0:0:0:0:
322,181,116010,2,0,P|334:69|232:23,1,240,2|0,0:0|0:0,0:0:0:0:
176,81,117344,6,0,L|191:168,1,80,2|0,0:0|0:0,0:0:0:0:
191,239,118010,2,0,L|206:326,1,80,2|0,0:0|0:0,0:0:0:0:
277,351,118677,2,0,P|354:330|350:177,1,240,2|0,0:0|0:0,0:0:0:0:
284,176,120010,6,0,B|207:202|207:202|33:174,1,240,2|0,0:0|0:0,0:0:0:0:
43,96,121344,2,0,P|84:27|228:60,1,240,2|0,0:0|0:0,0:0:0:0:
225,131,122677,6,0,L|208:247,1,80,2|0,0:0|0:0,0:0:0:0:
196,288,123344,2,0,L|213:404,1,80,2|0,0:0|0:0,0:0:0:0:
287,363,124010,2,0,P|352:356|362:348,1,80,2|0,0:0|0:0,0:0:0:0:
413,287,124677,2,0,P|410:221|403:211,1,80,2|0,0:0|0:0,0:0:0:0:
324,220,125344,6,0,P|245:231|239:85,1,240,2|0,0:0|0:0,0:0:0:0:
296,89,126677,2,0,L|396:112,1,80,2|0,0:0|0:0,0:0:0:0:
448,136,127344,2,0,L|474:232,1,80,2|0,0:0|0:0,0:0:0:0:
474,292,128010,6,0,L|388:342,1,80,2|0,0:0|0:0,0:0:0:0:
339,378,128677,2,0,L|239:369,1,80,2|0,0:0|0:0,0:0:0:0:
179,371,129344,2,0,L|102:307,1,80,2|0,0:0|0:0,0:0:0:0:
51,273,130010,2,0,L|24:176,1,80,2|0,0:0|0:0,0:0:0:0:
2,120,130677,1,2,0:0:0:0:
