osu file format v14

[General]
AudioFilename: audio.mp3
AudioLeadIn: 0
PreviewTime: 65344
Countdown: 0
SampleSet: None
StackLeniency: 0.7
Mode: 0
LetterboxInBreaks: 0
WidescreenStoryboard: 0

[Editor]
Bookmarks: 11,21344,42677,48010,53344,64010,66677,88010,109344,130677
DistanceSpacing: 1.5
BeatDivisor: 4
GridSize: 16
TimelineZoom: 1.9

[Metadata]
Title:Daisy
TitleUnicode:Daisy
Artist:Lifetheory
ArtistUnicode:Lifetheory
Creator:_Yiiiii
Version:Abhor's Advanced
Source:
Tags:Abhor krt KuranteMelodii flower
BeatmapID:1166300
BeatmapSetID:549738

[Difficulty]
HPDrainRate:5
CircleSize:3.2
OverallDifficulty:5
ApproachRate:6.5
SliderMultiplier:1.2
SliderTickRate:1

[Events]
//Background and Video events
0,0,"BG.jpg",0,0
//Break Periods
//Storyboard Layer 0 (Background)
//Storyboard Layer 1 (Fail)
//Storyboard Layer 2 (Pass)
//Storyboard Layer 3 (Foreground)
//Storyboard Sound Samples

[TimingPoints]
11,333.333333333333,4,3,1,50,1,0
21010,-100,4,3,1,10,0,0
21344,-100,4,3,1,20,0,0
25344,-100,4,3,1,25,0,0
26677,-100,4,3,1,35,0,0
42677,-100,4,3,1,45,0,0
53344,-100,4,3,1,55,0,0
66677,-100,4,3,1,90,0,1
87844,-100,4,3,1,90,0,0
88010,-100,4,3,1,90,0,1
109344,-100,4,3,1,90,0,0
109510,-100,4,3,1,30,0,0
114677,-100,4,3,1,40,0,0

[Colours]
Combo1 : 73,73,73
Combo2 : 191,191,0
Combo3 : 159,159,159
Combo4 : 240,176,96

[HitObjects]
64,328,21010,6,0,L|55:247,1,60,0|0,0:0|0:0,0:0:0:0:
69,178,21344,6,0,P|121:203|145:270,1,120,2|0,0:0|0:0,0:0:0:0:
158,346,21844,1,0,0:0:0:0:
158,346,22010,2,0,L|296:346,1,120,2|2,0:0|0:0,0:0:0:0:
352,295,22510,1,0,0:0:0:0:
352,295,22677,6,0,P|385:310|417:310,1,60,2|0,0:0|0:0,0:0:0:0:
405,221,23010,2,0,P|435:217|470:191,1,60,2|0,0:0|0:0,0:0:0:0:
406,128,23344,2,0,P|345:111|283:127,1,120,2|0,0:0|0:0,0:0:0:0:
231,190,23844,1,0,0:0:0:0:
231,190,24010,6,0,P|238:131|214:59,1,120,2|2,0:0|0:0,0:0:0:0:
135,46,24510,1,0,0:0:0:0:
135,46,24677,2,0,L|64:59,1,60,2|0,0:0|0:0,0:0:0:0:
29,133,25010,2,0,P|29:163|48:203,1,60,2|0,0:0|0:0,0:0:0:0:
117,238,25344,6,0,B|148:251|156:287|156:287|166:323|201:338,1,120,2|0,0:0|0:0,0:0:0:0:
354,260,26010,2,0,P|304:241|238:264,1,120,2|2,0:0|0:0,0:0:0:0:
71,314,26677,6,0,P|31:267|37:193,1,120,2|0,0:0|0:0,0:0:0:0:
96,150,27177,1,2,0:0:0:0:
96,150,27344,2,0,L|240:143,1,120,0|2,0:0|0:0,0:0:0:0:
379,69,28010,6,0,B|401:106|401:106|405:197,1,120,2|2,0:0|0:0,0:0:0:0:
338,244,28510,1,0,0:0:0:0:
338,244,28677,2,0,L|338:318,1,60,2|0,0:0|0:0,0:0:0:0:
249,322,29010,2,0,P|219:329|171:320,1,60,2|0,0:0|0:0,0:0:0:0:
213,238,29344,6,0,B|216:196|216:196|205:157|205:157|210:104,1,120,2|0,0:0|0:0,0:0:0:0:
72,237,30010,2,0,B|75:199|75:199|64:160|64:160|67:118,1,120,2|2,0:0|0:0,0:0:0:0:
140,65,30510,1,0,0:0:0:0:
140,65,30677,6,0,P|206:67|264:47,1,120,2|0,0:0|0:0,0:0:0:0:
421,125,31344,2,0,P|360:124|301:151,1,120,2|2,0:0|0:0,0:0:0:0:
303,237,31844,1,0,0:0:0:0:
303,237,32010,6,0,P|388:254|424:288,1,120,2|0,0:0|0:0,0:0:0:0:
237,318,32677,2,0,P|181:338|103:321,1,120,2|2,0:0|0:0,0:0:0:0:
71,255,33177,1,0,0:0:0:0:
71,255,33344,6,0,B|55:169|55:169|73:122,1,120,2|0,0:0|0:0,0:0:0:0:
243,170,34010,2,0,L|368:163,1,120,2|2,0:0|0:0,0:0:0:0:
407,241,34510,1,0,0:0:0:0:
407,241,34677,6,0,P|406:179|462:120,1,120,2|0,0:0|0:0,0:0:0:0:
475,309,35344,2,0,P|422:333|354:318,1,120,2|2,0:0|0:0,0:0:0:0:
281,283,35844,1,0,0:0:0:0:
281,283,36010,6,0,L|134:294,1,120,2|2,0:0|0:0,0:0:0:0:
91,348,36510,1,0,0:0:0:0:
91,348,36677,2,0,P|74:318|75:274,1,60,2|0,0:0|0:0,0:0:0:0:
117,215,37010,2,0,P|126:183|119:149,1,60,2|0,0:0|0:0,0:0:0:0:
51,99,37344,6,0,L|40:30,2,60,2|0|0,0:0|0:0|0:0,0:0:0:0:
122,156,37844,2,0,P|190:143|255:165,1,120,0|0,0:0|0:0,0:0:0:0:
303,217,38344,1,2,0:0:0:0:
443,329,38677,6,0,L|445:252,1,60,2|0,0:0|0:0,0:0:0:0:
392,195,39010,2,0,L|394:127,1,60,2|0,0:0|0:0,0:0:0:0:
375,46,39344,2,0,P|404:45|433:52,2,60,2|0|2,0:0|0:0|0:0,0:0:0:0:
308,106,39844,1,0,0:0:0:0:
308,106,39927,1,0,0:0:0:0:
308,106,40010,6,0,P|249:126|178:110,1,120,2|0,0:0|0:0,0:0:0:0:
31,37,40677,2,0,P|42:64|43:99,1,60,2|0,0:0|0:0,0:0:0:0:
103,162,41010,2,0,P|101:210|108:232,1,60,2|0,0:0|0:0,0:0:0:0:
180,269,41344,6,0,L|259:266,1,60,2|0,0:0|0:0,0:0:0:0:
299,334,41677,2,0,P|290:276|321:223,1,120,2|2,0:0|0:0,0:0:0:0:
377,293,42177,1,0,0:0:0:0:
377,293,42344,2,0,L|454:291,1,60,2|0,0:0|0:0,0:0:0:0:
446,201,42677,6,0,L|447:135,1,60,2|0,0:0|0:0,0:0:0:0:
380,80,43010,2,0,P|341:75|309:79,1,60,2|0,0:0|0:0,0:0:0:0:
249,133,43344,2,0,P|197:147|127:136,1,120,2|2,0:0|0:0,0:0:0:0:
46,110,43844,1,0,0:0:0:0:
46,110,44010,6,0,L|47:185,1,60,2|0,0:0|0:0,0:0:0:0:
73,256,44344,2,0,P|103:257|136:273,1,60,2|0,0:0|0:0,0:0:0:0:
203,321,44677,2,0,P|268:340|331:323,1,120,2|0,0:0|0:0,0:0:0:0:
385,269,45177,1,0,0:0:0:0:
385,269,45344,6,0,L|392:196,1,60,2|0,0:0|0:0,0:0:0:0:
310,167,45677,2,0,L|303:99,1,60,2|0,0:0|0:0,0:0:0:0:
231,53,46010,2,0,B|194:68|194:68|109:63,1,120,0|0,0:0|0:0,0:0:0:0:
24,53,46510,1,0,0:0:0:0:
24,53,46677,6,0,L|30:134,1,60,2|0,0:0|0:0,0:0:0:0:
107,155,47010,2,0,P|111:196|102:220,1,60,2|0,0:0|0:0,0:0:0:0:
32,267,47344,2,0,P|84:302|142:295,1,120,2|0,0:0|0:0,0:0:0:0:
220,259,47844,1,0,0:0:0:0:
248,174,48010,6,0,L|315:169,1,60,4|0,0:0|0:0,0:0:0:0:
337,255,48344,2,0,L|400:251,1,60,0|4,0:0|0:0,0:0:0:0:
479,214,48677,2,0,P|488:255|480:286,2,60,0|0|4,0:0|0:0|0:0,0:0:0:0:
404,162,49177,1,0,0:0:0:0:
404,162,49344,6,0,P|401:113|409:92,1,60,0|4,0:0|0:0,0:0:0:0:
464,36,49677,2,0,P|435:16|406:13,1,60,0|0,0:0|0:0,0:0:0:0:
332,56,50010,2,0,B|294:66|294:66|201:57,1,120,4|0,0:0|0:0,0:0:0:0:
68,165,50677,6,0,L|79:231,1,60,4|0,0:0|0:0,0:0:0:0:
95,312,51010,2,0,P|139:309|168:318,1,60,0|4,0:0|0:0,0:0:0:0:
239,342,51344,2,0,P|280:347|318:340,2,60,0|0|4,0:0|0:0|0:0,0:0:0:0:
222,253,51844,1,0,0:0:0:0:
222,253,52010,6,0,P|270:247|289:252,1,60,0|4,0:0|0:0,0:0:0:0:
363,286,52344,2,0,P|393:292|429:283,1,60,0|4,0:0|0:0,0:0:0:0:
474,213,52677,2,0,B|486:174|486:174|475:86,1,120,0|0,0:0|0:0,0:0:0:0:
297,67,53344,6,0,P|263:74|229:71,1,60,4|0,0:0|0:0,0:0:0:0:
152,43,53677,2,0,P|100:41|75:52,1,60,4|0,0:0|0:0,0:0:0:0:
125,127,54010,2,0,L|127:197,2,60,0|0|4,0:0|0:0|0:0,0:0:0:0:
35,117,54510,1,0,0:0:0:0:
35,117,54677,6,0,L|40:201,1,60,0|4,0:0|0:0,0:0:0:0:
78,257,55010,2,0,P|106:271|145:271,1,60,0|0,0:0|0:0,0:0:0:0:
212,227,55344,2,0,P|272:211|341:233,1,120,4|0,0:0|0:0,0:0:0:0:
463,341,56010,6,0,L|464:272,1,60,12|0,0:0|0:0,0:0:0:0:
410,207,56344,2,0,L|410:137,1,60,0|12,0:0|0:0,0:0:0:0:
384,60,56677,2,0,P|419:56|448:65,2,60,0|0|12,0:0|0:0|0:0,0:0:0:0:
323,126,57177,1,0,0:0:0:0:
323,126,57344,6,0,L|243:126,1,60,0|12,0:0|0:0,0:0:0:0:
190,180,57677,2,0,B|159:186|159:186|123:179,1,60,0|0,0:0|0:0,0:0:0:0:
70,114,58010,2,0,P|42:162|54:231,1,120,12|0,0:0|0:0,0:0:0:0:
197,326,58677,6,0,B|224:320|224:320|255:326,1,60,12|0,0:0|0:0,0:0:0:0:
345,331,59010,2,0,P|386:336|411:333,1,60,0|12,0:0|0:0,0:0:0:0:
469,270,59344,2,0,L|477:205,2,60,0|0|12,0:0|0:0|0:0,0:0:0:0:
400,103,60010,6,0,P|363:113|337:107,1,60,0|12,0:0|0:0,0:0:0:0:
257,77,60344,2,0,L|257:158,1,60,0|0,0:0|0:0,0:0:0:0:
324,197,60677,2,0,P|266:189|200:210,1,120,12|0,0:0|0:0,0:0:0:0:
152,276,61177,1,0,0:0:0:0:
152,276,61260,1,0,0:0:0:0:
152,276,61344,6,0,L|153:360,2,60,12|0|0,0:0|0:0|0:0,0:0:0:0:
68,240,61844,2,0,P|48:193|58:111,1,120,12|0,0:0|0:0,0:0:0:0:
118,63,62344,1,12,0:0:0:0:
118,63,62510,6,0,P|174:79|238:58,1,120,0|8,0:0|0:0,0:0:0:0:
314,26,63010,2,0,P|355:28|391:44,1,60,8|4,0:0|0:0,0:0:0:0:
392,123,63344,2,0,P|436:132|455:147,1,60,8|4,0:0|0:0,0:0:0:0:
428,228,63677,2,0,P|447:258|449:296,1,60,8|4,0:0|0:0,0:0:0:0:
383,342,64010,5,12,0:0:0:0:
256,192,64094,12,0,65344,0:0:0:0:
130,166,66677,6,0,L|125:93,2,60,4|2|0,0:0|0:0|1:0,0:0:0:0:
74,237,67177,2,0,P|132:222|205:246,1,120,2|4,0:0|0:0,0:0:0:0:
223,319,67677,2,0,P|254:312|296:318,1,60,0|0,1:0|0:0,0:0:0:0:
365,347,68010,6,0,L|433:354,2,60,4|2|0,0:0|0:0|1:0,0:0:0:0:
355,257,68510,2,0,L|480:271,1,120,2|4,0:0|0:0,0:0:0:0:
478,180,69010,2,0,L|483:99,1,60,0|0,1:0|0:0,0:0:0:0:
418,55,69344,6,0,P|455:32|478:31,2,60,4|0|0,0:0|0:0|1:0,0:0:0:0:
378,136,69844,2,0,P|331:144|245:117,1,120,2|0,0:0|0:0,0:0:0:0:
188,75,70344,2,0,L|118:73,1,60,0|0,1:0|0:0,0:0:0:0:
61,134,70677,6,0,L|68:207,1,60,4|2,0:0|0:0,0:0:0:0:
148,231,71010,2,0,P|148:278|136:311,1,60,8|0,0:0|0:0,0:0:0:0:
78,352,71344,2,0,L|215:343,1,120,2|0,0:0|1:0,0:0:0:0:
287,342,71844,1,0,0:0:0:0:
287,342,72010,6,0,P|285:285|329:234,1,120,4|0,0:0|1:0,0:0:0:0:
370,313,72510,1,0,0:0:0:0:
370,313,72677,2,0,L|448:308,1,60,2|4,0:0|0:0,0:0:0:0:
463,225,73010,2,0,L|396:229,1,60,0|2,1:0|0:0,0:0:0:0:
350,154,73344,6,0,B|355:115|355:115|344:27,1,120,4|0,0:0|1:0,0:0:0:0:
188,123,74010,2,0,P|130:142|68:113,1,120,2|0,0:0|1:0,0:0:0:0:
133,51,74510,1,0,0:0:0:0:
133,51,74677,6,0,P|193:31|266:66,1,120,4|0,0:0|1:0,0:0:0:0:
292,221,75344,2,0,B|287:260|287:260|298:348,1,120,2|0,0:0|1:0,0:0:0:0:
387,335,75844,1,8,0:0:0:0:
387,335,75927,1,8,0:0:0:0:
387,335,76010,6,0,L|376:263,1,60,8|4,1:3|0:0,0:0:0:0:
414,192,76344,2,0,L|405:115,1,60,4|8,0:0|1:3,0:0:0:0:
350,62,76677,2,0,P|300:75|216:62,1,120,4|8,0:0|1:3,0:0:0:0:
145,46,77177,1,4,0:0:0:0:
145,46,77344,6,0,P|118:40|76:50,2,60,4|0|0,0:0|0:0|1:0,0:0:0:0:
172,132,77844,2,0,B|184:163|184:163|182:273,1,120,2|4,0:0|0:0,0:0:0:0:
92,254,78344,2,0,L|94:180,1,60,0|0,1:0|0:0,0:0:0:0:
7,167,78677,6,0,L|5:235,1,60,4|2,0:0|0:0,0:0:0:0:
27,314,79010,2,0,P|54:335|91:342,1,60,0|2,1:0|0:0,0:0:0:0:
169,337,79344,2,0,L|241:332,1,60,2|0,0:0|0:0,0:0:0:0:
310,293,79677,2,0,B|342:288|342:288|373:293,1,60,0|2,1:0|0:0,0:0:0:0:
447,337,80010,6,0,B|458:298|458:298|443:207,1,120,4|0,0:0|1:0,0:0:0:0:
373,165,80510,1,0,0:0:0:0:
373,165,80677,2,0,L|378:92,1,60,2|4,0:0|0:0,0:0:0:0:
313,40,81010,2,0,P|282:49|247:50,1,60,0|0,1:0|0:0,0:0:0:0:
164,38,81344,6,0,P|130:34|93:45,1,60,4|2,0:0|0:0,0:0:0:0:
47,109,81677,2,0,L|58:179,1,60,0|2,1:0|0:0,0:0:0:0:
145,177,82010,2,0,P|152:213|146:251,1,60,2|4,0:0|0:0,0:0:0:0:
91,305,82344,2,0,P|95:347|105:377,1,60,0|0,1:0|0:0,0:0:0:0:
181,324,82677,6,0,B|218:315|218:315|266:319|266:319|305:309,1,120,4|0,0:0|1:0,0:0:0:0:
267,226,83177,2,0,P|327:226|377:271,1,120,0|4,0:0|0:0,0:0:0:0:
379,352,83677,2,0,L|451:345,1,60,0|0,1:0|0:0,0:0:0:0:
464,259,84010,6,0,L|469:125,1,120,4|0,0:0|1:0,0:0:0:0:
310,52,84677,2,0,P|296:103|311:187,1,120,2|0,0:0|1:0,0:0:0:0:
361,238,85177,1,0,0:0:0:0:
361,238,85344,6,0,P|283:222|225:247,1,120,4|0,0:0|1:0,0:0:0:0:
70,271,86010,2,0,B|51:226|74:191|74:191|63:138,1,120,2|0,0:0|1:0,0:0:0:0:
47,67,86510,1,4,0:0:0:0:
47,67,86594,1,4,0:0:0:0:
47,67,86677,6,0,L|121:67,1,60,8|8,1:3|1:3,0:0:0:0:
162,137,87010,2,0,L|226:138,1,60,8|8,1:3|1:3,0:0:0:0:
256,221,87344,2,0,L|327:222,1,60,8|8,1:3|1:3,0:0:0:0:
335,309,87677,2,0,L|404:310,1,60,8|8,1:3|1:3,0:0:0:0:
469,259,88010,6,0,P|484:286|479:338,2,60,4|0|0,0:0|0:0|1:0,0:0:0:0:
401,199,88510,2,0,L|412:75,1,120,2|4,0:0|0:0,0:0:0:0:
323,60,89010,2,0,L|316:137,1,60,0|0,1:0|0:0,0:0:0:0:
240,168,89344,6,0,L|234:244,2,60,4|2|0,0:0|0:0|1:0,0:0:0:0:
176,104,89844,2,0,P|119:88|57:118,1,120,2|4,0:0|0:0,0:0:0:0:
21,189,90344,2,0,L|32:258,1,60,0|0,1:0|0:0,0:0:0:0:
85,319,90677,6,0,L|157:314,1,60,4|0,0:0|0:0,0:0:0:0:
231,338,91010,2,0,P|263:347|305:340,1,60,0|0,1:0|0:0,0:0:0:0:
355,282,91344,2,0,L|350:213,2,60,2|4|0,0:0|0:0|1:0,0:0:0:0:
435,321,91844,1,2,0:0:0:0:
435,321,92010,6,0,B|450:294|446:259|446:259|438:190,1,120,4|0,0:0|1:0,0:0:0:0:
379,135,92510,1,2,0:0:0:0:
379,135,92677,2,0,P|343:110|321:31,1,120,4|0,0:0|1:0,0:0:0:0:
139,48,93344,6,0,L|209:51,2,60,4|0|0,0:0|0:0|1:0,0:0:0:0:
76,113,93844,2,0,B|97:137|129:140|129:140|205:141,1,120,2|4,0:0|0:0,0:0:0:0:
274,167,94344,2,0,L|268:240,1,60,0|2,1:0|0:0,0:0:0:0:
199,284,94677,6,0,P|140:280|72:300,1,120,4|0,0:0|1:0,0:0:0:0:
249,362,95344,2,0,L|320:365,1,60,2|4,0:0|0:0,0:0:0:0:
368,296,95677,2,0,L|438:297,1,60,0|2,1:0|0:0,0:0:0:0:
495,356,96010,6,0,P|478:298|487:217,1,120,4|0,0:0|1:0,0:0:0:0:
433,65,96677,2,0,L|426:124,2,60,2|4|0,0:0|0:0|1:0,0:0:0:0:
348,34,97177,1,4,0:0:0:0:
348,34,97260,1,4,0:0:0:0:
348,34,97344,6,0,P|301:60|220:58,1,120,8|12,1:3|0:0,0:0:0:0:
147,46,97844,2,0,P|84:38|14:62,1,120,8|12,1:3|0:0,0:0:0:0:
41,142,98344,2,0,L|54:219,1,60,8|4,1:3|0:0,0:0:0:0:
132,239,98677,6,0,B|170:229|170:229|263:243,1,120,4|0,0:0|1:0,0:0:0:0:
297,317,99177,2,0,B|378:341|378:341|430:330,1,120,0|4,0:0|0:0,0:0:0:0:
378,250,99677,2,0,L|387:174,1,60,0|2,1:0|0:0,0:0:0:0:
451,129,100010,6,0,P|406:104|334:114,1,120,4|0,0:0|1:0,0:0:0:0:
176,188,100677,2,0,L|170:122,2,60,2|4|0,0:0|0:0|1:0,0:0:0:0:
251,237,101177,1,2,0:0:0:0:
251,237,101344,6,0,B|266:275|266:275|249:369,1,120,4|0,0:0|1:0,0:0:0:0:
98,259,102010,2,0,L|90:188,2,60,2|4|0,0:0|0:0|1:0,0:0:0:0:
168,314,102510,1,2,0:0:0:0:
168,314,102677,6,0,P|231:301|297:327,1,120,4|0,0:0|1:0,0:0:0:0:
364,355,103177,2,0,L|362:220,1,120,2|4,0:0|0:0,0:0:0:0:
299,170,103677,2,0,L|297:99,1,60,0|2,1:0|0:0,0:0:0:0:
210,86,104010,6,0,L|210:153,2,60,4|0|0,0:0|0:0|1:0,0:0:0:0:
136,33,104510,2,0,B|119:53|117:87|117:87|118:156,1,120,0|4,0:0|0:0,0:0:0:0:
171,221,105010,2,0,L|171:288,1,60,0|2,1:0|0:0,0:0:0:0:
114,351,105344,6,0,P|173:337|241:356,1,120,4|0,0:0|1:0,0:0:0:0:
409,357,106010,2,0,L|412:290,1,60,0|4,0:0|0:0,0:0:0:0:
342,237,106344,2,0,L|344:173,1,60,0|2,1:0|0:0,0:0:0:0:
399,105,106677,6,0,P|348:85|287:104,1,120,4|0,0:0|1:0,0:0:0:0:
145,214,107344,2,0,L|133:82,1,120,2|0,0:0|1:0,0:0:0:0:
53,55,107844,1,0,1:0:0:0:
53,55,107927,1,0,1:0:0:0:
53,55,108010,6,0,P|44:97|49:127,1,60,12|8,1:3|1:3,0:0:0:0:
134,94,108344,2,0,L|211:101,1,60,8|8,1:3|1:3,0:0:0:0:
207,188,108677,2,0,L|276:194,1,60,8|8,1:3|1:3,0:0:0:0:
276,282,109010,2,0,L|349:288,1,60,8|8,1:3|1:3,0:0:0:0:
403,346,109344,5,2,0:0:0:0:
256,192,109427,12,2,110677,0:0:0:0:
66,76,113344,5,2,0:0:0:0:
66,76,114344,2,0,L|141:77,1,60,2|0,0:0|0:0,0:0:0:0:
144,165,114677,6,0,P|142:223|181:291,1,120,2|0,0:0|0:0,0:0:0:0:
258,272,115177,1,0,0:0:0:0:
258,272,115344,2,0,P|321:261|383:278,1,120,2|0,0:0|0:0,0:0:0:0:
439,336,115844,1,0,0:0:0:0:
439,336,116010,6,0,L|435:199,1,120,2|0,0:0|0:0,0:0:0:0:
367,156,116510,1,0,0:0:0:0:
367,156,116677,2,0,B|360:72|360:72|326:36,1,120,2|0,0:0|0:0,0:0:0:0:
275,113,117177,1,0,0:0:0:0:
275,113,117344,6,0,P|211:99|157:114,1,120,2|0,0:0|0:0,0:0:0:0:
157,202,117844,1,0,0:0:0:0:
157,202,118010,2,0,P|203:230|226:295,1,120,2|0,0:0|0:0,0:0:0:0:
153,343,118510,1,0,0:0:0:0:
153,343,118677,6,0,L|282:350,1,120,2|0,0:0|0:0,0:0:0:0:
360,328,119177,1,0,0:0:0:0:
360,328,119344,2,0,B|356:286|356:286|372:250|372:250|365:201,1,120,2|0,0:0|0:0,0:0:0:0:
246,81,120010,6,0,P|215:93|124:73,1,120,2|0,0:0|0:0,0:0:0:0:
56,28,120510,1,0,0:0:0:0:
56,28,120677,2,0,P|82:105|76:160,1,120,2|0,0:0|0:0,0:0:0:0:
41,224,121177,1,0,0:0:0:0:
41,224,121344,6,0,P|31:285|50:348,1,120,2|0,0:0|0:0,0:0:0:0:
132,315,121844,1,0,0:0:0:0:
132,315,122010,2,0,B|174:307|174:307|267:318,1,120,2|0,0:0|0:0,0:0:0:0:
339,329,122510,1,0,0:0:0:0:
339,329,122677,6,0,B|421:338|421:338|463:326,1,120,2|0,0:0|0:0,0:0:0:0:
414,248,123177,1,0,0:0:0:0:
414,248,123344,2,0,L|409:120,1,120,2|0,0:0|0:0,0:0:0:0:
338,72,123844,1,0,0:0:0:0:
338,72,124010,6,0,P|281:59|203:83,1,120,2|0,0:0|0:0,0:0:0:0:
179,151,124510,1,0,0:0:0:0:
179,151,124677,2,0,B|191:200|191:200|180:279,1,120,2|0,0:0|0:0,0:0:0:0:
105,317,125177,1,0,0:0:0:0:
105,317,125344,6,0,P|86:280|85:253,2,60,2|0|0,0:0|0:0|0:0,0:0:0:0:
181,268,125844,2,0,P|238:253|305:274,1,120,8|0,0:0|0:0,0:0:0:0:
368,321,126344,2,0,P|387:284|388:257,1,60,0|0,0:0|0:0,0:0:0:0:
338,190,126677,6,0,L|329:119,1,60,2|0,0:0|0:0,0:0:0:0:
242,148,127010,2,0,L|251:78,1,60,0|0,0:0|0:0,0:0:0:0:
159,79,127344,2,0,L|157:17,2,60,2|0|0,0:0|0:0|0:0,0:0:0:0:
108,153,127844,1,0,0:0:0:0:
108,153,127927,1,0,0:0:0:0:
108,153,128010,6,0,P|85:206|115:273,1,120,2|0,0:0|0:0,0:0:0:0:
180,309,128510,1,0,0:0:0:0:
180,309,128677,2,0,L|256:298,1,60,2|0,0:0|0:0,0:0:0:0:
320,340,129010,2,0,L|393:343,1,60,0|0,0:0|0:0,0:0:0:0:
445,279,129344,6,0,L|450:205,1,60,2|0,0:0|0:0,0:0:0:0:
360,200,129677,2,0,L|356:120,1,60,2|0,0:0|0:0,0:0:0:0:
269,118,130010,2,0,P|209:127|145:110,1,120,2|2,0:0|0:0,0:0:0:0:
80,58,130510,1,0,0:0:0:0:
67,147,130677,5,2,0:0:0:0:
