osu file format v14

[General]
AudioFilename: audio.mp3
AudioLeadIn: 0
PreviewTime: 65344
Countdown: 0
SampleSet: None
StackLeniency: 0.3
Mode: 0
LetterboxInBreaks: 0
WidescreenStoryboard: 0

[Editor]
Bookmarks: 11,21344,42677,48010,53344,64010,66677,88010,109344,115344,130677
DistanceSpacing: 2.2
BeatDivisor: 8
GridSize: 16
TimelineZoom: 2.3

[Metadata]
Title:Daisy
TitleUnicode:Daisy
Artist:Lifetheory
ArtistUnicode:Lifetheory
Creator:_Yiiiii
Version:krt's Insane
Source:
Tags:Abhor krt KuranteMelodii flower
BeatmapID:1167848
BeatmapSetID:549738

[Difficulty]
HPDrainRate:6
CircleSize:3.8
OverallDifficulty:7.5
ApproachRate:9
SliderMultiplier:1.8
SliderTickRate:1

[Events]
//Background and Video events
0,0,"BG.jpg",0,0
//Break Periods
//Storyboard Layer 0 (Background)
//Storyboard Layer 1 (Fail)
//Storyboard Layer 2 (Pass)
//Storyboard Layer 3 (Foreground)
//Storyboard Sound Samples

[TimingPoints]
11,333.333333333333,4,3,1,50,1,0
21010,-250,4,3,1,20,0,0
42677,-113.636363636364,4,3,1,45,0,0
53344,-113.636363636364,4,3,1,55,0,0
64010,-200,4,3,1,10,0,0
64094,-200,4,3,1,5,0,0
65177,-125,4,3,1,5,0,0
66677,-90.9090909090909,4,3,1,90,0,1
87844,-90.9090909090909,4,3,1,90,0,0
88010,-90.9090909090909,4,3,1,90,0,1
109344,-133.333333333333,4,3,1,90,0,0
109510,-133.333333333333,4,3,1,30,0,0
113177,-133.333333333333,4,3,1,5,0,0
114677,-250,4,3,1,10,0,0

[Colours]
Combo1 : 73,73,73
Combo2 : 191,191,0
Combo3 : 159,159,159
Combo4 : 240,176,96

[HitObjects]
0,320,21010,5,0,0:0:0:0:
73,291,21177,1,0,0:0:0:0:
136,339,21344,6,0,B|171:380|221:373|221:373|211:332|230:302|264:266|264:266|307:375|423:380|468:343|487:311,1,468,2|0,0:0|0:0,0:0:0:0:
505,261,23677,1,0,0:0:0:0:
437,219,23844,1,0,0:0:0:0:
358,216,24010,5,0,0:0:0:0:
281,235,24177,2,0,P|280:196|301:156,1,72
366,137,24677,1,2,0:0:0:0:
409,70,24844,1,0,0:0:0:0:
356,10,25011,1,2,0:0:0:0:
286,47,25178,1,0,0:0:0:0:
290,125,25344,2,0,L|206:131,1,72,2|0,0:0|0:0,0:0:0:0:
154,83,25844,1,0,0:0:0:0:
92,34,26010,2,0,L|20:28,1,72,2|2,0:0|0:0,0:0:0:0:
12,106,26510,1,0,0:0:0:0:
29,184,26677,6,0,B|36:233|79:257|79:257|96:202|142:167|187:164|187:164|172:215|165:251|184:290|184:290|121:299|106:352,1,468,2|0,0:0|0:0,0:0:0:0:
188,373,29010,1,2,0:0:0:0:
255,330,29177,1,0,0:0:0:0:
326,368,29344,6,0,B|344:323|320:285|320:285|330:243|330:243|313:223|296:200|311:154,1,216,2|2,0:0|0:0,0:0:0:0:
388,184,30510,2,0,L|430:166,1,36
475,111,30844,2,0,P|444:85|335:61,1,144,2|0,0:0|0:0,0:0:0:0:
272,90,31677,1,2,0:0:0:0:
193,77,31844,1,0,0:0:0:0:
121,43,32010,6,0,B|101:100|142:138|142:138|107:122|60:141|54:175|54:175|-1:153|-47:209|-23:272|38:268,1,396,2|0,0:0|0:0,0:0:0:0:
111,294,34010,2,0,B|151:286|151:286|171:268|171:268|209:257,1,108,2|0,0:0|0:0,0:0:0:0:
277,298,34677,6,0,B|302:245|279:211|256:194|256:194|314:150|304:74,1,252,2|0,0:0|0:0,0:0:0:0:
225,68,36010,2,0,P|149:148|84:59,1,252,2|0,0:0|0:0,0:0:0:0:
4,49,37344,6,0,P|121:225|299:111,1,468,2|0,0:0|0:0,0:0:0:0:
318,34,39677,1,2,0:0:0:0:
391,67,39844,1,0,0:0:0:0:
398,71,39927,1,0,0:0:0:0:
405,75,40010,6,0,B|485:104|485:104|450:118,1,108,2|0,0:0|0:0,0:0:0:0:
392,148,40677,2,0,L|400:192,1,36,2|0,0:0|0:0,0:0:0:0:
450,244,41010,2,0,L|442:288,1,36,2|0,0:0|0:0,0:0:0:0:
393,341,41344,1,2,0:0:0:0:
328,295,41510,1,0,0:0:0:0:
270,239,41677,2,0,P|202:220|163:241,1,108,2|0,0:0|0:0,0:0:0:0:
110,286,42344,2,0,L|61:280,1,36,2|0,0:0|0:0,0:0:0:0:
19,209,42677,6,0,L|122:194,1,79.2000024169922,2|0,0:0|0:0,0:0:0:0:
190,322,43010,2,0,L|293:337,1,79.2000024169922,2|0,0:0|0:0,0:0:0:0:
428,224,43344,1,2,0:0:0:0:
350,212,43510,1,0,0:0:0:0:
284,256,43677,1,2,0:0:0:0:
268,333,43844,1,0,0:0:0:0:
391,383,44010,6,0,L|371:299,1,79.2000024169922,2|0,0:0|0:0,0:0:0:0:
276,179,44344,2,0,L|294:101,1,79.2000024169922,2|0,0:0|0:0,0:0:0:0:
167,19,44677,1,2,0:0:0:0:
155,97,44843,1,0,0:0:0:0:
199,163,45010,1,0,0:0:0:0:
276,179,45177,1,0,0:0:0:0:
337,29,45344,6,0,P|288:21|250:29,1,79.2000024169922,2|0,0:0|0:0,0:0:0:0:
122,115,45677,2,0,P|73:123|35:115,1,79.2000024169922,2|0,0:0|0:0,0:0:0:0:
81,42,46010,1,2,0:0:0:0:
75,219,46177,1,0,0:0:0:0:
93,25,46344,1,0,0:0:0:0:
59,232,46511,1,0,0:0:0:0:
199,163,46677,6,0,P|248:155|286:163,1,79.2000024169922,2|0,0:0|0:0,0:0:0:0:
414,249,47010,2,0,P|463:257|501:249,1,79.2000024169922,2|0,0:0|0:0,0:0:0:0:
455,176,47343,1,2,0:0:0:0:
461,353,47510,1,0,0:0:0:0:
443,159,47677,1,0,0:0:0:0:
477,366,47844,1,0,0:0:0:0:
323,256,48010,6,0,L|231:246,1,79.2000024169922,4|0,0:0|0:0,0:0:0:0:
107,312,48344,1,0,0:0:0:0:
6,200,48510,6,0,L|98:190,1,79.2000024169922,4|0,0:0|0:0,0:0:0:0:
195,311,48844,1,0,0:0:0:0:
290,182,49010,6,0,B|301:142|301:142|289:96,1,79.2000024169922,4|0,0:0|0:0,0:0:0:0:
159,53,49344,1,0,0:0:0:0:
116,176,49510,6,0,L|206:187,1,79.2000024169922,4|0,0:0|0:0,0:0:0:0:
390,198,49844,1,0,0:0:0:0:
291,105,50010,5,4,0:0:0:0:
323,256,50177,1,0,0:0:0:0:
370,115,50344,1,0,0:0:0:0:
316,283,50510,1,0,0:0:0:0:
316,283,50594,1,0,0:0:0:0:
316,283,50677,6,0,L|237:292,1,79.2000024169922,4|0,0:0|0:0,0:0:0:0:
92,261,51010,1,0,0:0:0:0:
180,117,51177,6,0,B|194:159|194:159|191:217,1,79.2000024169922,4|0,0:0|0:0,0:0:0:0:
121,342,51510,1,0,0:0:0:0:
32,161,51677,6,0,L|111:170,1,79.2000024169922,4|0,0:0|0:0,0:0:0:0:
276,106,52010,1,0,0:0:0:0:
121,18,52177,6,0,B|107:60|107:60|110:118,1,79.2000024169922,4|0,0:0|0:0,0:0:0:0:
169,264,52510,1,4,0:0:0:0:
12,377,52677,6,0,B|11:342|11:342|24:300,1,79.2000024169922,0|0,0:0|0:0,0:0:0:0:
110,169,53010,1,0,0:0:0:0:
121,342,53177,1,0,0:0:0:0:
0,226,53344,6,0,B|35:225|35:225|77:238,1,79.2000024169922,4|0,0:0|0:0,0:0:0:0:
246,335,53677,1,0,0:0:0:0:
318,183,53844,6,0,B|283:182|283:182|241:195,1,79.2000024169922,4|0,0:0|0:0,0:0:0:0:
121,342,54177,1,0,0:0:0:0:
325,359,54344,6,0,B|360:360|360:360|402:347,1,79.2000024169922,4|0,0:0|0:0,0:0:0:0:
497,250,54677,1,0,0:0:0:0:
365,113,54844,5,4,0:0:0:0:
354,269,55010,1,0,0:0:0:0:
440,145,55177,1,0,0:0:0:0:
294,80,55344,5,4,0:0:0:0:
392,203,55510,1,0,0:0:0:0:
480,81,55677,1,0,0:0:0:0:
330,7,55844,5,0,0:0:0:0:
330,7,55927,1,0,0:0:0:0:
330,7,56010,2,0,P|277:1|242:17,1,79.2000024169922,12|0,0:0|0:0,0:0:0:0:
138,139,56344,1,0,0:0:0:0:
272,239,56510,6,0,P|278:186|262:151,1,79.2000024169922,12|0,0:0|0:0,0:0:0:0:
140,47,56844,1,0,0:0:0:0:
17,229,57010,6,0,P|70:235|105:219,1,79.2000024169922,12|0,0:0|0:0,0:0:0:0:
209,97,57344,1,0,0:0:0:0:
49,143,57510,5,12,0:0:0:0:
200,203,57677,1,0,0:0:0:0:
140,47,57844,1,0,0:0:0:0:
93,226,58010,5,12,0:0:0:0:
209,97,58177,1,0,0:0:0:0:
54,58,58344,1,0,0:0:0:0:
188,281,58510,1,0,0:0:0:0:
188,281,58594,1,0,0:0:0:0:
188,281,58677,6,0,L|200:203,1,79.2000024169922,12|0,0:0|0:0,0:0:0:0:
60,352,59010,1,0,0:0:0:0:
14,214,59177,6,0,L|112:228,1,79.2000024169922,12|0,0:0|0:0,0:0:0:0:
163,354,59510,1,0,0:0:0:0:
296,273,59677,6,0,B|309:236|309:236|311:170,1,79.2000024169922,12|0,0:0|0:0,0:0:0:0:
232,39,60010,1,0,0:0:0:0:
200,203,60177,5,12,0:0:0:0:
303,100,60344,1,0,0:0:0:0:
147,61,60510,1,0,0:0:0:0:
200,203,60677,5,12,0:0:0:0:
232,39,60844,1,0,0:0:0:0:
132,140,61010,1,0,0:0:0:0:
281,180,61177,1,0,0:0:0:0:
281,180,61260,1,0,0:0:0:0:
281,180,61344,6,0,L|380:189,1,79.2000024169922,12|0,0:0|0:0,0:0:0:0:
511,108,61677,1,0,0:0:0:0:
375,37,61844,6,0,B|362:82|362:82|367:133,1,79.2000024169922,12|0,0:0|0:0,0:0:0:0:
498,222,62177,1,0,0:0:0:0:
358,344,62344,6,0,B|345:299|345:299|350:248,1,79.2000024169922,12|0,0:0|0:0,0:0:0:0:
443,153,62677,1,0,0:0:0:0:
478,302,62844,5,8,0:0:0:0:
276,360,63010,2,0,L|161:344,1,79.2000024169922,8|4,0:0|0:0,0:0:0:0:
48,242,63344,5,8,0:0:0:0:
121,146,63510,1,4,0:0:0:0:
118,300,63677,5,8,0:0:0:0:
51,88,63844,1,4,0:0:0:0:
118,300,64010,6,0,B|116:277|142:243|142:243|178:320|266:324|311:263,1,270,12|0,0:0|0:0,0:0:0:0:
492,282,65177,6,0,B|496:251|478:177|435:133|435:133|390:127|354:166|354:166|393:186|418:235|412:317|412:317|378:307|343:313|305:337|305:337|316:293|309:264,1,612
356,165,66677,6,0,L|347:47,1,99.0000030212403,4|2,0:0|0:0,0:0:0:0:
205,134,67010,2,0,L|196:252,1,99.0000030212403,0|2,1:0|0:0,0:0:0:0:
269,77,67344,1,2,0:0:0:0:
131,76,67510,1,4,0:0:0:0:
0,233,67677,1,0,1:0:0:0:
122,225,67843,1,0,0:0:0:0:
14,144,68010,5,4,0:0:0:0:
110,305,68177,1,2,0:0:0:0:
271,242,68344,2,0,L|278:143,1,99.0000030212403,0|2,1:0|0:0,0:0:0:0:
95,151,68677,5,2,0:0:0:0:
191,312,68844,1,4,0:0:0:0:
351,253,69011,2,0,L|358:154,1,99.0000030212403,0|0,1:0|0:0,0:0:0:0:
197,232,69344,5,4,0:0:0:0:
345,334,69510,1,0,0:0:0:0:
442,191,69677,1,0,1:0:0:0:
271,242,69844,1,0,0:0:0:0:
434,272,70010,1,2,0:0:0:0:
450,111,70177,1,4,0:0:0:0:
288,47,70344,2,0,B|271:97|271:97|280:156,1,99.0000030212403,0|0,1:0|0:0,0:0:0:0:
453,25,70677,5,4,0:0:0:0:
302,23,70844,2,0,L|197:30,1,99.0000030212403,2|8,0:0|0:0,0:0:0:0:
91,108,71177,1,0,0:0:0:0:
182,218,71344,2,0,P|206:167|193:112,1,99.0000030212403,2|4,0:0|0:0,0:0:0:0:
34,48,71677,2,0,P|10:99|23:154,1,99.0000030212403,0|0,1:0|0:0,0:0:0:0:
147,301,72010,6,0,B|217:294|217:294|274:240|274:240|356:224,1,198.000006042481,4|0,0:0|1:0,0:0:0:0:
504,290,72510,1,0,0:0:0:0:
399,359,72677,2,0,P|356:355|314:320,1,99.0000030212403,2|4,0:0|0:0,0:0:0:0:
395,171,73010,2,0,P|438:175|480:210,1,99.0000030212403,0|2,1:0|0:0,0:0:0:0:
322,230,73344,5,4,0:0:0:0:
244,76,73510,1,2,0:0:0:0:
409,73,73677,2,0,L|395:170,1,99.0000030212403,0|2,1:0|0:0,0:0:0:0:
248,194,74010,5,2,0:0:0:0:
170,40,74176,1,4,0:0:0:0:
335,37,74343,2,0,L|321:134,1,99.0000030212403,0|0,1:0|0:0,0:0:0:0:
169,312,74677,6,0,B|145:203|145:203|178:113,1,198.000006042481,4|0,0:0|1:0,0:0:0:0:
320,240,75177,1,0,0:0:0:0:
169,312,75344,2,0,L|47:289,1,99.0000030212403,2|4,0:0|0:0,0:0:0:0:
27,193,75677,1,0,1:0:0:0:
174,121,75844,1,8,0:0:0:0:
174,121,75927,1,8,0:0:0:0:
174,121,76010,5,8,1:3:0:0:
320,240,76177,2,0,B|369:246|369:246|429:218,1,99.0000030212403,4|4,0:0|0:0,0:0:0:0:
338,121,76510,5,8,1:3:0:0:
188,240,76677,2,0,B|139:246|139:246|79:218,1,99.0000030212403,4|4,0:0|0:0,0:0:0:0:
256,80,77010,5,8,1:3:0:0:
256,288,77177,1,4,0:0:0:0:
156,164,77344,6,0,L|165:46,1,99.0000030212403,4|0,0:0|0:0,0:0:0:0:
312,141,77677,2,0,L|321:259,1,99.0000030212403,0|0,1:0|0:0,0:0:0:0:
256,80,78011,1,2,0:0:0:0:
385,74,78177,1,4,0:0:0:0:
512,232,78344,1,0,1:0:0:0:
390,224,78510,1,0,0:0:0:0:
498,143,78677,5,4,0:0:0:0:
402,304,78844,1,2,0:0:0:0:
241,241,79011,2,0,L|234:142,1,99.0000030212403,0|2,1:0|0:0,0:0:0:0:
417,150,79344,5,2,0:0:0:0:
321,311,79511,1,0,0:0:0:0:
161,252,79678,2,0,L|154:153,1,99.0000030212403,0|2,1:0|0:0,0:0:0:0:
321,311,80011,5,4,0:0:0:0:
156,352,80177,1,0,0:0:0:0:
241,241,80344,1,0,1:0:0:0:
61,255,80510,1,0,0:0:0:0:
234,141,80677,1,2,0:0:0:0:
29,113,80843,1,4,0:0:0:0:
224,46,81011,2,0,B|242:94|242:94|232:155,1,99.0000030212403,0|0,1:0|0:0,0:0:0:0:
68,23,81344,5,4,0:0:0:0:
210,22,81511,2,0,L|315:29,1,99.0000030212403,2|0,0:0|1:0,0:0:0:0:
421,107,81844,1,2,0:0:0:0:
330,217,82011,2,0,L|319:111,1,99.0000030212403,2|4,0:0|0:0,0:0:0:0:
509,245,82344,2,0,L|498:146,1,99.0000030212403,0|0,1:0|0:0,0:0:0:0:
369,287,82677,6,0,B|283:338|242:198|149:274,1,198.000006042481,4|0,0:0|1:0,0:0:0:0:
5,297,83177,1,0,0:0:0:0:
112,353,83344,2,0,L|209:333,1,99.0000030212403,2|4,0:0|0:0,0:0:0:0:
109,218,83677,2,0,L|12:197,1,99.0000030212403,0|0,1:0|0:0,0:0:0:0:
200,77,84011,5,4,0:0:0:0:
274,215,84177,1,0,0:0:0:0:
109,218,84344,2,0,L|123:121,1,99.0000030212403,0|0,1:0|0:0,0:0:0:0:
274,132,84677,5,2,0:0:0:0:
348,251,84843,1,4,0:0:0:0:
192,257,85010,2,0,L|206:160,1,99.0000030212403,0|0,1:0|0:0,0:0:0:0:
433,128,85344,6,0,P|458:194|442:336,1,198.000006042481,4|0,0:0|1:0,0:0:0:0:
274,215,85844,1,0,0:0:0:0:
352,77,86010,2,0,L|352:188,1,99.0000030212403,2|4,0:0|0:0,0:0:0:0:
192,257,86344,1,0,1:0:0:0:
193,80,86510,1,4,0:0:0:0:
193,80,86594,1,4,0:0:0:0:
193,80,86677,5,8,1:3:0:0:
274,215,86844,1,8,1:3:0:0:
109,218,87010,1,8,1:3:0:0:
274,132,87177,1,8,1:3:0:0:
192,257,87344,5,8,1:3:0:0:
109,124,87510,1,8,1:3:0:0:
274,215,87677,1,8,1:3:0:0:
111,304,87844,1,8,1:3:0:0:
273,371,88010,6,0,L|390:363,1,99.0000030212403,4|0,0:0|0:0,0:0:0:0:
488,192,88344,2,0,L|371:184,1,99.0000030212403,0|0,1:0|0:0,0:0:0:0:
371,364,88677,1,2,0:0:0:0:
454,263,88844,1,4,0:0:0:0:
357,114,89010,1,0,1:0:0:0:
274,215,89177,1,0,0:0:0:0:
147,49,89344,5,4,0:0:0:0:
273,131,89510,1,2,0:0:0:0:
146,210,89677,2,0,L|35:202,1,99.0000030212403,0|2,1:0|0:0,0:0:0:0:
267,48,90010,5,2,0:0:0:0:
148,131,90176,1,4,0:0:0:0:
274,215,90343,2,0,L|385:207,1,99.0000030212403,0|0,1:0|0:0,0:0:0:0:
226,282,90677,5,4,0:0:0:0:
372,371,90843,1,0,0:0:0:0:
471,241,91010,1,0,1:0:0:0:
300,292,91177,1,0,0:0:0:0:
463,322,91343,1,2,0:0:0:0:
479,161,91510,1,4,0:0:0:0:
325,120,91677,2,0,B|337:231,1,99.0000030212403,0|2,1:0|0:0,0:0:0:0:
482,75,92010,5,4,0:0:0:0:
350,28,92177,2,0,P|311:27|255:54,1,99.0000030212403,2|0,0:0|1:0,0:0:0:0:
131,123,92510,1,2,0:0:0:0:
222,233,92677,1,4,0:0:0:0:
245,83,92844,1,6,0:0:0:0:
75,61,93010,2,0,P|51:112|64:167,1,99.0000030212403,0|2,1:0|0:0,0:0:0:0:
223,316,93344,6,0,P|205:241|68:239,1,198.000006042481,4|0,0:0|1:0,0:0:0:0:
16,355,93844,1,2,0:0:0:0:
175,369,94010,2,0,L|280:365,1,99.0000030212403,2|4,0:0|0:0,0:0:0:0:
395,218,94344,2,0,L|296:214,1,99.0000030212403,0|2,1:0|0:0,0:0:0:0:
395,354,94677,5,4,0:0:0:0:
512,241,94844,1,2,0:0:0:0:
369,131,95010,2,0,L|270:127,1,99.0000030212403,0|2,1:0|0:0,0:0:0:0:
395,218,95344,5,2,0:0:0:0:
493,104,95511,1,4,0:0:0:0:
344,52,95677,2,0,L|245:48,1,99.0000030212403,0|2,1:0|0:0,0:0:0:0:
47,193,96010,6,0,P|115:228|205:154,1,198.000006042481,4|0,0:0|1:0,0:0:0:0:
42,94,96510,2,0,L|47:215,1,99.0000030212403,0|2,0:0|0:0,0:0:0:0:
141,313,96844,1,4,0:0:0:0:
303,211,97010,1,0,1:0:0:0:
188,82,97177,1,4,0:0:0:0:
188,82,97260,1,4,0:0:0:0:
188,82,97344,5,8,1:3:0:0:
308,293,97510,2,0,B|359:289|384:227,1,99.0000030212403,4|12,0:0|0:0,0:0:0:0:
324,82,97844,5,8,1:3:0:0:
204,293,98010,2,0,B|153:289|128:227,1,99.0000030212403,4|12,0:0|0:0,0:0:0:0:
256,32,98344,1,8,1:3:0:0:
209,211,98510,1,4,0:0:0:0:
265,13,98677,6,0,L|382:21,1,99.0000030212403,4|0,0:0|0:0,0:0:0:0:
488,192,99011,2,0,L|371:200,1,99.0000030212403,0|0,1:0|0:0,0:0:0:0:
363,19,99344,1,2,0:0:0:0:
454,121,99511,1,4,0:0:0:0:
357,270,99677,1,0,1:0:0:0:
274,169,99844,1,2,0:0:0:0:
147,335,100011,5,4,0:0:0:0:
273,253,100177,1,0,0:0:0:0:
146,174,100344,2,0,L|35:182,1,99.0000030212403,0|0,1:0|0:0,0:0:0:0:
267,336,100677,5,2,0:0:0:0:
145,254,100843,1,4,0:0:0:0:
274,169,101010,2,0,L|385:177,1,99.0000030212403,0|2,1:0|0:0,0:0:0:0:
226,102,101344,5,4,0:0:0:0:
372,13,101510,1,0,0:0:0:0:
471,143,101677,1,0,1:0:0:0:
300,92,101844,1,0,0:0:0:0:
463,62,102010,1,2,0:0:0:0:
479,223,102177,1,4,0:0:0:0:
325,264,102344,2,0,B|337:153,1,99.0000030212403,0|2,1:0|0:0,0:0:0:0:
482,309,102677,5,4,0:0:0:0:
350,356,102844,2,0,P|311:357|255:330,1,99.0000030212403,2|0,0:0|1:0,0:0:0:0:
131,261,103177,1,2,0:0:0:0:
222,151,103344,2,0,P|246:202|233:257,1,99.0000030212403,2|4,0:0|0:0,0:0:0:0:
75,323,103677,2,0,P|51:272|64:217,1,99.0000030212403,0|2,1:0|0:0,0:0:0:0:
223,68,104011,6,0,P|205:143|68:145,1,198.000006042481,4|0,0:0|1:0,0:0:0:0:
16,29,104511,1,0,0:0:0:0:
175,15,104677,2,0,L|280:19,1,99.0000030212403,2|4,0:0|0:0,0:0:0:0:
395,166,105011,2,0,L|296:169,1,99.0000030212403,0|2,1:0|0:0,0:0:0:0:
395,30,105344,5,4,0:0:0:0:
512,143,105511,1,2,0:0:0:0:
369,253,105677,2,0,L|270:256,1,99.0000030212403,0|2,1:0|0:0,0:0:0:0:
317,152,106011,5,0,0:0:0:0:
465,212,106178,1,4,0:0:0:0:
344,332,106344,2,0,L|245:335,1,99.0000030212403,0|2,1:0|0:0,0:0:0:0:
47,191,106677,6,0,P|115:156|209:230,1,198.000006042481,4|0,0:0|1:0,0:0:0:0:
42,289,107177,2,0,L|47:168,1,99.0000030212403,0|2,0:0|0:0,0:0:0:0:
141,71,107511,1,6,0:0:0:0:
289,186,107677,1,0,1:0:0:0:
188,302,107844,1,0,1:0:0:0:
188,302,107927,1,0,1:0:0:0:
188,302,108011,5,12,1:3:0:0:
213,136,108177,1,8,1:3:0:0:
277,273,108344,1,8,1:3:0:0:
120,253,108510,1,8,1:3:0:0:
289,186,108677,5,8,1:3:0:0:
188,302,108844,1,8,1:3:0:0:
136,167,109010,1,8,1:3:0:0:
258,359,109177,1,8,1:3:0:0:
446,233,109344,5,2,0:0:0:0:
256,192,109510,12,0,113177,0:0:0:0:
422,218,113344,5,2,0:0:0:0:
422,218,114344,1,2,0:0:0:0:
372,295,114510,1,0,0:0:0:0:
263,200,114677,6,0,L|348:190,1,72,2|0,0:0|0:0,0:0:0:0:
296,272,115177,1,0,0:0:0:0:
133,287,115344,2,0,L|217:297,1,72,2|0,0:0|0:0,0:0:0:0:
271,186,116010,6,0,L|356:175,1,72,2|0,0:0|0:0,0:0:0:0:
296,272,116510,1,0,0:0:0:0:
142,301,116677,2,0,L|226:311,1,72,2|0,0:0|0:0,0:0:0:0:
280,171,117344,6,0,L|365:160,1,72,2|0,0:0|0:0,0:0:0:0:
296,272,117844,1,0,0:0:0:0:
151,316,118011,2,0,L|235:326,1,72,2|0,0:0|0:0,0:0:0:0:
289,156,118677,6,0,L|374:146,1,72,2|0,0:0|0:0,0:0:0:0:
296,272,119177,1,0,0:0:0:0:
159,330,119344,2,0,L|243:340,1,72,2|0,0:0|0:0,0:0:0:0:
199,120,120010,6,0,L|114:109,1,72,2|0,0:0|0:0,0:0:0:0:
281,126,120510,1,0,0:0:0:0:
329,206,120677,2,0,L|244:216,1,72,2|0,0:0|0:0,0:0:0:0:
190,105,121343,6,0,L|105:94,1,72,2|0,0:0|0:0,0:0:0:0:
281,126,121844,1,0,0:0:0:0:
320,220,122010,2,0,L|235:230,1,72,2|0,0:0|0:0,0:0:0:0:
181,90,122677,6,0,L|95:79,1,72,2|0,0:0|0:0,0:0:0:0:
281,126,123177,1,0,0:0:0:0:
311,235,123344,2,0,L|226:245,1,72,2|0,0:0|0:0,0:0:0:0:
172,76,124010,6,0,L|87:65,1,72,2|0,0:0|0:0,0:0:0:0:
281,126,124510,1,0,0:0:0:0:
303,249,124677,2,0,L|218:259,1,72,2|0,0:0|0:0,0:0:0:0:
488,118,125344,6,0,L|403:128,1,72,2|0,0:0|0:0,0:0:0:0:
311,189,125844,1,0,0:0:0:0:
158,81,126011,2,0,L|243:91,1,72,2|0,0:0|0:0,0:0:0:0:
479,133,126677,6,0,L|394:143,1,72,2|0,0:0|0:0,0:0:0:0:
311,189,127177,1,0,0:0:0:0:
167,95,127344,2,0,L|251:105,1,72,2|0,0:0|0:0,0:0:0:0:
470,148,127844,1,0,0:0:0:0:
470,148,127927,1,0,0:0:0:0:
470,148,128011,6,0,L|384:158,1,72,2|0,0:0|0:0,0:0:0:0:
311,189,128510,1,0,0:0:0:0:
176,110,128678,2,0,L|260:120,1,72,2|0,0:0|0:0,0:0:0:0:
461,162,129344,6,0,L|376:172,1,72,2|2,0:0|0:0,0:0:0:0:
311,189,129844,1,0,0:0:0:0:
184,124,130011,2,0,L|268:134,1,72,2|2,0:0|0:0,0:0:0:0:
292,267,130677,5,2,0:0:0:0:
