osu file format v14

[General]
AudioFilename: audio.mp3
AudioLeadIn: 0
PreviewTime: 65344
Countdown: 0
SampleSet: None
StackLeniency: 0.7
Mode: 0
LetterboxInBreaks: 0
WidescreenStoryboard: 0

[Editor]
Bookmarks: 11,21344,42677,48010,53344,64010,66677,88010,109344,130677
DistanceSpacing: 1
BeatDivisor: 4
GridSize: 16
TimelineZoom: 1.9

[Metadata]
Title:Daisy
TitleUnicode:Daisy
Artist:Lifetheory
ArtistUnicode:Lifetheory
Creator:_Yiiiii
Version:Normal
Source:
Tags:Abhor krt KuranteMelodii flower
BeatmapID:1167849
BeatmapSetID:549738

[Difficulty]
HPDrainRate:3.5
CircleSize:3
OverallDifficulty:4
ApproachRate:5
SliderMultiplier:0.9
SliderTickRate:1

[Events]
//Background and Video events
0,0,"BG.jpg",0,0
//Break Periods
2,64210,65477
//Storyboard Layer 0 (Background)
//Storyboard Layer 1 (Fail)
//Storyboard Layer 2 (Pass)
//Storyboard Layer 3 (Foreground)
//Storyboard Sound Samples

[TimingPoints]
11,333.333333333333,4,3,1,50,1,0
21010,-100,4,3,1,10,0,0
21344,-100,4,3,1,20,0,0
25344,-100,4,3,1,25,0,0
26677,-100,4,3,1,35,0,0
42677,-100,4,3,1,45,0,0
53344,-100,4,3,1,55,0,0
66677,-100,4,3,1,90,0,1
87844,-100,4,3,1,90,0,0
88010,-100,4,3,1,90,0,1
109344,-100,4,3,1,90,0,0
109510,-100,4,3,1,30,0,0
114677,-100,4,3,1,40,0,0

[Colours]
Combo1 : 73,73,73
Combo2 : 191,191,0
Combo3 : 159,159,159
Combo4 : 240,176,96

[HitObjects]
75,294,21010,5,0,0:0:0:0:
158,327,21344,6,0,P|412:302|345:7,1,630,2|0,0:0|0:0,0:0:0:0:
265,43,24010,2,0,B|144:81|189:13|74:50,1,180,2|2,0:0|0:0,0:0:0:0:
16,210,25344,2,0,B|137:248|92:180|207:217,1,180,2|2,0:0|0:0,0:0:0:0:
349,297,26677,6,0,B|406:231|395:158|395:158|468:123|464:39|420:4|368:-9|315:27|301:72|319:110|319:110|230:76|215:130|164:99,1,630,2|2,0:0|0:0,0:0:0:0:
167,9,29344,2,0,P|75:93|151:190,1,270,2|2,0:0|0:0,0:0:0:0:
237,200,30677,2,0,P|328:281|255:380,1,270,2|2,0:0|0:0,0:0:0:0:
165,377,32010,6,0,B|98:371|52:302|52:240|154:146|154:146|176:79|135:40|135:40|93:5|44:23|44:23|23:31|13:45,1,540,2|2,0:0|0:0,0:0:0:0:
48,212,34677,2,0,P|129:231|229:184,1,180,2|2,0:0|0:0,0:0:0:0:
339,65,36010,2,0,P|420:30|507:49,1,180,2|2,0:0|0:0,0:0:0:0:
491,228,37344,6,0,B|452:271|408:286|352:275|352:275|312:232|275:223|222:240|222:240|242:197|227:147|227:147|209:95|148:81|148:81|69:71|36:138,1,630,2|2,0:0|0:0,0:0:0:0:
24,219,40010,2,0,P|56:309|135:343,1,180,2|2,0:0|0:0,0:0:0:0:
308,343,41344,2,0,L|490:329,1,180,2|2,0:0|0:0,0:0:0:0:
413,164,42677,5,2,0:0:0:0:
361,89,43010,2,0,P|376:48|366:5,2,90,2|2|0,0:0|0:0|0:0,0:0:0:0:
318,169,44010,2,0,P|242:167|225:160,1,90,2|2,0:0|0:0,0:0:0:0:
145,131,44677,2,0,P|101:120|56:124,1,90,2|0,0:0|0:0,0:0:0:0:
32,211,45344,6,0,L|44:320,1,90,2|2,0:0|0:0,0:0:0:0:
129,279,46010,1,2,0:0:0:0:
196,338,46344,1,0,0:0:0:0:
273,291,46677,2,0,P|317:284|361:290,1,90,2|2,0:0|0:0,0:0:0:0:
439,336,47344,2,0,P|447:269|437:244,1,90,2|0,0:0|0:0,0:0:0:0:
372,189,48010,6,0,B|303:202|303:202|234:188,1,135,4|4,0:0|0:0,0:0:0:0:
208,57,49010,2,0,B|374:90,1,135,4|4,0:0|0:0,0:0:0:0:
466,131,50010,2,0,P|485:209|476:231,1,90,4|0,0:0|0:0,0:0:0:0:
466,306,50677,6,0,P|384:291|319:305,1,135,4|4,0:0|0:0,0:0:0:0:
212,360,51677,2,0,P|146:373|83:352,1,135,4|4,0:0|0:0,0:0:0:0:
78,267,52510,2,0,L|101:161,1,90,4|0,0:0|0:0,0:0:0:0:
139,162,53010,2,0,L|152:98,1,45,4|0,0:0|0:0,0:0:0:0:
181,86,53344,6,0,P|224:107|277:101,1,90,4|4,0:0|0:0,0:0:0:0:
344,61,54010,2,0,L|352:119,1,45
369,146,54344,2,0,L|361:204,1,45,4|0,0:0|0:0,0:0:0:0:
377,279,54844,2,0,P|415:332|450:342,2,90,4|0|0,0:0|0:0|0:0,0:0:0:0:
288,259,55844,1,0,0:0:0:0:
257,291,56010,6,0,P|182:304|155:291,1,90,12|0,0:0|0:0,0:0:0:0:
122,224,56677,2,0,L|132:162,1,45,0|0,0:0|0:0,0:0:0:0:
151,140,57010,2,0,L|141:78,1,45,12|0,0:0|0:0,0:0:0:0:
136,50,57344,2,0,P|199:9|272:66,1,180,0|12,0:0|0:0,0:0:0:0:
284,155,58344,2,0,L|276:216,1,45
286,243,58677,6,0,P|337:231|363:203,1,90,12|0,0:0|0:0,0:0:0:0:
375,161,59177,2,0,P|363:109|335:84,1,90,12|0,0:0|0:0,0:0:0:0:
292,76,59677,2,0,L|190:90,1,90,12|0,0:0|0:0,0:0:0:0:
158,96,60177,2,0,L|68:109,1,90,12|0,0:0|0:0,0:0:0:0:
29,129,60677,1,0,0:0:0:0:
37,218,61010,1,0,0:0:0:0:
83,294,61344,6,0,P|142:286|178:289,1,90,12|0,0:0|0:0,0:0:0:0:
214,302,61844,2,0,P|258:305|302:295,1,90,12|0,0:0|0:0,0:0:0:0:
324,255,62344,2,0,L|307:165,1,90,12|0,0:0|0:0,0:0:0:0:
342,138,62844,2,0,L|358:49,1,90,12|0,0:0|0:0,0:0:0:0:
336,10,63344,6,0,P|288:24|264:23,1,45
248,30,63677,2,0,P|226:34|205:43,1,45
186,84,64010,5,12,0:0:0:0:
186,84,66677,6,0,P|106:68|99:59,2,90,4|0|2,0:0|1:0|0:0,0:0:0:0:
229,71,67510,2,0,L|285:66,1,45,4|0,0:0|1:0,0:0:0:0:
362,57,68010,2,0,P|377:116|371:157,1,90,4|0,0:0|1:0,0:0:0:0:
335,225,68677,2,0,P|331:273|336:290,1,45,2|4,0:0|0:0,0:0:0:0:
346,311,69010,1,0,1:0:0:0:
346,311,69344,6,0,P|286:313|243:323,2,90,4|0|2,0:0|1:0|0:0,0:0:0:0:
390,318,70177,2,0,L|452:313,1,45,4|0,0:0|1:0,0:0:0:0:
470,231,70677,2,0,P|475:150|468:128,1,90,4|8,0:0|0:0,0:0:0:0:
449,55,71344,2,0,L|391:50,1,45,2|4,0:0|0:0,0:0:0:0:
359,49,71677,2,0,L|314:52,1,45,0|0,1:0|0:0,0:0:0:0:
269,60,72010,6,0,P|210:39|196:18,2,90,4|0|2,0:0|1:0|0:0,0:0:0:0:
285,102,72844,2,0,L|285:163,1,45,4|0,0:0|1:0,0:0:0:0:
281,237,73344,2,0,P|198:253|188:250,1,90,4|0,0:0|1:0,0:0:0:0:
139,185,74010,2,0,P|80:184|76:185,1,45,2|4,0:0|0:0,0:0:0:0:
51,197,74344,1,0,1:0:0:0:
26,110,74677,6,0,P|87:92|106:71,1,90,4|0,0:0|1:0,0:0:0:0:
178,22,75344,1,2,0:0:0:0:
267,26,75677,2,0,P|316:40|324:44,1,45,0|8,1:0|0:0,0:0:0:0:
345,65,76010,2,0,L|333:161,1,90,8|4,1:3|0:0,0:0:0:0:
293,173,76510,2,0,L|305:269,1,90,8|4,1:3|0:0,0:0:0:0:
335,294,77010,2,0,L|327:354,1,45,8|4,1:3|0:0,0:0:0:0:
306,377,77344,6,0,P|399:365|408:366,2,90,4|0|2,0:0|1:0|0:0,0:0:0:0:
263,362,78177,2,0,L|195:358,1,45,4|0,0:0|1:0,0:0:0:0:
141,311,78677,2,0,P|149:227|153:220,1,90,4|0,0:0|1:0,0:0:0:0:
241,216,79344,2,0,B|306:224|305:224,1,45,2|0,0:0|0:0,0:0:0:0:
330,218,79677,1,0,1:0:0:0:
330,218,80010,6,0,P|323:291|335:319,2,90,4|0|2,0:0|1:0|0:0,0:0:0:0:
357,181,80844,2,0,L|360:136,1,45,4|0,0:0|1:0,0:0:0:0:
439,92,81344,2,0,P|389:51|365:46,1,90,4|0,0:0|1:0,0:0:0:0:
276,31,82010,2,0,L|270:93,1,45,2|4,0:0|0:0,0:0:0:0:
240,109,82344,2,0,L|246:171,1,45,0|0,1:0|0:0,0:0:0:0:
269,190,82677,6,0,L|170:186,2,90,4|0|2,0:0|1:0|0:0,0:0:0:0:
313,181,83510,2,0,L|363:201,1,45,4|0,0:0|1:0,0:0:0:0:
425,254,84010,2,0,P|421:323|392:350,1,90,4|0,0:0|1:0,0:0:0:0:
321,353,84677,2,0,L|249:344,1,45,2|4,0:0|0:0,0:0:0:0:
238,371,85010,1,0,1:0:0:0:
147,368,85344,6,0,P|158:291|153:241,1,90,4|0,0:0|1:0,0:0:0:0:
147,191,86010,1,2,0:0:0:0:
186,110,86344,2,0,L|247:115,1,45,0|4,1:0|0:0,0:0:0:0:
275,118,86677,1,8,1:3:0:0:
359,94,87010,1,8,1:3:0:0:
436,136,87344,1,8,1:3:0:0:
462,220,87677,1,8,1:3:0:0:
376,245,88010,6,0,P|436:308|453:311,2,90,4|0|2,0:0|1:0|0:0,0:0:0:0:
380,200,88844,2,0,L|400:141,1,45,4|0,0:0|1:0,0:0:0:0:
411,70,89344,2,0,P|303:73|297:70,1,90,4|0,0:0|1:0,0:0:0:0:
234,70,90010,2,0,L|160:78,1,45,2|4,0:0|0:0,0:0:0:0:
145,86,90344,1,0,1:0:0:0:
145,86,90677,6,0,P|90:42|78:14,2,90,4|0|2,0:0|1:0|0:0,0:0:0:0:
159,128,91510,2,0,L|167:179,1,45,4|0,0:0|1:0,0:0:0:0:
256,167,92010,2,0,P|314:195|327:230,1,90,4|0,0:0|1:0,0:0:0:0:
352,305,92677,2,0,L|285:297,1,45,4|6,0:0|0:0,0:0:0:0:
280,335,93010,2,0,L|235:340,1,45,0|2,1:0|0:0,0:0:0:0:
197,314,93344,6,0,P|87:330|79:326,2,90,4|0|2,0:0|1:0|0:0,0:0:0:0:
217,273,94177,2,0,L|242:211,1,45,4|0,0:0|1:0,0:0:0:0:
262,145,94677,2,0,P|282:86|302:69,1,90,4|0,0:0|1:0,0:0:0:0:
392,69,95344,2,0,L|382:131,1,45,2|4,0:0|0:0,0:0:0:0:
349,140,95677,1,0,1:0:0:0:
401,211,96010,6,0,P|360:228|316:223,1,90,4|0,0:0|1:0,0:0:0:0:
250,159,96677,1,2,0:0:0:0:
225,73,97010,2,0,P|229:8|233:-5,1,45,0|4,1:0|0:0,0:0:0:0:
270,18,97344,2,0,P|334:27|357:60,1,90,8|12,1:3|0:0,0:0:0:0:
364,86,97844,2,0,P|399:112|443:111,1,90,8|12,1:3|0:0,0:0:0:0:
487,104,98344,2,0,L|476:184,1,45,8|4,1:3|0:0,0:0:0:0:
463,190,98677,6,0,P|455:233|463:277,2,90,4|0|2,0:0|1:0|0:0,0:0:0:0:
420,201,99510,2,0,L|348:201,1,45,4|0,0:0|1:0,0:0:0:0:
285,198,100010,2,0,P|228:144|224:120,1,90,4|0,0:0|1:0,0:0:0:0:
241,47,100677,2,0,L|307:54,1,45,2|4,0:0|0:0,0:0:0:0:
330,52,101010,1,0,1:0:0:0:
330,52,101344,6,0,P|395:28|432:30,2,90,4|0|2,0:0|1:0|0:0,0:0:0:0:
337,96,102177,2,0,L|340:176,1,45,4|0,0:0|1:0,0:0:0:0:
383,219,102677,2,0,P|327:254|278:248,1,90,4|0,0:0|1:0,0:0:0:0:
213,251,103344,2,0,L|138:256,1,45,2|4,0:0|0:0,0:0:0:0:
123,260,103677,1,0,1:0:0:0:
33,272,104010,6,0,P|48:184|46:164,2,90,4|0|2,0:0|1:0|0:0,0:0:0:0:
28,317,104844,2,0,L|87:322,1,45,4|0,0:0|1:0,0:0:0:0:
160,344,105344,2,0,L|278:355,1,90,4|0,0:0|1:0,0:0:0:0:
339,352,106010,2,0,P|374:349|403:341,1,45,0|4,0:0|0:0,0:0:0:0:
422,323,106344,1,0,1:0:0:0:
452,238,106677,6,0,L|442:111,1,90,4|0,0:0|1:0,0:0:0:0:
391,75,107344,1,2,0:0:0:0:
301,62,107677,2,0,L|235:74,1,45,0|0,1:0|1:0,0:0:0:0:
221,98,108010,5,8,1:3:0:0:
184,180,108344,1,8,1:3:0:0:
236,253,108677,1,8,1:3:0:0:
199,335,109010,1,8,1:3:0:0:
109,343,109344,1,2,0:0:0:0:
256,192,109510,12,2,113344,0:0:0:0:
150,155,114344,6,0,L|213:164,1,45,2|0,0:0|0:0,0:0:0:0:
239,165,114677,6,0,P|283:165|322:144,1,90,2|0,0:0|0:0,0:0:0:0:
346,57,115344,2,0,P|276:67|242:104,1,90,2|0,0:0|0:0,0:0:0:0:
239,165,116010,2,0,L|257:294,1,90,2|0,0:0|0:0,0:0:0:0:
331,295,116677,2,0,L|343:205,1,90,2|0,0:0|0:0,0:0:0:0:
358,162,117177,1,0,0:0:0:0:
381,123,117344,6,0,P|437:113|484:130,1,90,2|0,0:0|0:0,0:0:0:0:
489,208,118010,2,0,L|476:297,1,90,2|0,0:0|0:0,0:0:0:0:
435,315,118510,1,0,0:0:0:0:
390,318,118677,2,0,L|271:305,1,90,2|0,0:0|0:0,0:0:0:0:
220,266,119344,1,2,0:0:0:0:
149,322,119677,1,0,0:0:0:0:
71,276,120010,6,0,P|76:166|79:155,1,90,2|0,0:0|0:0,0:0:0:0:
86,143,120510,1,0,0:0:0:0:
122,115,120677,2,0,L|226:127,1,90,2|0,0:0|0:0,0:0:0:0:
301,143,121344,2,0,L|405:155,1,90,2|0,0:0|0:0,0:0:0:0:
432,170,121844,1,0,0:0:0:0:
446,212,122010,2,0,L|439:286,1,45,2|0,0:0|0:0,0:0:0:0:
402,278,122344,2,0,L|409:352,1,45,0|0,0:0|0:0,0:0:0:0:
420,365,122677,6,0,P|337:366|295:358,1,90,2|0,0:0|0:0,0:0:0:0:
286,352,123177,1,0,0:0:0:0:
246,329,123344,2,0,P|201:325|156:329,1,90,2|0,0:0|0:0,0:0:0:0:
96,261,124010,2,0,P|73:186|94:148,1,90,2|0,0:0|0:0,0:0:0:0:
162,155,124677,2,0,P|185:230|164:268,1,90,2|0,0:0|0:0,0:0:0:0:
271,261,125344,6,0,L|374:255,1,90,2|0,0:0|0:0,0:0:0:0:
384,169,126010,2,0,L|294:174,1,90,2|0,0:0|0:0,0:0:0:0:
249,176,126510,1,0,0:0:0:0:
203,179,126677,2,0,P|167:155|151:113,1,90,2|0,0:0|0:0,0:0:0:0:
61,101,127344,2,0,P|28:70|18:26,1,90,2|0,0:0|0:0,0:0:0:0:
107,26,128010,6,0,L|219:34,1,90,2|0,0:0|0:0,0:0:0:0:
285,46,128677,2,0,L|312:154,1,90,2|0,0:0|0:0,0:0:0:0:
321,222,129344,2,0,L|225:281,1,90,2|0,0:0|0:0,0:0:0:0:
164,310,130010,2,0,L|78:237,1,90,2|0,0:0|0:0,0:0:0:0:
112,163,130677,1,2,0:0:0:0:
