osu file format v14

[General]
AudioFilename: audio.mp3
AudioLeadIn: 0
PreviewTime: 65344
Countdown: 0
SampleSet: None
StackLeniency: 0.3
Mode: 0
LetterboxInBreaks: 0
WidescreenStoryboard: 0

[Editor]
Bookmarks: 11,21344,42677,48010,53344,64010,66677,88010,109344,130677
DistanceSpacing: 2
BeatDivisor: 4
GridSize: 16
TimelineZoom: 1.9

[Metadata]
Title:Daisy
TitleUnicode:Daisy
Artist:Lifetheory
ArtistUnicode:Lifetheory
Creator:_Yiiiii
Version:Blossom
Source:
Tags:Abhor krt KuranteMelodii flower
BeatmapID:1165153
BeatmapSetID:549738

[Difficulty]
HPDrainRate:6
CircleSize:4.2
OverallDifficulty:8.3
ApproachRate:9.2
SliderMultiplier:1.8
SliderTickRate:1

[Events]
//Background and Video events
0,0,"BG.jpg",0,0
//Break Periods
2,64210,66107
//Storyboard Layer 0 (Background)
//Storyboard Layer 1 (Fail)
//Storyboard Layer 2 (Pass)
//Storyboard Layer 3 (Foreground)
//Storyboard Sound Samples

[TimingPoints]
11,333.333333333333,4,3,1,50,1,0
21010,-200,4,3,1,10,0,0
21344,-133.333333333333,4,3,1,20,0,0
25344,-133.333333333333,4,3,1,25,0,0
26677,-133.333333333333,4,3,1,35,0,0
40010,-142.857142857143,4,3,1,35,0,0
40677,-153.846153846154,4,3,1,35,0,0
41344,-166.666666666667,4,3,1,35,0,0
42010,-200,4,3,1,35,0,0
42677,-113.636363636364,4,3,1,45,0,0
53344,-113.636363636364,4,3,1,55,0,0
66677,-90.9090909090909,4,3,1,90,0,1
87844,-90.9090909090909,4,3,1,90,0,0
88010,-90.9090909090909,4,3,1,90,0,1
109344,-133.333333333333,4,3,1,90,0,0
109510,-133.333333333333,4,3,1,30,0,0
114677,-113.636363636364,4,3,1,40,0,0
130677,-113.636363636364,4,3,1,20,0,0

[Colours]
Combo1 : 73,73,73
Combo2 : 191,191,0
Combo3 : 159,159,159
Combo4 : 240,176,96

[HitObjects]
170,194,21010,6,0,P|200:197|216:194,1,45
291,221,21344,6,0,P|363:197|427:210,1,135.000005149842,2|0,0:0|0:0,0:0:0:0:
471,271,21844,1,0,0:0:0:0:
395,299,22010,2,0,P|381:347|386:374,1,67.5000025749208,2|0,0:0|0:0,0:0:0:0:
496,185,22344,2,0,P|510:137|505:110,1,67.5000025749208,2|0,0:0|0:0,0:0:0:0:
377,39,22677,1,2,0:0:0:0:
296,45,22844,1,0,0:0:0:0:
399,111,23010,2,0,P|442:79|450:55,1,67.5000025749208,2|0,0:0|0:0,0:0:0:0:
228,5,23344,2,0,B|201:24|201:24|206:133,1,135.000005149842,2|0,0:0|0:0,0:0:0:0:
209,206,23844,1,0,0:0:0:0:
362,139,24010,6,0,P|410:143|436:162,1,67.5000025749208,2|0,0:0|0:0,0:0:0:0:
378,223,24344,2,0,P|353:247|343:278,1,67.5000025749208,2|0,0:0|0:0,0:0:0:0:
495,288,24677,2,0,L|428:292,1,67.5000025749208,2|0,0:0|0:0,0:0:0:0:
351,369,25010,1,0,0:0:0:0:
432,378,25177,1,2,0:0:0:0:
270,361,25344,2,0,B|250:334|250:334|273:226,1,135.000005149842,2|0,0:0|0:0,0:0:0:0:
355,165,25844,1,0,0:0:0:0:
432,274,26010,2,0,L|356:265,1,67.5000025749208,2|0,0:0|0:0,0:0:0:0:
280,165,26344,2,0,L|191:170,1,67.5000025749208,2|0,0:0|0:0,0:0:0:0:
76,214,26677,6,0,L|51:48,1,135.000005149842,2|0,0:0|0:0,0:0:0:0:
154,232,27177,2,0,P|130:273|41:285,1,135.000005149842,2|0,0:0|0:0,0:0:0:0:
0,168,27677,2,0,L|12:86,1,67.5000025749208,2|0,0:0|0:0,0:0:0:0:
124,56,28010,2,0,P|166:57|198:70,1,67.5000025749208,2|0,0:0|0:0,0:0:0:0:
334,100,28344,2,0,P|309:78|278:66,1,67.5000025749208,2|0,0:0|0:0,0:0:0:0:
267,229,28677,1,2,0:0:0:0:
246,146,28844,1,0,0:0:0:0:
335,272,29010,2,0,P|311:295|281:308,1,67.5000025749208,2|0,0:0|0:0,0:0:0:0:
143,281,29344,5,2,0:0:0:0:
170,134,29510,2,0,B|140:157|140:157|141:257,1,135.000005149842,2|0,0:0|0:0,0:0:0:0:
243,317,30010,2,0,L|310:301,1,67.5000025749208,2|0,0:0|0:0,0:0:0:0:
374,253,30344,2,0,L|448:256,1,67.5000025749208,2|0,0:0|0:0,0:0:0:0:
406,141,30677,1,2,0:0:0:0:
271,124,30844,2,0,B|253:142|253:142|367:142,1,135.000005149842,2|0,0:0|0:0,0:0:0:0:
471,74,31344,2,0,P|445:40|398:23,1,67.5000025749208,2|0,0:0|0:0,0:0:0:0:
276,45,31677,1,2,0:0:0:0:
352,56,31844,1,0,0:0:0:0:
219,97,32010,6,0,P|194:133|222:229,1,135.000005149842,2|0,0:0|0:0,0:0:0:0:
285,249,32510,1,0,0:0:0:0:
411,179,32677,2,0,P|374:135|342:127,1,67.5000025749208,2|0,0:0|0:0,0:0:0:0:
380,251,33010,1,2,0:0:0:0:
461,247,33177,1,0,0:0:0:0:
481,143,33344,2,0,P|457:80|409:34,1,135.000005149842,2|0,0:0|0:0,0:0:0:0:
338,73,33844,1,0,0:0:0:0:
225,65,34010,2,0,L|210:0,1,67.5000025749208,2|0,0:0|0:0,0:0:0:0:
136,166,34344,2,0,L|150:100,1,67.5000025749208,2|0,0:0|0:0,0:0:0:0:
197,216,34677,6,0,P|117:243|65:201,1,135.000005149842,2|0,0:0|0:0,0:0:0:0:
65,138,35177,1,0,0:0:0:0:
224,108,35344,2,0,L|290:127,1,67.5000025749208,2|0,0:0|0:0,0:0:0:0:
369,115,35677,2,0,L|421:175,1,67.5000025749208,2|0,0:0|0:0,0:0:0:0:
385,314,36010,1,2,0:0:0:0:
357,237,36177,1,0,0:0:0:0:
462,304,36344,2,0,P|451:359|420:381,1,67.5000025749208,2|0,0:0|0:0,0:0:0:0:
311,326,36677,2,0,L|248:304,1,67.5000025749208,2|0,0:0|0:0,0:0:0:0:
123,382,37010,2,0,L|186:359,1,67.5000025749208,2|0,0:0|0:0,0:0:0:0:
281,235,37344,6,0,P|288:162|274:97,1,135.000005149842,2|0,0:0|0:0,0:0:0:0:
208,57,37844,1,0,0:0:0:0:
104,172,38010,2,0,P|137:167|167:151,1,67.5000025749208,2|0,0:0|0:0,0:0:0:0:
206,216,38344,2,0,P|180:243|147:258,1,67.5000025749208,2|0,0:0|0:0,0:0:0:0:
281,235,38677,2,0,L|361:235,1,67.5000025749208,2|0,0:0|0:0,0:0:0:0:
418,279,39010,2,0,P|431:229|412:189,1,67.5000025749208,2|0,0:0|0:0,0:0:0:0:
373,153,39344,2,0,P|360:103|379:63,1,67.5000025749208,2|0,0:0|0:0,0:0:0:0:
441,111,39677,1,2,0:0:0:0:
285,65,39844,1,0,0:0:0:0:
268,63,39927,1,0,0:0:0:0:
251,61,40010,6,0,L|109:45,1,125.999996154785,2|0,0:0|0:0,0:0:0:0:
137,124,40510,1,0,0:0:0:0:
73,263,40677,2,0,L|62:197,1,58.4999973220826,2|0,0:0|0:0,0:0:0:0:
214,189,41010,2,0,L|201:263,1,58.4999973220826,2|0,0:0|0:0,0:0:0:0:
363,166,41344,6,0,P|372:192|371:219,1,53.9999983520508,2|0,0:0|0:0,0:0:0:0:
449,176,41677,2,0,L|524:182,1,53.9999983520508,2|0,0:0|0:0,0:0:0:0:
444,346,42010,6,0,P|440:324|444:302,1,45,2|0,0:0|0:0,0:0:0:0:
366,339,42343,2,0,L|307:334,1,45,2|0,0:0|0:0,0:0:0:0:
162,283,42677,6,0,L|70:290,1,79.2000024169922,2|0,0:0|0:0,0:0:0:0:
137,96,43010,1,2,0:0:0:0:
109,187,43177,1,0,0:0:0:0:
240,222,43344,2,0,P|296:237|335:224,1,79.2000024169922,2|0,0:0|0:0,0:0:0:0:
441,145,43677,2,0,P|402:142|366:157,1,79.2000024169922,2|0,0:0|0:0,0:0:0:0:
394,312,44010,2,0,L|415:235,1,79.2000024169922,2|0,0:0|0:0,0:0:0:0:
257,72,44344,2,0,L|278:149,1,79.2000024169922,2|0,0:0|0:0,0:0:0:0:
228,320,44677,1,2,0:0:0:0:
121,226,44844,1,0,0:0:0:0:
121,226,45010,1,0,0:0:0:0:
121,226,45177,1,0,0:0:0:0:
34,372,45344,6,0,P|78:377|123:373,1,79.2000024169922,2|0,0:0|0:0,0:0:0:0:
203,345,45677,2,0,P|242:342|281:347,1,79.2000024169922,2|0,0:0|0:0,0:0:0:0:
420,275,46010,1,2,0:0:0:0:
420,275,46177,1,0,0:0:0:0:
420,275,46344,1,0,0:0:0:0:
420,275,46510,1,0,0:0:0:0:
329,306,46677,2,0,P|278:309|227:294,1,79.2000024169922,2|0,0:0|0:0,0:0:0:0:
255,161,47010,2,0,P|306:158|357:173,1,79.2000024169922,2|0,0:0|0:0,0:0:0:0:
469,119,47344,1,2,0:0:0:0:
462,287,47510,1,0,0:0:0:0:
462,287,47677,1,0,0:0:0:0:
462,287,47844,1,0,0:0:0:0:
332,173,48010,6,0,P|244:165|226:173,1,79.2000024169922,4|0,0:0|0:0,0:0:0:0:
168,202,48344,1,0,0:0:0:0:
267,345,48510,2,0,L|277:266,1,79.2000024169922,4|0,0:0|0:0,0:0:0:0:
255,161,48844,1,0,0:0:0:0:
84,191,49010,2,0,L|94:269,1,79.2000024169922,4|0,0:0|0:0,0:0:0:0:
107,366,49344,1,0,0:0:0:0:
241,270,49510,2,0,P|279:263|318:267,2,79.2000024169922,4|0|0,0:0|0:0|0:0,0:0:0:0:
377,319,50010,2,0,P|396:278|385:228,1,79.2000024169922,4|0,0:0|0:0,0:0:0:0:
324,177,50344,1,0,0:0:0:0:
481,73,50510,1,0,0:0:0:0:
479,92,50593,1,0,0:0:0:0:
403,86,50677,6,0,L|412:175,1,79.2000024169922,4|0,0:0|0:0,0:0:0:0:
481,73,51010,1,0,0:0:0:0:
318,32,51177,2,0,P|270:29|218:47,1,79.2000024169922,4|0,0:0|0:0,0:0:0:0:
171,102,51510,1,0,0:0:0:0:
231,262,51677,2,0,L|309:251,1,79.2000024169922,4|0,0:0|0:0,0:0:0:0:
247,178,52010,1,0,0:0:0:0:
79,241,52177,2,0,L|92:332,1,79.2000024169922,4|0,0:0|0:0,0:0:0:0:
173,144,52510,2,0,L|160:235,1,79.2000024169922,4|0,0:0|0:0,0:0:0:0:
13,299,52844,1,0,0:0:0:0:
90,167,53010,1,0,0:0:0:0:
183,308,53177,1,0,0:0:0:0:
203,306,53260,1,0,0:0:0:0:
205,384,53344,6,0,L|292:367,1,79.2000024169922,4|0,0:0|0:0,0:0:0:0:
334,191,53677,2,0,L|411:206,1,79.2000024169922,0|4,0:0|0:0,0:0:0:0:
293,262,54010,2,0,P|252:203|258:162,1,79.2000024169922
452,137,54344,2,0,P|493:196|487:237,1,79.2000024169922,4|0,0:0|0:0,0:0:0:0:
472,293,54677,1,0,0:0:0:0:
259,226,54844,2,0,L|153:207,1,79.2000024169922,4|0,0:0|0:0,0:0:0:0:
87,195,55177,1,0,0:0:0:0:
156,360,55344,2,0,L|262:341,1,79.2000024169922,4|0,0:0|0:0,0:0:0:0:
328,329,55677,1,0,0:0:0:0:
373,165,55844,1,0,0:0:0:0:
373,189,55927,1,0,0:0:0:0:
451,178,56010,6,0,L|442:267,1,79.2000024169922,12|0,0:0|0:0,0:0:0:0:
406,344,56344,1,0,0:0:0:0:
257,270,56510,2,0,P|338:280|358:299,1,79.2000024169922,12|0,0:0|0:0,0:0:0:0:
406,344,56844,1,0,0:0:0:0:
249,373,57010,2,0,L|163:365,1,79.2000024169922,12|0,0:0|0:0,0:0:0:0:
106,294,57344,1,0,0:0:0:0:
194,185,57510,2,0,L|194:93,2,79.2000024169922,12|0|0,0:0|0:0|0:0,0:0:0:0:
315,277,58010,2,0,P|381:272|404:250,1,79.2000024169922,12|0,0:0|0:0,0:0:0:0:
410,108,58344,1,0,0:0:0:0:
465,245,58510,1,0,0:0:0:0:
470,281,58594,1,0,0:0:0:0:
390,265,58677,6,0,L|388:364,1,79.2000024169922,12|0,0:0|0:0,0:0:0:0:
476,379,59010,1,0,0:0:0:0:
460,207,59177,2,0,P|429:152|388:139,1,79.2000024169922,12|0,0:0|0:0,0:0:0:0:
321,149,59510,1,0,0:0:0:0:
287,324,59677,2,0,L|389:319,1,79.2000024169922,12|0,0:0|0:0,0:0:0:0:
450,276,60010,1,0,0:0:0:0:
283,218,60177,2,0,P|215:212|188:223,1,79.2000024169922,12|0,0:0|0:0,0:0:0:0:
149,291,60510,1,0,0:0:0:0:
325,369,60677,2,0,L|309:286,1,79.2000024169922,12|0,0:0|0:0,0:0:0:0:
149,369,61010,1,0,0:0:0:0:
28,259,61177,1,0,0:0:0:0:
61,275,61260,1,0,0:0:0:0:
60,189,61344,6,0,L|154:194,1,79.2000024169922,12|0,0:0|0:0,0:0:0:0:
233,201,61677,1,0,0:0:0:0:
196,32,61844,2,0,P|188:88|194:124,1,79.2000024169922,12|0,0:0|0:0,0:0:0:0:
233,201,62177,1,0,0:0:0:0:
410,189,62344,2,0,L|393:85,1,79.2000024169922,12|0,0:0|0:0,0:0:0:0:
325,48,62677,1,0,0:0:0:0:
512,147,62844,5,8,0:0:0:0:
280,140,63010,1,8,0:0:0:0:
397,110,63177,1,4,0:0:0:0:
397,110,63260,1,4,0:0:0:0:
397,110,63344,2,0,L|410:189,1,79.2000024169922,8|4,0:0|0:0,0:0:0:0:
512,0,63677,2,0,L|499:78,1,79.2000024169922,8|4,0:0|0:0,0:0:0:0:
360,278,64010,5,12,0:0:0:0:
379,41,66677,6,0,L|371:167,1,99.0000030212403,4|2,0:0|0:0,0:0:0:0:
352,345,67010,1,0,1:0:0:0:
264,250,67177,2,0,L|312:240,1,49.5000015106202,2|0,0:0|0:0,0:0:0:0:
419,212,67344,2,0,P|428:281|411:320,1,99.0000030212403,2|4,0:0|0:0,0:0:0:0:
206,324,67677,2,0,L|84:315,1,99.0000030212403,0|0,1:0|0:0,0:0:0:0:
207,87,68010,5,4,0:0:0:0:
100,204,68177,1,2,0:0:0:0:
100,204,68344,1,0,1:0:0:0:
220,247,68510,1,2,0:0:0:0:
272,55,68677,2,0,P|220:17|161:33,1,99.0000030212403,2|4,0:0|0:0,0:0:0:0:
17,163,69010,2,0,L|33:286,1,99.0000030212403,0|0,1:0|0:0,0:0:0:0:
266,302,69344,6,0,B|287:144|287:144|252:169,1,198.000006042481,4|0,0:0|1:0,0:0:0:0:
360,243,69844,1,0,0:0:0:0:
200,341,70010,1,2,0:0:0:0:
237,372,70093,1,0,0:0:0:0:
286,376,70176,1,4,0:0:0:0:
151,184,70344,1,0,1:0:0:0:
266,302,70510,1,0,0:0:0:0:
84,326,70677,5,4,0:0:0:0:
216,231,70844,1,2,0:0:0:0:
216,231,71010,1,8,0:0:0:0:
239,356,71177,1,0,0:0:0:0:
128,212,71344,2,0,L|133:98,1,99.0000030212403,2|4,0:0|0:0,0:0:0:0:
283,267,71677,2,0,P|239:303|183:295,1,99.0000030212403,0|0,1:0|0:0,0:0:0:0:
198,65,72010,6,0,B|233:20|233:20|383:26,1,198.000006042481,4|0,0:0|1:0,0:0:0:0:
363,154,72510,1,0,0:0:0:0:
157,131,72677,2,0,P|121:56|148:13,1,99.0000030212403,2|4,0:0|0:0,0:0:0:0:
286,198,73010,2,0,L|272:311,1,99.0000030212403,0|2,1:0|0:0,0:0:0:0:
239,116,73344,5,4,0:0:0:0:
100,229,73510,1,2,0:0:0:0:
100,229,73677,1,0,1:0:0:0:
226,294,73844,2,0,L|176:294,1,49.5000015106202,2|0,0:0|0:0,0:0:0:0:
46,283,74010,2,0,P|23:234|58:165,1,99.0000030212403,2|4,0:0|0:0,0:0:0:0:
220,124,74344,2,0,L|184:236,1,99.0000030212403,0|0,1:0|0:0,0:0:0:0:
341,43,74677,6,0,L|325:155,1,99.0000030212403,4|0,0:0|0:0,0:0:0:0:
287,348,75010,1,0,1:0:0:0:
388,266,75177,1,0,0:0:0:0:
177,242,75344,2,0,L|128:236,2,49.5000015106202,2|0|4,0:0|0:0|0:0,0:0:0:0:
297,118,75677,2,0,P|403:123|414:118,1,99.0000030212403,0|8,1:0|0:0,0:0:0:0:
461,160,75927,1,8,0:0:0:0:
475,67,76010,6,0,L|488:168,1,99.0000030212403,8|4,1:3|0:0,0:0:0:0:
504,384,76344,1,4,0:0:0:0:
225,250,76510,6,0,L|353:251,1,99.0000030212403,8|4,1:3|0:0,0:0:0:0:
72,344,76844,1,4,0:0:0:0:
328,223,77010,6,0,L|456:224,1,99.0000030212403,8|4,1:3|0:0,0:0:0:0:
90,41,77344,6,0,L|101:170,1,99.0000030212403,4|0,0:0|0:0,0:0:0:0:
145,352,77677,1,0,1:0:0:0:
192,242,77844,2,0,L|140:236,1,49.5000015106202
21,238,78010,2,0,P|16:297|41:347,1,99.0000030212403,2|4,0:0|0:0,0:0:0:0:
115,156,78344,2,0,L|106:57,1,99.0000030212403,0|0,1:0|0:0,0:0:0:0:
276,241,78677,5,4,0:0:0:0:
115,156,78844,1,2,0:0:0:0:
115,156,79010,1,0,1:0:0:0:
258,119,79177,1,2,0:0:0:0:
105,232,79344,2,0,P|50:199|39:153,1,99.0000030212403,2|0,0:0|0:0,0:0:0:0:
242,198,79677,2,0,L|224:307,1,99.0000030212403,0|2,1:0|0:0,0:0:0:0:
118,76,80010,6,0,P|212:83|247:170,1,198.000006042481,4|0,0:0|1:0,0:0:0:0:
115,156,80510,1,0,0:0:0:0:
253,73,80677,2,0,L|363:62,1,99.0000030212403,2|4,0:0|0:0,0:0:0:0:
447,234,81010,2,0,L|337:223,1,99.0000030212403,0|0,1:0|0:0,0:0:0:0:
253,73,81344,5,4,0:0:0:0:
212,274,81510,1,2,0:0:0:0:
212,274,81677,1,0,1:0:0:0:
296,171,81844,1,2,0:0:0:0:
158,82,82010,2,0,L|172:187,1,99.0000030212403,2|4,0:0|0:0,0:0:0:0:
207,384,82344,2,0,P|253:369|280:328,1,99.0000030212403,0|0,1:0|0:0,0:0:0:0:
466,251,82677,6,0,B|449:297|449:297|423:142,1,198.000006042481,4|0,0:0|1:0,0:0:0:0:
505,49,83177,1,0,0:0:0:0:
386,188,83344,1,2,0:0:0:0:
337,196,83427,1,0,0:0:0:0:
289,187,83510,1,4,0:0:0:0:
218,8,83677,2,0,P|266:9|306:52,1,99.0000030212403,0|0,1:0|0:0,0:0:0:0:
222,233,84010,5,4,0:0:0:0:
180,85,84177,1,0,0:0:0:0:
289,187,84344,2,0,P|300:260|257:302,1,99.0000030212403,0|0,1:0|0:0,0:0:0:0:
122,243,84677,1,2,0:0:0:0:
219,330,84844,1,4,0:0:0:0:
162,161,85010,1,0,1:0:0:0:
200,344,85177,1,0,0:0:0:0:
387,322,85344,6,0,B|415:291|415:291|411:124,1,198.000006042481,4|0,0:0|1:0,0:0:0:0:
290,180,85844,1,0,0:0:0:0:
498,245,86010,2,0,L|495:160,2,49.5000015106202,2|4|4,0:0|0:0|0:0,0:0:0:0:
279,380,86344,2,0,L|276:270,1,99.0000030212403,0|4,1:0|0:0,0:0:0:0:
221,229,86594,1,0,0:0:0:0:
276,281,86677,5,8,1:3:0:0:
200,75,86844,1,8,1:3:0:0:
383,226,87010,1,8,1:3:0:0:
198,153,87177,1,8,1:3:0:0:
356,371,87344,1,8,1:3:0:0:
393,106,87510,1,8,1:3:0:0:
129,69,87677,1,8,1:3:0:0:
92,334,87844,1,8,1:3:0:0:
371,178,88010,6,0,B|346:167|332:147|332:147|337:305,1,198.000006042481,4|0,0:0|1:0,0:0:0:0:
450,234,88510,1,0,0:0:0:0:
351,77,88677,2,0,P|284:92|265:120,1,99.0000030212403,2|4,0:0|0:0,0:0:0:0:
369,313,89010,2,0,L|365:214,1,99.0000030212403,0|0,1:0|0:0,0:0:0:0:
223,35,89344,5,4,0:0:0:0:
397,4,89510,1,2,0:0:0:0:
397,4,89677,1,0,1:0:0:0:
340,119,89844,1,2,0:0:0:0:
223,35,90010,2,0,L|116:45,1,99.0000030212403,2|4,0:0|0:0,0:0:0:0:
5,248,90344,2,0,L|112:258,1,99.0000030212403,0|0,1:0|0:0,0:0:0:0:
323,310,90677,6,0,P|351:202|290:169,1,198.000006042481,4|0,0:0|1:0,0:0:0:0:
241,288,91177,1,0,0:0:0:0:
410,268,91344,2,0,P|447:228|458:180,1,99.0000030212403,2|4,0:0|0:0,0:0:0:0:
291,29,91677,2,0,B|292:29|192:40,1,99.0000030212403,0|2,1:0|0:0,0:0:0:0:
57,217,92010,6,0,P|45:149|70:112,1,99.0000030212403,4|2,0:0|0:0,0:0:0:0:
274,88,92344,1,0,1:0:0:0:
162,255,92511,1,2,0:0:0:0:
131,218,92594,1,0,0:0:0:0:
126,170,92677,1,4,0:0:0:0:
162,41,92844,1,6,0:0:0:0:
325,151,93010,2,0,L|312:284,1,99.0000030212403,0|2,1:0|0:0,0:0:0:0:
94,297,93344,6,0,B|73:334|73:334|57:157,1,198.000006042481,4|0,0:0|1:0,0:0:0:0:
151,89,93844,1,2,0:0:0:0:
246,211,94010,2,0,P|189:223|145:209,1,99.0000030212403,2|4,0:0|0:0,0:0:0:0:
299,48,94344,2,0,L|413:51,1,99.0000030212403,0|2,1:0|0:0,0:0:0:0:
400,242,94677,5,4,0:0:0:0:
280,125,94844,1,2,0:0:0:0:
280,125,95010,1,0,1:0:0:0:
318,266,95177,1,2,0:0:0:0:
474,234,95344,2,0,L|463:130,1,99.0000030212403,2|4,0:0|0:0,0:0:0:0:
390,384,95677,2,0,L|401:280,1,99.0000030212403,0|2,1:0|0:0,0:0:0:0:
144,221,96010,6,0,B|117:194|117:194|283:201,1,198.000006042481,4|0,0:0|1:0,0:0:0:0:
180,286,96510,1,0,0:0:0:0:
141,120,96677,2,0,P|136:55|163:20,1,99.0000030212403,2|4,0:0|0:0,0:0:0:0:
386,49,97010,2,0,L|376:152,1,99.0000030212403,0|4,1:0|0:0,0:0:0:0:
334,208,97260,1,4,0:0:0:0:
419,254,97344,6,0,P|364:230|304:248,1,99.0000030212403,8|4,1:3|0:0,0:0:0:0:
94,348,97677,1,12,0:0:0:0:
349,118,97844,6,0,P|355:38|341:5,1,99.0000030212403,8|4,1:3|0:0,0:0:0:0:
174,252,98177,1,12,0:0:0:0:
452,92,98344,6,0,P|434:13|411:-13,1,99.0000030212403,8|4,1:3|0:0,0:0:0:0:
199,119,98677,6,0,B|173:98|173:98|336:90,1,198.000006042481,4|0,0:0|1:0,0:0:0:0:
238,7,99177,1,0,0:0:0:0:
190,149,99344,2,0,L|209:270,1,99.0000030212403,2|4,0:0|0:0,0:0:0:0:
387,148,99677,2,0,P|416:88|399:47,1,99.0000030212403,0|2,1:0|0:0,0:0:0:0:
198,42,100010,5,4,0:0:0:0:
365,0,100177,1,0,0:0:0:0:
365,0,100344,1,0,1:0:0:0:
261,94,100510,1,0,0:0:0:0:
388,194,100677,2,0,P|396:271|382:295,1,99.0000030212403,2|4,0:0|0:0,0:0:0:0:
167,219,101010,2,0,L|184:122,1,99.0000030212403,0|2,1:0|0:0,0:0:0:0:
244,305,101344,6,0,B|80:306|80:306|107:281,1,198.000006042481,4|0,0:0|1:0,0:0:0:0:
210,184,101844,1,0,0:0:0:0:
46,244,102010,1,2,0:0:0:0:
14,280,102093,1,0,0:0:0:0:
13,329,102176,1,4,0:0:0:0:
220,283,102344,2,0,L|210:180,1,99.0000030212403,0|2,1:0|0:0,0:0:0:0:
337,69,102677,6,0,L|327:167,1,99.0000030212403,4|2,0:0|0:0,0:0:0:0:
108,173,103010,1,0,1:0:0:0:
222,60,103177,2,0,L|231:158,1,99.0000030212403,2|2,0:0|0:0,0:0:0:0:
300,287,103510,1,4,0:0:0:0:
410,94,103677,2,0,P|405:30|375:0,1,99.0000030212403,0|2,1:0|0:0,0:0:0:0:
304,213,104010,6,0,B|316:369|316:369|339:331,1,198.000006042481,4|0,0:0|1:0,0:0:0:0:
230,261,104510,1,0,0:0:0:0:
375,178,104677,1,2,0:0:0:0:
423,175,104760,1,0,0:0:0:0:
468,195,104843,1,4,0:0:0:0:
337,333,105010,2,0,B|212:332,1,99.0000030212403,0|2,1:0|0:0,0:0:0:0:
327,156,105344,6,0,P|313:75|280:60,1,99.0000030212403,4|2,0:0|0:0,0:0:0:0:
95,146,105677,1,0,1:0:0:0:
204,213,105844,2,0,L|310:233,1,99.0000030212403,2|0,0:0|0:0,0:0:0:0:
400,102,106177,1,4,0:0:0:0:
194,9,106344,2,0,L|210:113,1,99.0000030212403,0|2,1:0|0:0,0:0:0:0:
430,254,106677,6,0,P|490:199|428:106,1,198.000006042481,4|0,0:0|1:0,0:0:0:0:
313,124,107177,1,0,0:0:0:0:
275,315,107344,2,0,L|384:305,1,99.0000030212403,2|6,0:0|0:0,0:0:0:0:
238,71,107677,2,0,P|203:116|202:176,1,99.0000030212403,0|0,1:0|1:0,0:0:0:0:
263,194,107927,1,0,0:0:0:0:
198,156,108010,5,8,1:3:0:0:
417,180,108177,1,8,1:3:0:0:
155,239,108344,1,8,1:3:0:0:
411,294,108510,1,8,1:3:0:0:
317,43,108677,1,8,1:3:0:0:
263,363,108844,1,8,1:3:0:0:
500,142,109010,1,8,1:3:0:0:
225,0,109177,1,8,1:3:0:0:
364,279,109344,6,0,P|404:282|431:270,1,67.5000025749208,2|0,0:0|0:0,0:0:0:0:
417,184,109677,2,0,P|377:181|350:193,1,67.5000025749208,2|0,0:0|0:0,0:0:0:0:
265,278,110010,2,0,P|209:290|127:270,1,135.000005149842,2|0,0:0|0:0,0:0:0:0:
183,201,110510,1,0,0:0:0:0:
142,101,110677,6,0,L|145:33,1,67.5000025749208,2|0,0:0|0:0,0:0:0:0:
223,39,111010,2,0,L|219:106,1,67.5000025749208
65,96,111344,2,0,L|68:28,1,67.5000025749208,2|0,0:0|0:0,0:0:0:0:
145,33,111677,2,0,L|142:101,1,67.5000025749208,0|0,0:0|0:0,0:0:0:0:
88,228,112010,6,0,L|173:219,1,67.5000025749208,2|0,0:0|0:0,0:0:0:0:
241,201,112344,2,0,L|308:208,1,67.5000025749208
181,303,112677,2,0,L|266:294,1,67.5000025749208,2|0,0:0|0:0,0:0:0:0:
334,276,113011,2,0,L|401:283,1,67.5000025749208
487,167,113344,6,0,P|466:74|410:67,1,135.000005149842,2|0,0:0|0:0,0:0:0:0:
362,108,113844,1,0,0:0:0:0:
238,42,114010,2,0,L|149:54,1,67.5000025749208,2|0,0:0|0:0,0:0:0:0:
125,126,114344,1,0,0:0:0:0:
125,126,114510,1,0,0:0:0:0:
237,323,114677,6,0,P|267:243|250:168,1,158.400004833984,2|0,0:0|0:0,0:0:0:0:
351,202,115177,1,0,0:0:0:0:
421,103,115344,2,0,P|501:113|504:112,1,79.2000024169922,2|0,0:0|0:0,0:0:0:0:
475,269,115677,2,0,P|463:231|467:192,1,79.2000024169922
396,257,116010,6,0,L|475:269,1,79.2000024169922,2|0,0:0|0:0,0:0:0:0:
288,337,116344,2,0,L|366:325,1,79.2000024169922
179,226,116677,2,0,L|267:239,1,79.2000024169922,2|0,0:0|0:0,0:0:0:0:
71,306,117011,2,0,L|149:294,1,79.2000024169922
287,239,117344,6,0,P|325:190|322:156,1,79.2000024169922,2|0,0:0|0:0,0:0:0:0:
197,307,117677,2,0,P|258:315|286:295,1,79.2000024169922
81,251,118010,2,0,P|104:308|135:322,1,79.2000024169922,2|0,0:0|0:0,0:0:0:0:
67,138,118344,2,0,P|29:187|32:220,1,79.2000024169922
216,214,118677,6,0,L|304:212,1,79.2000024169922,2|0,0:0|0:0,0:0:0:0:
389,211,119010,1,0,0:0:0:0:
311,142,119177,1,0,0:0:0:0:
331,280,119344,2,0,L|341:363,1,79.2000024169922,2|0,0:0|0:0,0:0:0:0:
430,307,119677,1,0,0:0:0:0:
389,211,119844,1,0,0:0:0:0:
262,332,120010,6,0,P|188:333|176:329,1,79.2000024169922,2|0,0:0|0:0,0:0:0:0:
107,253,120344,2,0,P|181:254|193:250,1,79.2000024169922
265,151,120677,2,0,P|191:152|179:148,1,79.2000024169922,2|0,0:0|0:0,0:0:0:0:
110,72,121011,2,0,P|184:73|196:69,1,79.2000024169922
79,6,121344,5,2,0:0:0:0:
17,88,121510,1,0,0:0:0:0:
84,207,121677,2,0,L|81:297,1,79.2000024169922
27,373,122010,1,2,0:0:0:0:
2,272,122177,1,0,0:0:0:0:
154,333,122344,2,0,P|209:336|239:327,1,79.2000024169922
329,226,122677,6,0,L|309:323,1,79.2000024169922,2|0,0:0|0:0,0:0:0:0:
228,166,123010,2,0,L|248:263,1,79.2000024169922
352,60,123344,2,0,L|332:157,1,79.2000024169922,2|0,0:0|0:0,0:0:0:0:
251,0,123677,2,0,L|271:97,1,79.2000024169922
422,125,124010,6,0,L|503:116,1,79.2000024169922,2|0,0:0|0:0,0:0:0:0:
417,200,124344,2,0,L|336:191,1,79.2000024169922
411,309,124677,2,0,L|492:300,1,79.2000024169922,2|0,0:0|0:0,0:0:0:0:
406,384,125011,2,0,L|325:375,1,79.2000024169922
250,277,125344,5,2,0:0:0:0:
185,356,125510,1,0,0:0:0:0:
57,293,125677,2,0,P|55:231|65:212,1,79.2000024169922
157,178,126010,2,0,P|186:120|185:93,1,79.2000024169922,2|0,0:0|0:0,0:0:0:0:
127,28,126344,1,0,0:0:0:0:
24,17,126510,1,0,0:0:0:0:
186,107,126677,6,0,L|89:112,1,79.2000024169922,2|0,0:0|0:0,0:0:0:0:
297,76,127010,2,0,L|210:31,1,79.2000024169922
419,103,127344,2,0,L|366:21,1,79.2000024169922,2|0,0:0|0:0,0:0:0:0:
501,182,127677,2,0,L|496:102,1,79.2000024169922
498,82,127927,1,0,0:0:0:0:
499,62,128010,6,0,L|421:44,1,79.2000024169922,2|0,0:0|0:0,0:0:0:0:
334,227,128344,2,0,L|421:194,1,79.2000024169922
283,34,128677,2,0,L|288:125,1,79.2000024169922,2|0,0:0|0:0,0:0:0:0:
486,310,129010,2,0,L|462:213,1,79.2000024169922
182,251,129344,6,0,P|122:260|88:279,1,79.2000024169922,2|0,0:0|0:0,0:0:0:0:
182,132,129677,2,0,P|142:130|105:116,1,79.2000024169922,2|0,0:0|0:0,0:0:0:0:
330,133,130010,2,0,P|390:124|424:105,1,79.2000024169922,2|0,0:0|0:0,0:0:0:0:
329,251,130344,2,0,P|369:253|406:267,1,79.2000024169922,2|0,0:0|0:0,0:0:0:0:
256,192,130677,6,0,L|256:240,2,39.6000012084961,2|2|0,0:0|0:0|0:0,0:0:0:0:
