osu file format v14

[General]
AudioFilename: audio.mp3
AudioLeadIn: 0
PreviewTime: 66594
Countdown: 0
SampleSet: Soft
StackLeniency: 0.7
Mode: 2
LetterboxInBreaks: 0
WidescreenStoryboard: 0

[Editor]
Bookmarks: 46010,134677
DistanceSpacing: 1
BeatDivisor: 4
GridSize: 8
TimelineZoom: 2

[Metadata]
Title:Daisy
TitleUnicode:Daisy
Artist:Lifetheory
ArtistUnicode:Lifetheory
Creator:Dapuluous
Version:Rain
Source:
Tags:dnb drum and bass flower bastian -joni- idust idu5t dust du5t
BeatmapID:2077322
BeatmapSetID:993396

[Difficulty]
HPDrainRate:5
CircleSize:4
OverallDifficulty:9
ApproachRate:9
SliderMultiplier:1.9
SliderTickRate:2

[Events]
//Background and Video events
0,0,"28.jpg",0,0
//Break Periods
//Storyboard Layer 0 (Background)
//Storyboard Layer 1 (Fail)
//Storyboard Layer 2 (Pass)
//Storyboard Layer 3 (Foreground)
//Storyboard Layer 4 (Overlay)
//Storyboard Sound Samples

[TimingPoints]
11,333.333333333333,4,2,11,40,1,0
11,-100,4,2,11,40,0,0
21344,-100,4,2,11,50,0,0
42677,-100,4,2,22,60,0,0
53344,-100,4,2,22,67,0,0
60010,-100,4,2,22,74,0,0
66677,-100,4,2,33,85,0,1
77010,-100,4,2,33,85,0,0
77344,-100,4,2,33,85,0,1
87677,-100,4,2,33,85,0,0
88010,-100,4,2,33,85,0,1
98344,-100,4,2,33,85,0,0
98677,-100,4,2,33,85,0,1
109344,-100,4,2,22,50,0,0
110677,-100,4,2,11,50,0,0
130677,-100,4,2,11,40,0,0
132010,-100,4,2,22,25,0,0
133344,-100,4,2,22,15,0,0

[Colours]
Combo1 : 212,212,212
Combo2 : 100,160,60
Combo3 : 255,230,0

[HitObjects]
280,56,11,6,0,B|280:152|280:152|32:152|32:152|32:232|32:232|376:232|376:232,1,760,0|8,0:0|0:0,0:0:0:0:
440,192,4010,5,0,0:0:0:0:
96,40,5344,6,0,P|288:48|72:320,1,760,0|8,0:0|0:0,0:0:0:0:
416,192,8010,5,0,0:0:0:0:
304,320,9344,6,0,B|248:112|56:56|56:56|96:264|304:320,2,760,0|0|8,0:0|0:0|0:0,0:0:0:0:
416,192,13344,5,0,0:0:0:0:
152,120,14677,6,0,B|392:120|392:120|392:264|392:264|152:264|152:264|152:128,2,760,0|0|8,0:0|0:0|0:0,0:0:0:0:
216,216,18510,2,0,L|288:216,1,47.5,0|0,0:0|0:0,0:0:0:0:
373,136,18677,6,0,P|434:213|243:297,1,380,0|0,0:0|0:0,0:0:0:0:
440,192,20010,5,8,0:0:0:0:
128,72,21010,2,0,L|32:72,1,95,0|0,0:0|0:0,0:0:0:0:
216,72,21344,6,0,P|272:120|200:192,1,190,10|0,0:0|0:0,0:0:0:0:
64,208,22010,2,0,P|48:296|136:320,1,190,2|0,0:0|0:0,0:0:0:0:
416,344,22677,6,0,P|472:272|400:216,1,190,2|0,0:0|0:0,0:0:0:0:
248,104,23344,2,0,P|352:104|416:32,1,190,2|2,0:0|0:0,0:0:0:0:
328,64,23844,5,2,0:0:0:0:
32,112,24177,2,0,P|80:208|152:192,1,190,2|0,0:0|0:0,0:0:0:0:
312,232,24677,2,0,L|217:232,2,95,2|2|2,0:0|0:0|0:0,0:0:0:0:
400,184,25177,1,2,0:0:0:0:
143,31,25344,6,0,P|143:119|231:119,1,190,2|2,0:0|0:0,0:0:0:0:
369,224,26010,2,0,P|417:256|353:344,1,190,2|2,0:0|0:0,0:0:0:0:
48,48,26677,6,0,B|240:48|240:48|240:152|240:152|40:152|40:152|40:256|40:256|344:256|344:256|344:312|344:312|40:312|40:312|40:232|40:232,1,1330,10|2,0:0|0:0,0:0:0:0:
144,72,29177,6,0,L|32:72,1,95,2|0,0:0|0:0,0:0:0:0:
232,136,29510,2,0,P|344:184|152:256,1,475,2|0,0:0|0:0,0:0:0:0:
488,136,30677,6,0,B|280:136|280:136|464:136|464:136|280:136,1,570,2|2,0:0|0:0,0:0:0:0:
192,136,31844,1,2,0:0:0:0:
376,40,32010,6,0,B|472:40|472:40|472:112|472:112|264:112|264:112|264:168|264:168|464:168|464:168|464:224|464:224|168:224,1,950,10|0,0:0|0:0,0:0:0:0:
360,152,34010,2,0,P|416:192|344:272,1,190,2|0,0:0|0:0,0:0:0:0:
40,304,34677,6,0,P|336:304|472:72,1,570,2|0,0:0|0:0,0:0:0:0:
168,48,36010,6,0,B|80:48|80:48|360:48|360:48|112:48|112:48,1,570,10|0,0:0|0:0,0:0:0:0:
464,112,37344,6,0,P|248:312|40:176,2,570,10|0|2,0:0|0:0|0:0,0:0:0:0:
224,152,39844,2,0,L|296:152,1,47.5,0|0,0:0|0:0,0:0:0:0:
384,64,40010,6,0,P|440:88|312:280,1,380,10|2,0:0|0:0,0:0:0:0:
176,128,41010,6,0,L|81:128,2,95,2|2|2,0:0|0:0|0:0,0:0:0:0:
336,40,41677,2,0,P|376:48|432:328,1,380,2|2,0:0|0:0,0:0:0:0:
40,128,42677,6,0,L|144:136,1,95,2|0,0:0|0:0,0:0:0:0:
40,200,43010,2,0,L|32:304,1,95,0|0,0:0|0:0,0:0:0:0:
200,304,43344,1,2,0:0:0:0:
368,312,43510,2,0,L|472:304,2,95,0|0|0,0:0|0:0|0:0,0:0:0:0:
184,80,44010,6,0,L|72:104,1,95,2|0,0:0|0:0,0:0:0:0:
192,144,44344,2,0,L|64:168,1,95,0|0,0:0|0:0,0:0:0:0:
280,208,44677,1,2,0:0:0:0:
186,221,44843,1,0,0:0:0:0:
110,276,45010,1,0,0:0:0:0:
66,359,45176,1,0,0:0:0:0:
336,32,45344,6,0,L|464:32,2,95,2|0|0,0:0|0:0|0:0,0:0:0:0:
248,56,45844,1,0,0:0:0:0:
64,192,46010,2,0,L|40:312,1,95,2|0,0:0|0:0,0:0:0:0:
144,96,46344,2,0,L|24:104,1,95,2|0,0:0|0:0,0:0:0:0:
216,240,46677,5,2,0:0:0:0:
384,80,46844,2,0,L|488:72,2,95,0|0|2,0:0|0:0|0:0,0:0:0:0:
216,152,47344,2,0,L|328:160,1,95,0|0,0:0|0:0,0:0:0:0:
208,216,47677,2,0,L|104:208,1,95,2|2,0:0|0:0,0:0:0:0:
352,296,48010,6,0,L|464:304,2,95,8|0|0,0:0|0:0|0:0,0:0:0:0:
168,80,48510,2,0,L|64:88,2,95,8|0|0,0:0|0:0|0:0,0:0:0:0:
352,192,49010,1,8,0:0:0:0:
260,209,49176,1,0,0:0:0:0:
203,283,49343,5,0,0:0:0:0:
384,56,49510,1,8,0:0:0:0:
292,73,49676,1,0,0:0:0:0:
235,147,49843,1,0,0:0:0:0:
416,288,50010,2,0,L|321:294,1,95,10|0,0:0|0:0,0:0:0:0:
496,176,50344,2,0,L|401:182,1,95,10|0,0:0|0:0,0:0:0:0:
160,160,50677,6,0,L|48:168,2,95,8|0|0,0:0|0:0|0:0,0:0:0:0:
328,64,51177,2,0,L|432:72,2,95,8|0|0,0:0|0:0|0:0,0:0:0:0:
144,208,51677,1,8,0:0:0:0:
238,218,51843,1,0,0:0:0:0:
332,229,52010,5,0,0:0:0:0:
152,80,52177,2,0,L|56:88,2,95,8|0|0,0:0|0:0|0:0,0:0:0:0:
336,72,52677,2,0,L|232:80,1,95,10|0,0:0|0:0,0:0:0:0:
424,152,53010,2,0,L|320:160,1,95,10|0,0:0|0:0,0:0:0:0:
72,192,53344,6,0,L|104:296,1,95,8|0,0:0|0:0,0:0:0:0:
264,192,53677,1,0,0:0:0:0:
432,88,53844,2,0,L|320:80,2,95,8|0|0,0:0|0:0|0:0,0:0:0:0:
248,56,54344,2,0,L|152:64,1,95,8|0,0:0|0:0,0:0:0:0:
320,152,54677,5,0,0:0:0:0:
488,288,54844,2,0,L|376:296,2,95,8|0|0,0:0|0:0|0:0,0:0:0:0:
304,72,55344,2,0,L|208:80,1,95,10|0,0:0|0:0,0:0:0:0:
392,112,55677,2,0,L|496:152,1,95,10|0,0:0|0:0,0:0:0:0:
440,208,55927,1,0,0:0:0:0:
224,248,56010,6,0,L|120:256,2,95,8|0|0,0:0|0:0|0:0,0:0:0:0:
408,320,56510,2,0,L|288:328,2,95,8|0|0,0:0|0:0|0:0,0:0:0:0:
224,96,57010,1,8,0:0:0:0:
134,110,57176,1,0,0:0:0:0:
96,193,57343,5,0,0:0:0:0:
280,176,57510,1,8,0:0:0:0:
190,190,57676,1,0,0:0:0:0:
152,273,57843,1,0,0:0:0:0:
320,64,58010,1,10,0:0:0:0:
488,216,58177,2,0,L|408:280,1,95,0|10,0:0|0:0,0:0:0:0:
240,320,58510,2,0,L|160:320,1,47.5,0|0,0:0|0:0,0:0:0:0:
384,104,58677,6,0,L|488:112,2,95,8|0|0,0:0|0:0|0:0,0:0:0:0:
200,176,59177,1,8,0:0:0:0:
294,179,59343,1,0,0:0:0:0:
389,183,59510,1,0,0:0:0:0:
208,80,59677,6,0,L|104:72,2,95,8|0|0,0:0|0:0|0:0,0:0:0:0:
392,256,60177,2,0,L|272:264,2,95,8|0|0,0:0|0:0|0:0,0:0:0:0:
208,144,60677,2,0,L|160:48,1,95,10|0,0:0|0:0,0:0:0:0:
352,104,61010,2,0,L|446:111,1,95,10|0,0:0|0:0,0:0:0:0:
400,160,61260,1,0,0:0:0:0:
184,216,61344,6,0,L|120:312,1,95,8|0,0:0|0:0,0:0:0:0:
296,304,61677,1,0,0:0:0:0:
464,256,61844,2,0,L|352:248,2,95,8|0|0,0:0|0:0|0:0,0:0:0:0:
280,144,62344,6,0,L|160:136,2,95,8|0|0,0:0|0:0|0:0,0:0:0:0:
96,192,62844,1,10,0:0:0:0:
336,312,63010,2,0,L|432:304,1,95,10|0,0:0|0:0,0:0:0:0:
248,112,63344,2,0,L|352:104,1,95,10|0,0:0|0:0,0:0:0:0:
90,242,63677,2,0,L|74:346,1,95,10|0,0:0|0:0,0:0:0:0:
384,192,64010,5,4,0:0:0:0:
256,192,65010,12,0,66510,0:0:0:0:
56,256,66677,6,0,L|150:262,1,95,6|0,0:0|0:0,0:0:0:0:
392,72,67010,2,0,L|280:80,2,95,10|0|0,0:0|0:0|0:0,0:0:0:0:
488,64,67510,1,0,0:0:0:0:
248,152,67677,2,0,L|352:144,1,95,10|0,0:0|0:0,0:0:0:0:
104,64,68010,6,0,L|17:103,1,95,0|2,0:0|0:0,0:0:0:0:
224,240,68344,2,0,L|240:336,1,95,10|2,0:0|0:0,0:0:0:0:
368,320,68677,1,0,0:0:0:0:
239,333,68844,1,2,0:0:0:0:
416,208,69010,2,0,L|440:112,1,95,10|2,0:0|0:0,0:0:0:0:
168,48,69344,6,0,P|112:64|168:144,1,190,6|8,0:0|0:0,0:0:0:0:
296,192,69844,2,0,L|184:200,2,95,0|2|0,0:0|0:0|0:0,0:0:0:0:
88,224,70344,2,0,L|72:328,1,95,8|0,0:0|0:0,0:0:0:0:
312,296,70677,6,0,L|416:304,1,95,0|2,0:0|0:0,0:0:0:0:
224,48,71010,2,0,L|197:161,1,95,10|2,0:0|0:0,0:0:0:0:
328,168,71344,1,0,0:0:0:0:
204,140,71510,1,2,0:0:0:0:
392,48,71677,2,0,L|488:56,1,95,10|2,0:0|0:0,0:0:0:0:
208,224,72010,6,0,P|144:248|216:328,1,190,6|10,0:0|0:0,0:0:0:0:
320,144,72510,2,0,L|200:136,2,95,0|0|0,0:0|0:0|0:0,0:0:0:0:
72,152,73010,2,0,L|32:56,1,95,10|0,0:0|0:0,0:0:0:0:
288,64,73344,6,0,L|384:56,1,95,0|2,0:0|0:0,0:0:0:0:
200,152,73677,2,0,L|88:160,1,95,10|2,0:0|0:0,0:0:0:0:
344,208,74010,2,0,L|312:320,1,95,0|2,0:0|0:0,0:0:0:0:
160,312,74344,1,8,0:0:0:0:
16,296,74510,1,2,0:0:0:0:
296,40,74677,6,0,P|360:72|296:136,1,190,6|8,0:0|0:0,0:0:0:0:
168,200,75177,1,0,0:0:0:0:
408,304,75344,2,0,L|488:232,1,95,2|0,0:0|0:0,0:0:0:0:
288,208,75677,2,0,L|400:256,1,95,10|0,0:0|0:0,0:0:0:0:
400,256,75927,1,0,0:0:0:0:
208,296,76010,5,8,0:0:0:0:
64,280,76177,1,0,0:0:0:0:
208,296,76344,1,2,0:0:0:0:
392,80,76510,1,8,0:0:0:0:
248,96,76677,1,2,0:0:0:0:
392,80,76844,1,0,0:0:0:0:
208,192,77010,1,8,0:0:0:0:
64,208,77177,1,0,0:0:0:0:
352,192,77344,6,0,P|392:224|304:304,1,190,6|10,0:0|0:0,0:0:0:0:
192,104,77844,2,0,L|296:112,2,95,0|0|0,0:0|0:0|0:0,0:0:0:0:
440,192,78344,2,0,L|400:288,1,95,10|0,0:0|0:0,0:0:0:0:
160,232,78677,6,0,L|256:240,1,95,0|2,0:0|0:0,0:0:0:0:
72,104,79010,2,0,L|48:208,1,95,10|2,0:0|0:0,0:0:0:0:
176,216,79344,1,0,0:0:0:0:
48,192,79510,1,2,0:0:0:0:
232,64,79677,2,0,L|352:72,1,95,10|2,0:0|0:0,0:0:0:0:
48,256,80010,6,0,P|40:312|152:312,1,190,6|10,0:0|0:0,0:0:0:0:
272,272,80510,2,0,L|168:264,2,95,0|0|0,0:0|0:0|0:0,0:0:0:0:
456,248,81010,2,0,L|472:144,1,95,10|0,0:0|0:0,0:0:0:0:
224,88,81344,6,0,L|336:96,1,95,0|2,0:0|0:0,0:0:0:0:
136,168,81677,2,0,L|32:160,1,95,10|2,0:0|0:0,0:0:0:0:
168,240,82010,2,0,L|64:232,1,95,0|2,0:0|0:0,0:0:0:0:
256,296,82344,2,0,L|368:304,1,95,10|2,0:0|0:0,0:0:0:0:
72,48,82677,6,0,P|32:72|104:152,1,190,6|10,0:0|0:0,0:0:0:0:
224,224,83177,2,0,L|112:232,2,95,0|0|0,0:0|0:0|0:0,0:0:0:0:
464,104,83677,2,0,L|432:216,1,95,10|0,0:0|0:0,0:0:0:0:
184,64,84010,6,0,L|88:72,1,95,0|2,0:0|0:0,0:0:0:0:
272,152,84344,2,0,L|160:168,1,95,10|2,0:0|0:0,0:0:0:0:
424,216,84677,2,0,L|384:328,1,95,0|2,0:0|0:0,0:0:0:0:
200,296,85010,2,0,L|72:304,1,95,10|2,0:0|0:0,0:0:0:0:
384,48,85344,6,0,P|440:80|352:152,1,190,6|8,0:0|0:0,0:0:0:0:
288,128,85844,1,0,0:0:0:0:
48,152,86010,2,0,L|17:63,1,95,2|0,0:0|0:0,0:0:0:0:
200,288,86344,2,0,L|96:296,1,95,10|0,0:0|0:0,0:0:0:0:
368,272,86677,5,8,0:0:0:0:
208,224,86844,1,8,0:0:0:0:
48,160,87010,1,8,0:0:0:0:
208,104,87177,1,8,0:0:0:0:
368,64,87344,1,8,0:0:0:0:
208,104,87510,1,8,0:0:0:0:
368,64,87677,1,8,0:0:0:0:
208,104,87844,1,8,0:0:0:0:
496,184,88010,6,0,L|480:296,1,95,4|0,0:0|0:0,0:0:0:0:
296,272,88343,2,0,L|201:265,2,95,8|0|2,0:0|0:0|0:0,0:0:0:0:
400,280,88843,1,0,0:0:0:0:
160,264,89010,2,0,L|112:144,1,95,10|0,0:0|0:0,0:0:0:0:
368,64,89343,6,0,L|472:72,1,95,0|2,0:0|0:0,0:0:0:0:
280,240,89677,2,0,L|264:336,1,95,10|2,0:0|0:0,0:0:0:0:
392,344,90010,1,0,0:0:0:0:
265,333,90177,1,2,0:0:0:0:
80,192,90343,2,0,L|56:96,1,95,10|2,0:0|0:0,0:0:0:0:
336,48,90677,6,0,P|392:64|336:144,1,190,6|8,0:0|0:0,0:0:0:0:
208,192,91177,2,0,L|320:200,2,95,0|2|0,0:0|0:0|0:0,0:0:0:0:
392,240,91677,2,0,L|440:336,1,95,8|0,0:0|0:0,0:0:0:0:
200,296,92010,6,0,L|96:304,1,95,0|2,0:0|0:0,0:0:0:0:
288,48,92343,2,0,L|312:160,1,95,10|2,0:0|0:0,0:0:0:0:
432,120,92677,1,0,0:0:0:0:
308,140,92843,1,2,0:0:0:0:
120,48,93010,2,0,L|24:56,1,95,10|2,0:0|0:0,0:0:0:0:
304,224,93343,6,0,P|368:248|296:328,1,190,6|8,0:0|0:0,0:0:0:0:
192,144,93843,2,0,L|312:136,2,95,0|2|0,0:0|0:0|0:0,0:0:0:0:
432,72,94343,2,0,L|360:160,1,95,10|0,0:0|0:0,0:0:0:0:
120,48,94677,6,0,L|128:152,1,95,0|2,0:0|0:0,0:0:0:0:
312,152,95010,2,0,L|424:160,1,95,10|2,0:0|0:0,0:0:0:0:
224,216,95343,2,0,L|200:320,1,95,0|2,0:0|0:0,0:0:0:0:
352,312,95677,1,10,0:0:0:0:
496,296,95843,1,2,0:0:0:0:
216,40,96010,6,0,P|152:72|216:136,1,190,6|8,0:0|0:0,0:0:0:0:
336,192,96510,1,0,0:0:0:0:
96,304,96677,2,0,L|216:296,1,95,2|0,0:0|0:0,0:0:0:0:
16,168,97010,2,0,L|32:272,1,95,10|0,0:0|0:0,0:0:0:0:
312,280,97344,6,0,L|208:288,2,95,10|0|0,0:0|0:0|0:0,0:0:0:0:
120,64,97844,2,0,L|16:72,2,95,8|2|0,0:0|0:0|0:0,0:0:0:0:
304,72,98344,2,0,L|408:80,1,95,8|0,0:0|0:0,0:0:0:0:
112,192,98677,6,0,P|72:224|160:304,1,190,6|10,0:0|0:0,0:0:0:0:
264,112,99177,2,0,L|160:120,2,95,0|0|0,0:0|0:0|0:0,0:0:0:0:
16,232,99677,2,0,L|112:288,1,95,10|0,0:0|0:0,0:0:0:0:
352,232,100010,6,0,L|256:240,1,95,0|2,0:0|0:0,0:0:0:0:
440,104,100343,2,0,L|464:208,1,95,10|2,0:0|0:0,0:0:0:0:
216,240,100677,1,0,0:0:0:0:
344,216,100843,1,2,0:0:0:0:
160,72,101010,2,0,L|80:144,1,95,10|2,0:0|0:0,0:0:0:0:
376,240,101343,6,0,P|440:288|368:336,1,190,6|10,0:0|0:0,0:0:0:0:
240,272,101843,2,0,L|344:264,2,95,0|0|0,0:0|0:0|0:0,0:0:0:0:
56,248,102343,2,0,L|40:144,1,95,10|0,0:0|0:0,0:0:0:0:
288,88,102677,6,0,L|176:96,1,95,0|2,0:0|0:0,0:0:0:0:
376,168,103010,2,0,L|480:160,1,95,10|2,0:0|0:0,0:0:0:0:
344,240,103343,2,0,L|240:248,1,95,0|2,0:0|0:0,0:0:0:0:
64,304,103677,2,0,L|158:297,1,95,10|2,0:0|0:0,0:0:0:0:
440,48,104010,6,0,P|480:72|408:152,1,190,6|10,0:0|0:0,0:0:0:0:
288,224,104510,2,0,L|400:232,2,95,0|0|0,0:0|0:0|0:0,0:0:0:0:
40,104,105010,2,0,L|80:216,1,95,10|0,0:0|0:0,0:0:0:0:
328,64,105343,6,0,L|424:72,1,95,0|2,0:0|0:0,0:0:0:0:
240,152,105677,2,0,L|144:144,1,95,10|2,0:0|0:0,0:0:0:0:
384,232,106010,2,0,L|264:224,1,95,0|2,0:0|0:0,0:0:0:0:
472,240,106343,2,0,L|400:320,1,95,10|2,0:0|0:0,0:0:0:0:
112,48,106677,6,0,P|56:80|144:152,1,190,6|8,0:0|0:0,0:0:0:0:
224,128,107177,1,0,0:0:0:0:
464,80,107343,2,0,L|376:152,1,95,2|0,0:0|0:0,0:0:0:0:
200,144,107677,2,0,L|96:152,1,95,10|0,0:0|0:0,0:0:0:0:
368,304,108010,5,8,0:0:0:0:
208,248,108177,1,8,0:0:0:0:
48,192,108343,1,8,0:0:0:0:
208,136,108510,1,8,0:0:0:0:
368,96,108677,1,8,0:0:0:0:
208,136,108843,1,8,0:0:0:0:
368,96,109010,1,8,0:0:0:0:
208,136,109177,1,8,0:0:0:0:
488,192,109344,5,4,0:0:0:0:
256,192,109510,12,0,113344,0:0:0:0:
48,192,114344,6,0,L|48:296,1,95,0|0,0:0|0:0,0:0:0:0:
232,192,114677,5,10,0:0:0:0:
368,48,115010,2,0,L|178:48,2,190,0|0|0,0:0|0:0|0:0,0:0:0:0:
96,192,116010,5,2,0:0:0:0:
248,80,116344,2,0,L|432:144,2,190,0|0|0,0:0|0:0|0:0,0:0:0:0:
496,216,117344,6,0,L|304:216,1,190,2|0,0:0|0:0,0:0:0:0:
448,152,118010,2,0,P|448:64|360:64,1,190,2|0,0:0|0:0,0:0:0:0:
88,192,118677,5,2,0:0:0:0:
248,224,119010,2,0,L|432:320,2,190,0|2|0,0:0|0:0|0:0,0:0:0:0:
496,192,120010,5,10,0:0:0:0:
336,144,120344,2,0,P|336:240|424:240,1,190,0|0,0:0|0:0,0:0:0:0:
152,64,121010,6,0,L|40:64,2,95,0|0|2,0:0|0:0|0:0,0:0:0:0:
312,152,121677,2,0,L|368:240,2,95,0|0|2,0:0|0:0|0:0,0:0:0:0:
144,192,122344,6,0,L|32:240,2,95,0|0|2,0:0|0:0|0:0,0:0:0:0:
296,120,123010,1,0,0:0:0:0:
376,112,123177,1,0,0:0:0:0:
456,104,123344,1,2,0:0:0:0:
288,216,123677,2,0,L|408:192,1,95,0|0,0:0|0:0,0:0:0:0:
200,152,124010,6,0,L|40:48,2,190,10|0|2,0:0|0:0|0:0,0:0:0:0:
352,192,125010,1,0,0:0:0:0:
80,192,125344,5,10,0:0:0:0:
240,40,125677,2,0,P|312:88|256:152,1,190,0|0,0:0|0:0,0:0:0:0:
104,112,126344,1,0,0:0:0:0:
376,344,126677,6,0,P|376:240|304:240,1,190,2|0,0:0|0:0,0:0:0:0:
152,192,127344,1,2,0:0:0:0:
312,48,127677,1,0,0:0:0:0:
208,128,127844,2,0,L|280:128,1,47.5,2|2,0:0|0:0,0:0:0:0:
368,128,128010,6,0,P|448:128|448:224,1,190,10|0,0:0|0:0,0:0:0:0:
288,296,128677,2,0,L|480:240,1,190,2|0,0:0|0:0,0:0:0:0:
176,96,129344,6,0,L|24:224,2,190,2|0|2,0:0|0:0|0:0,0:0:0:0:
24,88,130344,1,2,0:0:0:0:
328,192,130677,1,8,0:0:0:0:
256,192,131010,12,0,134677,0:0:0:0:
