osu file format v14

[General]
AudioFilename: audio.mp3
AudioLeadIn: 0
PreviewTime: 66594
Countdown: 0
SampleSet: Soft
StackLeniency: 0.7
Mode: 2
LetterboxInBreaks: 0
WidescreenStoryboard: 1

[Editor]
Bookmarks: 134677
DistanceSpacing: 1.1
BeatDivisor: 4
GridSize: 8
TimelineZoom: 1.2

[Metadata]
Title:Daisy
TitleUnicode:Daisy
Artist:Lifetheory
ArtistUnicode:Lifetheory
Creator:Dapuluous
Version:Platter
Source:
Tags:dnb drum and bass flower bastian -joni- idust idu5t dust du5t
BeatmapID:2079390
BeatmapSetID:993396

[Difficulty]
HPDrainRate:4
CircleSize:3.5
OverallDifficulty:8
ApproachRate:8
SliderMultiplier:1.7
SliderTickRate:1

[Events]
//Background and Video events
0,0,"28.jpg",0,0
//Break Periods
//Storyboard Layer 0 (Background)
//Storyboard Layer 1 (Fail)
//Storyboard Layer 2 (Pass)
//Storyboard Layer 3 (Foreground)
//Storyboard Layer 4 (Overlay)
//Storyboard Sound Samples

[TimingPoints]
11,333.333333333333,4,2,11,40,1,0
11,-100,4,2,11,40,0,0
21344,-100,4,2,11,50,0,0
42677,-100,4,2,22,60,0,0
53344,-100,4,2,22,67,0,0
60010,-100,4,2,22,74,0,0
66677,-100,4,2,33,85,0,1
77010,-100,4,2,33,85,0,0
77344,-100,4,2,33,85,0,1
87677,-100,4,2,33,85,0,0
88010,-100,4,2,33,85,0,1
98344,-100,4,2,33,85,0,0
98677,-100,4,2,33,85,0,1
109344,-100,4,2,22,50,0,0
110677,-100,4,2,11,50,0,0
130677,-100,4,2,11,40,0,0
132010,-100,4,2,22,25,0,0
133344,-100,4,2,22,15,0,0

[Colours]
Combo1 : 212,212,212
Combo2 : 100,160,60
Combo3 : 255,230,0

[HitObjects]
176,88,11,6,0,P|64:184|184:288,1,340,0|0,0:0|0:0,0:0:0:0:
416,192,1344,5,8,0:0:0:0:
72,192,4010,5,0,0:0:0:0:
344,88,5344,6,0,P|456:192|336:280,1,340,0|0,0:0|0:0,0:0:0:0:
104,192,6677,5,8,0:0:0:0:
408,192,8010,5,0,0:0:0:0:
32,80,9344,6,0,P|312:88|440:256,1,510,0|0,0:0|0:0,0:0:0:0:
296,152,10677,6,0,P|184:240|304:336,1,340,0|0,0:0|0:0,0:0:0:0:
64,192,12010,5,8,0:0:0:0:
368,192,13344,5,0,0:0:0:0:
32,48,14677,6,0,P|240:48|448:256,1,510,0|0,0:0|0:0,0:0:0:0:
304,136,16010,6,0,P|152:136|40:288,1,340,0|0,0:0|0:0,0:0:0:0:
280,192,17344,5,8,0:0:0:0:
72,80,18510,1,0,0:0:0:0:
176,80,18677,6,0,P|288:184|168:296,1,340,0|0,0:0|0:0,0:0:0:0:
456,192,20010,5,8,0:0:0:0:
144,72,21010,1,0,0:0:0:0:
400,72,21344,6,0,P|448:128|384:192,1,170,10|0,0:0|0:0,0:0:0:0:
224,280,22010,2,0,L|408:280,1,170,2|0,0:0|0:0,0:0:0:0:
136,48,22677,6,0,P|80:104|152:152,1,170,2|0,0:0|0:0,0:0:0:0:
304,104,23344,2,0,P|400:104|448:48,1,170,2|2,0:0|0:0,0:0:0:0:
376,40,23844,1,2,0:0:0:0:
120,48,24177,6,0,P|64:104|176:192,1,255,2|2,0:0|0:0,0:0:0:0:
288,240,24844,2,0,L|400:240,1,85,2|2,0:0|0:0,0:0:0:0:
120,240,25344,6,0,P|120:320|200:320,1,170,2|2,0:0|0:0,0:0:0:0:
368,128,26010,2,0,P|440:128|440:224,1,170,2|2,0:0|0:0,0:0:0:0:
192,48,26677,6,0,B|64:48|64:48|64:104|64:104|360:104|360:104|360:112|360:112|64:112|64:112|64:224|64:224|368:224,1,1190,10|2,0:0|0:0,0:0:0:0:
184,192,29344,5,0,0:0:0:0:
280,56,29510,2,0,P|384:64|408:328,1,425,2|0,0:0|0:0,0:0:0:0:
152,192,30677,6,0,B|40:192|40:192|40:304|40:304|336:304,1,510,2|2,0:0|0:0,0:0:0:0:
72,64,32010,6,0,B|72:176|72:176|208:176|448:176|448:176|72:176,1,850,10|0,0:0|0:0,0:0:0:0:
256,80,34010,2,0,P|344:96|408:152,1,170,2|0,0:0|0:0,0:0:0:0:
144,48,34677,6,0,P|80:112|312:304,1,510,2|0,0:0|0:0,0:0:0:0:
56,136,36010,6,0,P|272:136|448:368,1,510,10|0,0:0|0:0,0:0:0:0:
152,72,37344,6,0,P|344:72|488:360,2,510,10|0|2,0:0|0:0|0:0,0:0:0:0:
376,152,39844,1,0,0:0:0:0:
288,48,40010,6,0,P|176:144|296:248,1,340,10|2,0:0|0:0,0:0:0:0:
112,80,41010,6,0,L|112:272,1,170,2|2,0:0|0:0,0:0:0:0:
288,40,41677,2,0,P|408:64|456:264,1,340,2|2,0:0|0:0,0:0:0:0:
64,72,42677,6,0,L|48:168,1,85,2|0,0:0|0:0,0:0:0:0:
40,200,43010,1,0,0:0:0:0:
136,208,43177,2,0,L|232:216,1,85,0|2,0:0|0:0,0:0:0:0:
136,288,43510,2,0,L|32:280,1,85,0|0,0:0|0:0,0:0:0:0:
320,80,44010,6,0,L|424:88,1,85,2|0,0:0|0:0,0:0:0:0:
312,160,44344,2,0,L|296:272,1,85,0|0,0:0|0:0,0:0:0:0:
392,248,44677,2,0,L|504:256,2,85,2|0|0,0:0|0:0|0:0,0:0:0:0:
136,56,45344,5,2,0:0:0:0:
56,120,45510,1,0,0:0:0:0:
56,120,45677,1,0,0:0:0:0:
136,56,45844,1,0,0:0:0:0:
224,216,46010,1,2,0:0:0:0:
139,219,46176,1,0,0:0:0:0:
54,223,46343,1,2,0:0:0:0:
312,56,46677,5,2,0:0:0:0:
400,64,46844,2,0,L|416:152,1,85,0|0,0:0|0:0,0:0:0:0:
328,152,47177,2,0,L|232:160,2,85,2|0|0,0:0|0:0|0:0,0:0:0:0:
416,184,47677,2,0,L|432:288,1,85,2|2,0:0|0:0,0:0:0:0:
200,240,48010,6,0,L|96:232,2,85,8|0|0,0:0|0:0|0:0,0:0:0:0:
304,80,48510,2,0,L|200:72,2,85,8|0|0,0:0|0:0|0:0,0:0:0:0:
400,88,49010,1,8,0:0:0:0:
109,197,49344,6,0,L|68:300,1,85,0|8,0:0|0:0,0:0:0:0:
184,272,49676,1,0,0:0:0:0:
78,276,49843,1,0,0:0:0:0:
240,120,50010,2,0,L|336:112,1,85,10|0,0:0|0:0,0:0:0:0:
416,176,50344,2,0,L|331:183,1,85,10|0,0:0|0:0,0:0:0:0:
96,48,50677,5,8,0:0:0:0:
232,64,51010,2,0,L|328:72,2,85,0|8|0,0:0|0:0|0:0,0:0:0:0:
136,72,51510,2,0,L|120:168,1,85,0|8,0:0|0:0,0:0:0:0:
384,192,52010,5,0,0:0:0:0:
288,200,52177,2,0,L|200:208,2,85,8|0|0,0:0|0:0|0:0,0:0:0:0:
456,72,52677,2,0,L|368:80,1,85,10|0,0:0|0:0,0:0:0:0:
464,136,53010,2,0,L|376:144,1,85,10|0,0:0|0:0,0:0:0:0:
144,192,53344,5,8,0:0:0:0:
288,232,53677,2,0,L|304:320,1,85,0|8,0:0|0:0,0:0:0:0:
224,248,54010,2,0,L|336:232,2,85,0|0|8,0:0|0:0|0:0,0:0:0:0:
480,96,54677,5,0,0:0:0:0:
392,144,54844,1,8,0:0:0:0:
392,144,55010,1,0,0:0:0:0:
480,96,55177,1,0,0:0:0:0:
312,232,55344,2,0,L|224:240,1,85,10|0,0:0|0:0,0:0:0:0:
136,312,55677,2,0,L|220:304,1,85,10|0,0:0|0:0,0:0:0:0:
456,64,56010,5,8,0:0:0:0:
304,144,56344,2,0,L|208:152,2,85,0|8|0,0:0|0:0|0:0,0:0:0:0:
384,192,56844,2,0,L|480:184,1,85,0|8,0:0|0:0,0:0:0:0:
200,216,57344,6,0,L|112:224,3,85,0|8|0|0,0:0|0:0|0:0|0:0,0:0:0:0:
280,136,58010,2,0,L|368:128,1,85,10|0,0:0|0:0,0:0:0:0:
456,184,58344,2,0,L|448:288,1,85,10|0,0:0|0:0,0:0:0:0:
208,192,58677,5,8,0:0:0:0:
56,176,59010,2,0,L|48:72,1,85,0|8,0:0|0:0,0:0:0:0:
135,97,59344,2,0,L|31:89,2,85,0|0|8,0:0|0:0|0:0,0:0:0:0:
400,112,60010,5,0,0:0:0:0:
312,104,60177,2,0,L|208:96,2,85,8|0|0,0:0|0:0|0:0,0:0:0:0:
144,184,60677,2,0,L|48:176,1,85,10|0,0:0|0:0,0:0:0:0:
144,248,61010,2,0,L|56:240,1,85,10|0,0:0|0:0,0:0:0:0:
288,192,61344,5,8,0:0:0:0:
464,88,61677,1,0,0:0:0:0:
368,48,61844,2,0,L|360:160,1,85,8|0,0:0|0:0,0:0:0:0:
448,216,62177,2,0,L|344:208,1,85,0|8,0:0|0:0,0:0:0:0:
96,144,62677,6,0,L|80:40,1,85,0|10,0:0|0:0,0:0:0:0:
256,232,63010,2,0,L|352:224,1,85,10|0,0:0|0:0,0:0:0:0:
432,288,63344,2,0,L|347:295,1,85,10|0,0:0|0:0,0:0:0:0:
184,312,63677,2,0,L|80:320,1,85,10|0,0:0|0:0,0:0:0:0:
344,192,64010,5,4,0:0:0:0:
256,192,65010,12,0,66344,0:0:0:0:
88,320,66677,6,0,L|184:304,1,85,6|0,0:0|0:0,0:0:0:0:
336,224,67010,2,0,L|240:232,1,85,10|0,0:0|0:0,0:0:0:0:
344,152,67344,2,0,L|440:144,1,85,0|0,0:0|0:0,0:0:0:0:
336,88,67677,2,0,L|245:95,2,85,10|0|0,0:0|0:0|0:0,0:0:0:0:
80,232,68344,6,0,L|96:320,1,85,10|2,0:0|0:0,0:0:0:0:
200,296,68677,1,0,0:0:0:0:
304,272,68844,1,2,0:0:0:0:
408,256,69010,2,0,L|384:168,1,85,10|2,0:0|0:0,0:0:0:0:
136,48,69344,6,0,P|56:64|56:144,1,170,6|8,0:0|0:0,0:0:0:0:
160,144,69844,2,0,L|248:136,2,85,0|2|0,0:0|0:0|0:0,0:0:0:0:
64,152,70344,1,8,0:0:0:0:
328,280,70677,6,0,L|424:288,1,85,0|2,0:0|0:0,0:0:0:0:
320,56,71010,2,0,L|297:161,1,85,10|2,0:0|0:0,0:0:0:0:
408,152,71344,1,0,0:0:0:0:
301,139,71510,1,2,0:0:0:0:
384,152,71677,2,0,L|472:160,1,85,10|2,0:0|0:0,0:0:0:0:
216,224,72010,6,0,P|144:248|160:328,1,170,6|10,0:0|0:0,0:0:0:0:
272,120,72510,2,0,L|168:112,2,85,0|0|0,0:0|0:0|0:0,0:0:0:0:
368,128,73010,1,10,0:0:0:0:
104,40,73344,6,0,L|88:136,1,85,0|2,0:0|0:0,0:0:0:0:
176,200,73677,2,0,L|59:204,1,85,10|2,0:0|0:0,0:0:0:0:
192,200,74010,2,0,L|208:296,1,85,0|2,0:0|0:0,0:0:0:0:
120,312,74344,1,8,0:0:0:0:
40,344,74510,1,2,0:0:0:0:
296,40,74677,6,0,P|384:48|416:120,1,170,6|8,0:0|0:0,0:0:0:0:
320,192,75177,2,0,L|408:200,2,85,0|2|0,0:0|0:0|0:0,0:0:0:0:
152,96,75677,2,0,L|128:192,1,85,10|0,0:0|0:0,0:0:0:0:
368,304,76010,5,8,0:0:0:0:
280,288,76177,1,0,0:0:0:0:
368,304,76344,1,2,0:0:0:0:
280,288,76510,1,8,0:0:0:0:
176,248,76677,2,0,L|208:160,1,85,2|0,0:0|0:0,0:0:0:0:
288,192,77010,1,8,0:0:0:0:
368,216,77177,1,0,0:0:0:0:
128,48,77344,6,0,P|56:64|56:152,1,170,6|10,0:0|0:0,0:0:0:0:
168,184,77844,2,0,L|256:192,2,85,0|0|0,0:0|0:0|0:0,0:0:0:0:
72,176,78344,1,10,0:0:0:0:
336,72,78677,6,0,L|432:80,1,85,0|2,0:0|0:0,0:0:0:0:
328,112,79010,2,0,L|432:120,1,85,10|2,0:0|0:0,0:0:0:0:
312,184,79344,2,0,L|296:296,1,85,0|2,0:0|0:0,0:0:0:0:
400,280,79677,2,0,L|384:376,1,85,10|2,0:0|0:0,0:0:0:0:
136,136,80010,6,0,P|64:160|64:248,1,170,6|10,0:0|0:0,0:0:0:0:
160,312,80510,2,0,L|64:304,3,85,0|0|0|10,0:0|0:0|0:0|0:0,0:0:0:0:
344,80,81344,6,0,L|240:72,1,85,0|2,0:0|0:0,0:0:0:0:
168,136,81677,2,0,L|264:144,1,85,10|2,0:0|0:0,0:0:0:0:
152,208,82010,2,0,L|136:304,1,85,0|2,0:0|0:0,0:0:0:0:
240,304,82344,1,10,0:0:0:0:
138,291,82510,1,2,0:0:0:0:
384,48,82677,6,0,P|432:80|384:160,1,170,6|10,0:0|0:0,0:0:0:0:
296,248,83177,2,0,L|192:256,2,85,0|0|0,0:0|0:0|0:0,0:0:0:0:
392,240,83677,1,10,0:0:0:0:
96,64,84010,6,0,L|200:56,1,85,0|2,0:0|0:0,0:0:0:0:
272,112,84344,2,0,L|176:120,1,85,10|2,0:0|0:0,0:0:0:0:
280,192,84677,2,0,L|296:288,1,85,0|2,0:0|0:0,0:0:0:0:
208,280,85010,2,0,L|112:288,1,85,10|2,0:0|0:0,0:0:0:0:
384,48,85344,6,0,P|432:80|376:152,1,170,6|8,0:0|0:0,0:0:0:0:
288,112,85844,2,0,L|176:120,2,85,0|2|0,0:0|0:0|0:0,0:0:0:0:
120,248,86344,2,0,L|136:336,1,85,10|0,0:0|0:0,0:0:0:0:
376,200,86677,5,8,0:0:0:0:
288,184,86844,1,8,0:0:0:0:
200,168,87010,1,8,0:0:0:0:
288,184,87177,1,8,0:0:0:0:
376,48,87344,1,8,0:0:0:0:
288,64,87510,1,8,0:0:0:0:
200,88,87677,1,8,0:0:0:0:
112,112,87844,1,8,0:0:0:0:
344,144,88010,6,0,L|360:256,1,85,4|0,0:0|0:0,0:0:0:0:
192,224,88343,2,0,L|276:231,1,85,8|0,0:0|0:0,0:0:0:0:
168,152,88677,2,0,L|83:144,1,85,2|0,0:0|0:0,0:0:0:0:
176,88,89010,2,0,L|80:80,2,85,10|0|0,0:0|0:0|0:0,0:0:0:0:
432,232,89677,6,0,L|328:216,1,85,10|2,0:0|0:0,0:0:0:0:
240,200,90010,2,0,L|328:216,1,85,0|2,0:0|0:0,0:0:0:0:
216,264,90343,2,0,L|104:240,1,85,10|2,0:0|0:0,0:0:0:0:
376,47,90677,6,0,P|453:61|458:140,1,170,6|8,0:0|0:0,0:0:0:0:
360,144,91177,2,0,L|464:152,2,85,0|2|0,0:0|0:0|0:0,0:0:0:0:
264,136,91677,1,8,0:0:0:0:
16,288,92010,6,0,L|101:281,1,85,0|2,0:0|0:0,0:0:0:0:
200,232,92344,2,0,L|112:240,2,85,10|2|0,0:0|0:0|0:0,0:0:0:0:
296,223,92843,1,2,0:0:0:0:
200,152,93010,2,0,L|115:159,1,85,10|2,0:0|0:0,0:0:0:0:
360,48,93343,6,0,P|432:80|408:160,1,170,6|8,0:0|0:0,0:0:0:0:
320,136,93843,2,0,L|432:128,2,85,0|2|0,0:0|0:0|0:0,0:0:0:0:
224,144,94343,1,10,0:0:0:0:
488,248,94677,6,0,L|400:240,1,85,0|2,0:0|0:0,0:0:0:0:
312,184,95010,2,0,L|400:192,1,85,10|2,0:0|0:0,0:0:0:0:
296,232,95343,2,0,L|336:320,1,85,0|2,0:0|0:0,0:0:0:0:
416,328,95677,1,10,0:0:0:0:
496,344,95843,1,2,0:0:0:0:
248,56,96010,6,0,P|160:64|128:131,1,170,6|8,0:0|0:0,0:0:0:0:
224,192,96510,2,0,L|139:199,2,85,0|2|0,0:0|0:0|0:0,0:0:0:0:
392,120,97010,2,0,L|408:216,1,85,10|0,0:0|0:0,0:0:0:0:
144,304,97344,6,0,L|56:296,2,85,10|0|0,0:0|0:0|0:0,0:0:0:0:
312,240,97844,2,0,L|408:248,2,85,8|2|0,0:0|0:0|0:0,0:0:0:0:
144,160,98344,2,0,L|160:64,1,85,8|0,0:0|0:0,0:0:0:0:
408,48,98677,6,0,P|472:88|432:168,1,170,6|10,0:0|0:0,0:0:0:0:
344,184,99177,2,0,L|259:191,2,85,0|0|0,0:0|0:0|0:0,0:0:0:0:
440,176,99677,1,10,0:0:0:0:
176,72,100010,6,0,L|91:79,1,85,0|2,0:0|0:0,0:0:0:0:
184,112,100343,2,0,L|272:104,1,85,10|2,0:0|0:0,0:0:0:0:
176,184,100677,2,0,L|188:268,1,85,0|2,0:0|0:0,0:0:0:0:
88,280,101010,2,0,L|96:368,1,85,10|2,0:0|0:0,0:0:0:0:
344,136,101343,6,0,P|424:160|424:240,1,170,6|10,0:0|0:0,0:0:0:0:
352,312,101843,2,0,L|256:320,2,85,0|0|0,0:0|0:0|0:0,0:0:0:0:
448,304,102344,1,10,0:0:0:0:
168,80,102677,6,0,L|184:184,1,85,0|2,0:0|0:0,0:0:0:0:
72,184,103010,1,10,0:0:0:0:
180,164,103177,1,2,0:0:0:0:
288,152,103343,2,0,L|301:235,1,85,0|2,0:0|0:0,0:0:0:0:
216,256,103677,1,10,0:0:0:0:
301,235,103843,1,2,0:0:0:0:
56,232,104010,6,0,P|32:296|112:336,1,170,6|10,0:0|0:0,0:0:0:0:
216,248,104510,2,0,L|300:254,2,85,0|0|0,0:0|0:0|0:0,0:0:0:0:
120,240,105010,1,10,0:0:0:0:
416,64,105343,6,0,L|331:57,1,85,0|2,0:0|0:0,0:0:0:0:
240,112,105677,2,0,L|224:208,1,85,10|2,0:0|0:0,0:0:0:0:
320,176,106010,2,0,L|424:192,1,85,0|2,0:0|0:0,0:0:0:0:
304,240,106343,2,0,L|392:256,1,85,10|2,0:0|0:0,0:0:0:0:
144,240,106677,6,0,P|92:295|151:344,1,170,6|8,0:0|0:0,0:0:0:0:
248,112,107177,2,0,L|152:104,2,85,0|2|0,0:0|0:0|0:0,0:0:0:0:
416,120,107677,2,0,L|408:216,1,85,10|0,0:0|0:0,0:0:0:0:
168,312,108010,5,8,0:0:0:0:
80,304,108177,1,8,0:0:0:0:
168,312,108344,1,8,0:0:0:0:
80,304,108510,1,8,0:0:0:0:
248,72,108677,1,8,0:0:0:0:
336,96,108844,1,8,0:0:0:0:
424,128,109010,1,8,0:0:0:0:
336,96,109177,1,8,0:0:0:0:
96,192,109344,5,4,0:0:0:0:
256,192,109510,12,0,113344,0:0:0:0:
120,192,114344,6,0,L|216:192,2,85,0|0|10,0:0|0:0|0:0,0:0:0:0:
360,80,116010,5,2,0:0:0:0:
184,80,116344,2,0,L|112:240,1,170,0|0,0:0|0:0,0:0:0:0:
288,80,117010,1,0,0:0:0:0:
104,56,117344,6,0,P|40:112|80:168,1,170,2|0,0:0|0:0,0:0:0:0:
240,248,118010,2,0,P|136:248|64:288,1,170,2|0,0:0|0:0,0:0:0:0:
344,192,118677,5,2,0:0:0:0:
200,56,119010,2,0,P|104:56|32:104,2,170,0|2|0,0:0|0:0|0:0,0:0:0:0:
472,192,120010,5,10,0:0:0:0:
296,56,120344,2,0,P|400:56|464:96,1,170,0|0,0:0|0:0,0:0:0:0:
184,160,121010,6,0,L|80:168,2,85,0|0|2,0:0|0:0|0:0,0:0:0:0:
360,272,121677,2,0,L|472:264,2,85,0|0|2,0:0|0:0|0:0,0:0:0:0:
192,192,122344,6,0,L|80:200,2,85,0|0|2,0:0|0:0|0:0,0:0:0:0:
376,40,123010,2,0,L|376:136,1,85,0|0,0:0|0:0,0:0:0:0:
288,120,123344,1,2,0:0:0:0:
96,152,123677,2,0,L|96:256,1,85,0|0,0:0|0:0,0:0:0:0:
264,224,124010,6,0,L|416:320,2,170,10|0|2,0:0|0:0|0:0,0:0:0:0:
424,96,125010,1,0,0:0:0:0:
160,96,125344,5,10,0:0:0:0:
320,96,125677,2,0,L|320:272,1,170,0|0,0:0|0:0,0:0:0:0:
160,96,126344,1,0,0:0:0:0:
424,72,126677,6,0,P|464:104|392:184,1,170,2|0,0:0|0:0,0:0:0:0:
256,176,127344,1,2,0:0:0:0:
416,288,127677,1,0,0:0:0:0:
320,304,127844,1,2,0:0:0:0:
224,312,128010,6,0,P|152:296|176:208,1,170,10|0,0:0|0:0,0:0:0:0:
336,48,128677,2,0,P|248:48|176:88,1,170,2|0,0:0|0:0,0:0:0:0:
320,144,129344,6,0,L|480:240,2,170,2|0|2,0:0|0:0|0:0,0:0:0:0:
136,192,130344,1,2,0:0:0:0:
448,192,130677,1,8,0:0:0:0:
256,192,131010,12,0,134677,0:0:0:0:
