osu file format v14

[General]
AudioFilename: audio.mp3
AudioLeadIn: 0
PreviewTime: 66594
Countdown: 0
SampleSet: Soft
StackLeniency: 0.7
Mode: 2
LetterboxInBreaks: 0
WidescreenStoryboard: 1

[Editor]
Bookmarks: 46010,134677
DistanceSpacing: 1
BeatDivisor: 4
GridSize: 8
TimelineZoom: 2.2

[Metadata]
Title:Daisy
TitleUnicode:Daisy
Artist:Lifetheory
ArtistUnicode:Lifetheory
Creator:Dapuluous
Version:Joni's Salad
Source:
Tags:dnb drum and bass flower bastian -joni- idust idu5t dust du5t
BeatmapID:2099012
BeatmapSetID:993396

[Difficulty]
HPDrainRate:3
CircleSize:3
OverallDifficulty:7
ApproachRate:7
SliderMultiplier:1.4
SliderTickRate:1

[Events]
//Background and Video events
0,0,"28.jpg",0,0
//Break Periods
//Storyboard Layer 0 (Background)
//Storyboard Layer 1 (Fail)
//Storyboard Layer 2 (Pass)
//Storyboard Layer 3 (Foreground)
//Storyboard Layer 4 (Overlay)
//Storyboard Sound Samples

[TimingPoints]
11,333.333333333333,4,2,11,40,1,0
11,-100,4,2,11,40,0,0
21344,-100,4,2,11,50,0,0
42677,-100,4,2,22,60,0,0
53344,-100,4,2,22,67,0,0
60010,-100,4,2,22,74,0,0
66677,-100,4,2,33,85,0,1
77010,-100,4,2,33,85,0,0
77344,-100,4,2,33,85,0,1
87677,-100,4,2,33,85,0,0
88010,-100,4,2,33,85,0,1
98344,-100,4,2,33,85,0,0
98677,-100,4,2,33,85,0,1
109344,-100,4,2,22,50,0,0
110677,-100,4,2,11,50,0,0
130677,-100,4,2,11,40,0,0
132010,-100,4,2,22,25,0,0
133344,-100,4,2,22,15,0,0

[Colours]
Combo1 : 212,212,212
Combo2 : 100,160,60
Combo3 : 255,230,0

[HitObjects]
388,277,11,6,0,P|270:76|123:274,1,560,0|8,0:0|0:0,0:0:0:0:
420,137,4010,5,0,0:0:0:0:
90,146,5344,6,0,P|178:293|402:96,1,560,0|8,0:0|0:0,0:0:0:0:
234,196,8010,5,0,0:0:0:0:
70,78,9344,1,0,0:0:0:0:
412,259,10677,6,0,P|375:119|111:268,1,560,0|8,0:0|0:0,0:0:0:0:
255,205,13344,1,0,0:0:0:0:
270,313,14677,6,0,P|441:210|335:60,1,420,0|0,0:0|0:0,0:0:0:0:
190,246,16010,2,0,P|202:90|403:267,1,560,0|8,0:0|0:0,0:0:0:0:
120,246,18510,1,0,0:0:0:0:
66,242,18677,6,0,P|141:107|415:280,1,560,0|8,0:0|0:0,0:0:0:0:
130,102,21010,1,0,0:0:0:0:
376,334,21344,6,0,P|346:224|186:201,1,280,10|2,0:0|0:0,0:0:0:0:
99,200,22677,2,0,P|181:78|312:97,1,280,2|2,0:0|0:0,0:0:0:0:
383,314,23677,2,0,L|358:244,1,70,2|2,0:0|0:0,0:0:0:0:
80,171,24177,6,0,P|63:110|171:128,1,210,2|2,0:0|0:0,0:0:0:0:
250,169,24844,1,2,0:0:0:0:
340,170,25010,1,2,0:0:0:0:
95,339,25344,6,0,B|76:293|160:228|160:228|301:214,1,280,2|2,0:0|0:0,0:0:0:0:
430,211,26344,1,2,0:0:0:0:
110,50,26677,6,0,B|111:146|111:146|352:91|352:91|457:268|457:268|108:261|108:261|108:293|108:293|107:344,1,980,10|2,0:0|0:0,0:0:0:0:
245,246,29344,6,0,P|429:232|313:103,1,420,0|0,0:0|0:0,0:0:0:0:
129,243,30677,6,0,P|37:117|221:119,1,420,2|2,0:0|0:0,0:0:0:0:
279,109,31844,1,2,0:0:0:0:
490,26,32010,6,0,B|487:90|487:90|385:103|385:103|285:225|285:225|285:346|285:346|487:345|487:345|487:263,1,700,10|0,0:0|0:0,0:0:0:0:
350,250,34010,1,2,0:0:0:0:
141,316,34677,6,0,P|345:193|416:327,1,420,2|0,0:0|0:0,0:0:0:0:
280,64,36010,6,0,B|136:65|136:65|44:174|44:174|182:173,1,420,10|0,0:0|0:0,0:0:0:0:
445,234,37344,6,0,P|175:42|212:384,1,840,10|2,0:0|0:0,0:0:0:0:
317,328,39844,1,0,0:0:0:0:
375,328,40010,6,0,P|463:227|353:194,1,280,10|2,0:0|0:0,0:0:0:0:
270,186,41010,1,2,0:0:0:0:
170,184,41344,5,2,0:0:0:0:
283,187,41677,2,0,P|268:96|105:116,1,280,2|2,0:0|0:0,0:0:0:0:
400,325,42677,6,0,P|449:278|389:240,1,140,2|0,0:0|0:0,0:0:0:0:
337,232,43177,1,0,0:0:0:0:
256,229,43344,2,0,L|391:165,1,140,2|0,0:0|0:0,0:0:0:0:
231,329,44010,6,0,L|146:330,1,70,2|0,0:0|0:0,0:0:0:0:
90,275,44344,2,0,L|89:184,1,70,0|0,0:0|0:0,0:0:0:0:
190,185,44677,2,0,L|267:67,1,140,2|0,0:0|0:0,0:0:0:0:
90,334,45344,6,0,P|100:261|171:230,1,140,2|0,0:0|0:0,0:0:0:0:
250,231,45844,1,0,0:0:0:0:
350,232,46010,2,0,P|391:162|339:110,1,140,2|2,0:0|0:0,0:0:0:0:
167,180,46677,6,0,P|102:124|129:105,1,140,2|0,0:0|0:0,0:0:0:0:
200,78,47177,1,2,0:0:0:0:
290,187,47344,2,0,L|139:180,1,140,0|2,0:0|0:0,0:0:0:0:
400,317,48010,6,0,L|485:318,2,70,8|0|0,0:0|0:0|0:0,0:0:0:0:
310,200,48510,2,0,L|215:200,2,70,8|0|0,0:0|0:0|0:0,0:0:0:0:
399,202,49010,1,8,0:0:0:0:
250,301,49344,6,0,L|170:301,1,70,0|8,0:0|0:0,0:0:0:0:
90,66,49677,1,0,0:0:0:0:
160,66,49844,1,0,0:0:0:0:
260,153,50010,2,0,P|344:156|382:120,1,140,10|10,0:0|0:0,0:0:0:0:
90,144,50677,5,8,0:0:0:0:
200,181,51010,1,0,0:0:0:0:
270,182,51176,1,8,0:0:0:0:
339,181,51343,1,0,0:0:0:0:
360,88,51510,1,0,0:0:0:0:
301,88,51677,1,8,0:0:0:0:
150,186,52010,5,0,0:0:0:0:
51,184,52177,2,0,P|71:108|142:104,1,140,8|0,0:0|0:0,0:0:0:0:
210,100,52677,1,10,0:0:0:0:
280,100,52844,1,0,0:0:0:0:
210,100,53010,1,10,0:0:0:0:
468,224,53344,5,8,0:0:0:0:
300,80,53677,1,0,0:0:0:0:
230,81,53844,1,8,0:0:0:0:
160,84,54010,2,0,L|81:83,2,70,0|0|8,0:0|0:0|0:0,0:0:0:0:
300,171,54677,6,0,L|226:172,1,70,0|8,0:0|0:0,0:0:0:0:
160,329,55010,2,0,L|158:247,1,70,0|0,0:0|0:0,0:0:0:0:
82,243,55344,2,0,P|131:177|187:156,1,140,10|10,0:0|0:0,0:0:0:0:
439,129,56010,5,8,0:0:0:0:
290,307,56344,2,0,L|266:230,1,70,0|8,0:0|0:0,0:0:0:0:
180,236,56677,1,0,0:0:0:0:
92,329,56844,2,0,L|168:329,1,70,0|8,0:0|0:0,0:0:0:0:
350,260,57344,5,0,0:0:0:0:
420,208,57510,1,8,0:0:0:0:
420,122,57677,1,0,0:0:0:0:
350,70,57844,1,0,0:0:0:0:
250,251,58010,1,10,0:0:0:0:
165,220,58177,1,0,0:0:0:0:
111,144,58344,1,10,0:0:0:0:
400,285,58677,6,0,P|401:203|351:151,1,140,8|0,0:0|0:0,0:0:0:0:
300,158,59177,1,8,0:0:0:0:
230,160,59344,2,0,L|359:98,1,140,0|8,0:0|0:0,0:0:0:0:
155,301,60010,5,0,0:0:0:0:
90,299,60177,2,0,P|85:214|133:154,1,140,8|0,0:0|0:0,0:0:0:0:
200,167,60677,1,10,0:0:0:0:
270,166,60844,1,0,0:0:0:0:
331,167,61010,1,10,0:0:0:0:
40,164,61344,5,8,0:0:0:0:
200,167,61677,1,0,0:0:0:0:
279,159,61844,2,0,L|358:159,1,70,8|0,0:0|0:0,0:0:0:0:
418,160,62177,2,0,L|342:158,1,70,0|8,0:0|0:0,0:0:0:0:
180,313,62677,5,0,0:0:0:0:
240,237,62844,1,10,0:0:0:0:
210,163,63010,1,10,0:0:0:0:
130,135,63177,1,0,0:0:0:0:
80,207,63344,1,10,0:0:0:0:
100,288,63510,1,0,0:0:0:0:
180,313,63677,1,10,0:0:0:0:
460,268,64010,5,4,0:0:0:0:
256,192,65010,12,0,66344,0:0:0:0:
100,304,66677,5,6,0:0:0:0:
240,237,67010,2,0,L|373:180,1,140,10|0,0:0|0:0,0:0:0:0:
450,179,67510,1,0,0:0:0:0:
390,97,67677,6,0,L|238:97,1,140,10|0,0:0|0:0,0:0:0:0:
150,88,68177,1,2,0:0:0:0:
85,87,68344,1,10,0:0:0:0:
150,88,68510,1,2,0:0:0:0:
244,90,68677,2,0,L|360:169,1,140,0|10,0:0|0:0,0:0:0:0:
280,217,69177,1,2,0:0:0:0:
80,160,69344,6,0,P|53:223|92:278,1,140,6|8,0:0|0:0,0:0:0:0:
160,155,69844,1,0,0:0:0:0:
240,154,70010,1,2,0:0:0:0:
370,160,70344,1,8,0:0:0:0:
210,331,70677,6,0,L|210:259,1,70,0|2,0:0|0:0,0:0:0:0:
280,185,71010,2,0,L|198:186,1,70,10|2,0:0|0:0,0:0:0:0:
132,261,71344,1,0,0:0:0:0:
65,261,71510,1,2,0:0:0:0:
132,261,71677,1,10,0:0:0:0:
400,254,72010,6,0,P|435:184|384:151,1,140,6|10,0:0|0:0,0:0:0:0:
300,147,72510,2,0,L|201:147,2,70,0|0|0,0:0|0:0|0:0,0:0:0:0:
396,152,73010,1,10,0:0:0:0:
290,324,73344,6,0,L|218:324,1,70,0|2,0:0|0:0,0:0:0:0:
159,229,73677,2,0,L|236:209,1,70,10|2,0:0|0:0,0:0:0:0:
340,196,74010,1,0,0:0:0:0:
160,124,74344,1,8,0:0:0:0:
223,124,74510,1,2,0:0:0:0:
440,159,74677,6,0,P|432:79|385:48,1,140,6|8,0:0|0:0,0:0:0:0:
305,52,75177,1,0,0:0:0:0:
220,56,75344,2,0,P|180:138|231:167,1,140,2|10,0:0|0:0,0:0:0:0:
282,163,75844,1,0,0:0:0:0:
471,162,76010,6,0,L|471:74,1,70,8|0,0:0|0:0,0:0:0:0:
400,227,76344,2,0,L|321:227,1,70,2|8,0:0|0:0,0:0:0:0:
471,162,76677,2,0,L|471:84,1,70,2|0,0:0|0:0,0:0:0:0:
400,227,77010,2,0,L|320:227,1,70,8|0,0:0|0:0,0:0:0:0:
130,241,77344,6,0,P|70:193|118:161,1,140,6|10,0:0|0:0,0:0:0:0:
180,156,77844,1,0,0:0:0:0:
260,156,78010,1,0,0:0:0:0:
350,223,78177,2,0,L|350:149,1,70,0|10,0:0|0:0,0:0:0:0:
170,199,78677,6,0,L|169:118,1,70,0|2,0:0|0:0,0:0:0:0:
250,63,79010,2,0,L|329:63,1,70,10|2,0:0|0:0,0:0:0:0:
410,65,79344,1,0,0:0:0:0:
430,159,79510,1,2,0:0:0:0:
350,191,79677,2,0,L|274:232,1,70,10|2,0:0|0:0,0:0:0:0:
90,232,80010,6,0,P|73:150|128:133,1,140,6|10,0:0|0:0,0:0:0:0:
200,241,80510,1,0,0:0:0:0:
264,188,80677,1,0,0:0:0:0:
324,129,80844,1,0,0:0:0:0:
256,74,81010,1,10,0:0:0:0:
90,287,81344,6,0,L|168:286,1,70,0|2,0:0|0:0,0:0:0:0:
250,279,81677,2,0,L|250:370,1,70,10|2,0:0|0:0,0:0:0:0:
150,230,82010,2,0,L|100:90,1,140,0|10,0:0|0:0,0:0:0:0:
190,90,82510,1,2,0:0:0:0:
394,191,82677,6,0,P|409:127|324:115,1,140,6|10,0:0|0:0,0:0:0:0:
260,106,83177,2,0,L|175:108,2,70,0|0|0,0:0|0:0|0:0,0:0:0:0:
370,279,83677,1,10,0:0:0:0:
173,277,84010,6,0,P|200:207|277:193,1,140,0|10,0:0|0:0,0:0:0:0:
350,189,84510,1,2,0:0:0:0:
440,191,84677,1,0,0:0:0:0:
353,293,85010,2,0,L|282:292,1,70,10|2,0:0|0:0,0:0:0:0:
80,210,85344,6,0,P|79:140|163:131,1,140,6|8,0:0|0:0,0:0:0:0:
230,119,85844,1,0,0:0:0:0:
320,121,86010,1,2,0:0:0:0:
71,110,86344,1,10,0:0:0:0:
250,234,86677,5,8,0:0:0:0:
313,189,86844,1,8,0:0:0:0:
313,106,87010,1,8,0:0:0:0:
254,48,87177,1,8,0:0:0:0:
136,224,87344,1,8,0:0:0:0:
73,175,87510,1,8,0:0:0:0:
76,93,87677,1,8,0:0:0:0:
141,48,87844,1,8,0:0:0:0:
340,205,88010,6,0,P|372:131|323:96,1,140,4|8,0:0|0:0,0:0:0:0:
200,237,88677,1,2,0:0:0:0:
290,235,88844,1,0,0:0:0:0:
384,235,89010,2,0,P|454:196|446:141,1,140,10|0,0:0|0:0,0:0:0:0:
290,65,89677,6,0,L|197:65,1,70,10|2,0:0|0:0,0:0:0:0:
130,65,90010,2,0,L|80:123,1,70,0|2,0:0|0:0,0:0:0:0:
100,220,90344,2,0,L|178:221,1,70,10|2,0:0|0:0,0:0:0:0:
380,304,90677,6,0,P|374:234|326:185,1,140,6|8,0:0|0:0,0:0:0:0:
250,237,91177,1,0,0:0:0:0:
180,167,91344,1,2,0:0:0:0:
250,237,91510,1,0,0:0:0:0:
371,105,91677,1,8,0:0:0:0:
230,164,92010,6,0,L|231:93,1,70,0|2,0:0|0:0,0:0:0:0:
140,254,92344,2,0,L|301:251,1,140,10|0,0:0|0:0,0:0:0:0:
360,248,92844,1,2,0:0:0:0:
361,162,93010,2,0,L|292:153,1,70,10|2,0:0|0:0,0:0:0:0:
90,156,93344,6,0,P|51:108|107:74,1,140,6|8,0:0|0:0,0:0:0:0:
170,59,93844,2,0,P|246:47|308:63,1,140,0|0,0:0|0:0,0:0:0:0:
240,131,94344,1,10,0:0:0:0:
120,274,94677,6,0,L|122:189,1,70,0|2,0:0|0:0,0:0:0:0:
43,151,95010,2,0,L|117:108,1,70,10|2,0:0|0:0,0:0:0:0:
202,108,95344,2,0,L|287:109,1,70,0|2,0:0|0:0,0:0:0:0:
364,115,95677,2,0,L|323:182,1,70,10|2,0:0|0:0,0:0:0:0:
130,335,96010,6,0,P|100:270|155:251,1,140,6|8,0:0|0:0,0:0:0:0:
242,247,96510,1,0,0:0:0:0:
325,250,96677,2,0,L|292:177,1,70,2|0,0:0|0:0,0:0:0:0:
207,118,97010,1,10,0:0:0:0:
260,54,97177,1,0,0:0:0:0:
170,222,97344,6,0,L|98:222,1,70,10|0,0:0|0:0,0:0:0:0:
185,128,97677,2,0,L|261:99,1,70,0|8,0:0|0:0,0:0:0:0:
305,262,98010,2,0,L|305:173,1,70,2|0,0:0|0:0,0:0:0:0:
180,324,98344,1,8,0:0:0:0:
450,342,98677,6,0,P|462:269|397:253,1,140,6|10,0:0|0:0,0:0:0:0:
320,243,99177,2,0,L|170:237,1,140,0|0,0:0|0:0,0:0:0:0:
250,139,99677,1,10,0:0:0:0:
105,282,100010,6,0,L|106:198,1,70,0|2,0:0|0:0,0:0:0:0:
185,183,100344,2,0,L|185:96,1,70,10|2,0:0|0:0,0:0:0:0:
260,271,100677,2,0,L|181:271,1,70,0|2,0:0|0:0,0:0:0:0:
125,270,101010,2,0,L|196:214,1,70,10|2,0:0|0:0,0:0:0:0:
380,327,101344,6,0,P|425:271|374:233,1,140,6|10,0:0|0:0,0:0:0:0:
310,215,101844,2,0,L|161:179,1,140,0|0,0:0|0:0,0:0:0:0:
80,168,102344,1,10,0:0:0:0:
210,231,102677,6,0,L|208:149,1,70,0|2,0:0|0:0,0:0:0:0:
278,160,103010,2,0,L|205:161,1,70,10|2,0:0|0:0,0:0:0:0:
130,155,103344,2,0,L|131:72,1,70,0|2,0:0|0:0,0:0:0:0:
210,76,103677,2,0,L|289:77,1,70,10|2,0:0|0:0,0:0:0:0:
490,260,104010,6,0,P|500:200|440:152,1,140,6|10,0:0|0:0,0:0:0:0:
370,152,104510,2,0,L|220:154,1,140,0|0,0:0|0:0,0:0:0:0:
300,73,105010,1,10,0:0:0:0:
456,303,105344,6,0,L|456:211,1,70,0|2,0:0|0:0,0:0:0:0:
373,223,105677,2,0,L|291:222,1,70,10|2,0:0|0:0,0:0:0:0:
456,303,106010,2,0,L|456:229,1,70,0|2,0:0|0:0,0:0:0:0:
373,223,106344,2,0,L|291:223,1,70,10|2,0:0|0:0,0:0:0:0:
100,297,106677,6,0,P|70:231|118:215,1,140,6|8,0:0|0:0,0:0:0:0:
200,122,107177,1,0,0:0:0:0:
271,38,107344,2,0,L|194:37,1,70,2|0,0:0|0:0,0:0:0:0:
120,41,107677,1,10,0:0:0:0:
300,300,108010,5,8,0:0:0:0:
370,250,108177,1,8,0:0:0:0:
400,166,108344,1,8,0:0:0:0:
340,89,108510,1,8,0:0:0:0:
250,77,108677,1,8,0:0:0:0:
170,107,108844,1,8,0:0:0:0:
180,190,109010,1,8,0:0:0:0:
471,303,109344,5,4,0:0:0:0:
256,192,109677,12,0,113344,0:0:0:0:
349,278,114344,6,0,L|439:279,2,70,0|0|10,0:0|0:0|0:0,0:0:0:0:
189,243,116010,5,2,0:0:0:0:
101,243,116344,2,0,P|49:192|102:131,1,140,0|0,0:0|0:0,0:0:0:0:
162,130,117010,1,0,0:0:0:0:
293,230,117344,6,0,P|331:178|287:113,1,140,2|0,0:0|0:0,0:0:0:0:
216,107,118010,2,0,L|73:174,1,140,2|0,0:0|0:0,0:0:0:0:
27,162,118677,1,2,0:0:0:0:
128,294,119010,6,0,L|272:294,1,140,0|2,0:0|0:0,0:0:0:0:
347,148,119677,1,0,0:0:0:0:
100,330,120010,2,0,P|57:277|120:252,1,140,10|0,0:0|0:0,0:0:0:0:
224,209,120677,2,0,L|377:210,1,140,0|0,0:0|0:0,0:0:0:0:
190,208,121344,5,2,0:0:0:0:
323,200,121677,2,0,L|246:77,1,140,0|2,0:0|0:0,0:0:0:0:
107,214,122344,2,0,P|75:151|130:107,1,140,0|2,0:0|0:0,0:0:0:0:
232,111,123010,1,0,0:0:0:0:
371,197,123344,6,0,L|428:64,1,140,2|0,0:0|0:0,0:0:0:0:
149,201,124010,1,10,0:0:0:0:
332,308,124344,2,0,P|324:243|258:213,1,140,0|2,0:0|0:0,0:0:0:0:
147,212,125010,1,0,0:0:0:0:
420,221,125344,6,0,L|351:93,1,140,10|0,0:0|0:0,0:0:0:0:
190,64,126010,2,0,L|343:66,1,140,0|0,0:0|0:0,0:0:0:0:
328,273,126677,2,0,L|262:141,1,140,2|0,0:0|0:0,0:0:0:0:
121,206,127344,2,0,L|66:59,1,140,2|0,0:0|0:0,0:0:0:0:
334,198,128010,5,10,0:0:0:0:
418,197,128344,2,0,P|466:134|414:96,1,140,0|2,0:0|0:0,0:0:0:0:
303,83,129010,1,0,0:0:0:0:
160,307,129344,6,0,L|314:258,2,140,2|0|2,0:0|0:0|0:0,0:0:0:0:
60,95,130344,5,2,0:0:0:0:
350,96,130677,1,8,0:0:0:0:
256,192,131010,12,0,134677,0:0:0:0:
