osu file format v14

[General]
AudioFilename: audio.mp3
AudioLeadIn: 0
PreviewTime: 66594
Countdown: 0
SampleSet: Soft
StackLeniency: 0.7
Mode: 2
LetterboxInBreaks: 0
WidescreenStoryboard: 1

[Editor]
Bookmarks: 48010,134677
DistanceSpacing: 1
BeatDivisor: 4
GridSize: 8
TimelineZoom: 1.2

[Metadata]
Title:Daisy
TitleUnicode:Daisy
Artist:Lifetheory
ArtistUnicode:Lifetheory
Creator:Dapuluous
Version:Du5t's Overdose
Source:
Tags:dnb drum and bass flower bastian -joni- idust idu5t dust du5t
BeatmapID:2149261
BeatmapSetID:993396

[Difficulty]
HPDrainRate:6
CircleSize:4.5
OverallDifficulty:9.3
ApproachRate:9.3
SliderMultiplier:2
SliderTickRate:2

[Events]
//Background and Video events
0,0,"28.jpg",0,0
//Break Periods
2,110877,112790
//Storyboard Layer 0 (Background)
//Storyboard Layer 1 (Fail)
//Storyboard Layer 2 (Pass)
//Storyboard Layer 3 (Foreground)
//Storyboard Layer 4 (Overlay)
//Storyboard Sound Samples

[TimingPoints]
11,333.333333333333,4,2,11,40,1,0
21344,-100,4,2,11,50,0,0
42677,-100,4,2,22,60,0,0
53344,-100,4,2,22,67,0,0
60010,-100,4,2,22,74,0,0
66677,-83.3333333333333,4,2,33,85,0,1
77010,-83.3333333333333,4,2,33,85,0,0
77344,-83.3333333333333,4,2,33,85,0,1
87677,-83.3333333333333,4,2,33,85,0,0
88010,-83.3333333333333,4,2,33,85,0,1
98344,-83.3333333333333,4,2,33,85,0,0
98677,-83.3333333333333,4,2,33,85,0,1
109344,-100,4,2,22,50,0,0
110677,-100,4,2,11,50,0,0
130677,-100,4,2,11,40,0,0
132010,-100,4,2,22,25,0,0
133344,-100,4,2,22,15,0,0

[Colours]
Combo1 : 212,212,212
Combo2 : 100,160,60
Combo3 : 255,230,0

[HitObjects]
260,374,11,6,0,P|344:369|130:75,1,800,0|8,0:0|0:0,0:0:0:0:
68,227,4010,6,0,B|416:31|416:31|63:228,2,800,0|0|8,0:0|0:0|0:0,0:0:0:0:
445,222,8010,5,0,0:0:0:0:
49,219,9344,1,0,0:0:0:0:
480,271,10677,2,0,P|480:173|12:229,1,800,0|8,0:0|0:0,0:0:0:0:
472,245,13344,5,0,0:0:0:0:
52,249,14677,1,0,0:0:0:0:
479,252,16010,2,0,B|119:78|119:78|516:270,1,800,0|8,0:0|0:0,0:0:0:0:
213,356,18510,5,0,0:0:0:0:
264,351,18594,1,0,0:0:0:0:
314,344,18677,2,0,P|389:341|180:70,1,800,0|8,0:0|0:0,0:0:0:0:
305,216,21010,2,0,L|176:208,1,116.666666666667,0|0,0:0|0:0,0:0:0:0:
405,98,21344,6,0,L|421:304,1,200,10|0,0:0|0:0,0:0:0:0:
238,253,22010,2,0,L|225:39,1,200,2|0,0:0|0:0,0:0:0:0:
45,25,22677,2,0,L|56:244,1,200,2|0,0:0|0:0,0:0:0:0:
238,259,23344,2,0,L|226:47,1,200,2|2,0:0|0:0,0:0:0:0:
338,53,23844,1,2,0:0:0:0:
120,299,24177,6,0,P|56:287|144:156,1,300,2|2,0:0|0:0,0:0:0:0:
226,165,24844,1,2,0:0:0:0:
135,94,25010,1,2,0:0:0:0:
44,37,25177,1,2,0:0:0:0:
242,265,25344,6,0,L|412:149,3,200,2|2|2|2,0:0|0:0|0:0|0:0,0:0:0:0:
145,246,26677,6,0,L|131:37,1,200,10|0,0:0|0:0,0:0:0:0:
314,242,27344,2,0,L|303:17,1,200,0|0,0:0|0:0,0:0:0:0:
485,41,28010,2,0,L|498:262,1,200,0|0,0:0|0:0,0:0:0:0:
315,252,28677,2,0,L|309:30,1,200,0|2,0:0|0:0,0:0:0:0:
188,53,29177,1,2,0:0:0:0:
432,305,29510,6,0,P|477:276|231:52,1,600,2|0,0:0|0:0,0:0:0:0:
419,265,30677,1,2,0:0:0:0:
318,283,30844,2,0,P|259:272|407:75,1,500,0|2,0:0|0:0,0:0:0:0:
460,137,31844,1,2,0:0:0:0:
260,129,32010,6,0,L|242:332,1,200,10|0,0:0|0:0,0:0:0:0:
59,235,32677,2,0,L|79:20,1,200,0|0,0:0|0:0,0:0:0:0:
257,231,33344,2,0,L|275:22,1,200,0|0,0:0|0:0,0:0:0:0:
453,204,34010,2,0,P|385:180|497:66,1,300,2|0,0:0|0:0,0:0:0:0:
279,75,34677,6,0,L|264:287,1,200,2|0,0:0|0:0,0:0:0:0:
82,84,35344,2,0,L|63:298,1,200,0|0,0:0|0:0,0:0:0:0:
339,244,36010,6,0,P|400:166|347:73,1,200,10|0,0:0|0:0,0:0:0:0:
172,124,36677,2,0,P|128:186|171:301,1,200,0|0,0:0|0:0,0:0:0:0:
448,97,37344,6,0,L|437:313,1,200,10|0,0:0|0:0,0:0:0:0:
262,84,38010,2,0,L|252:316,1,200,0|0,0:0|0:0,0:0:0:0:
76,268,38677,6,0,L|86:51,1,200,0|0,0:0|0:0,0:0:0:0:
267,249,39344,2,0,L|277:34,1,200,2|0,0:0|0:0,0:0:0:0:
377,54,39844,1,0,0:0:0:0:
275,49,39927,1,0,0:0:0:0:
173,40,40010,6,0,P|96:43|187:239,1,400,10|2,0:0|0:0,0:0:0:0:
259,233,40844,1,0,0:0:0:0:
169,175,41010,1,2,0:0:0:0:
258,131,41177,1,2,0:0:0:0:
106,61,41344,6,0,L|300:179,1,200,2|2,0:0|0:0,0:0:0:0:
458,289,42010,2,0,L|478:83,1,200,0|2,0:0|0:0,0:0:0:0:
76,288,42677,5,2,0:0:0:0:
26,212,42844,1,0,0:0:0:0:
57,127,43010,1,0,0:0:0:0:
138,87,43177,1,0,0:0:0:0:
338,179,43344,2,0,L|248:117,3,100,2|0|0|0,0:0|0:0|0:0|0:0,0:0:0:0:
456,285,44010,5,2,0:0:0:0:
492,201,44177,1,0,0:0:0:0:
457,118,44344,1,0,0:0:0:0:
375,82,44510,1,0,0:0:0:0:
171,175,44677,2,0,L|270:113,3,100,2|0|0|0,0:0|0:0|0:0|0:0,0:0:0:0:
53,94,45344,5,2,0:0:0:0:
74,178,45510,1,0,0:0:0:0:
172,249,45677,1,0,0:0:0:0:
74,178,45844,1,0,0:0:0:0:
272,134,46010,2,0,L|287:245,1,100,2|0,0:0|0:0,0:0:0:0:
90,49,46344,2,0,L|70:155,1,100,2|0,0:0|0:0,0:0:0:0:
271,54,46677,5,2,0:0:0:0:
179,54,46844,2,0,L|189:166,1,100,0|0,0:0|0:0,0:0:0:0:
385,207,47177,2,0,L|395:331,1,100,2|0,0:0|0:0,0:0:0:0:
211,268,47510,1,0,0:0:0:0:
392,308,47677,1,2,0:0:0:0:
211,268,47844,1,2,0:0:0:0:
451,166,48010,6,0,L|341:156,1,100,8|0,0:0|0:0,0:0:0:0:
452,94,48344,1,0,0:0:0:0:
268,158,48510,1,8,0:0:0:0:
167,160,48677,2,0,L|192:55,1,100,0|0,0:0|0:0,0:0:0:0:
378,242,49010,2,0,L|491:250,2,100,8|0|0,0:0|0:0|0:0,0:0:0:0:
197,154,49510,2,0,L|303:148,2,100,8|0|0,0:0|0:0|0:0,0:0:0:0:
381,44,50010,2,0,L|497:39,1,100,10|0,0:0|0:0,0:0:0:0:
301,304,50344,2,0,L|183:308,1,100,10|0,0:0|0:0,0:0:0:0:
441,170,50677,5,8,0:0:0:0:
350,169,50844,1,0,0:0:0:0:
260,165,51010,1,0,0:0:0:0:
441,170,51177,1,8,0:0:0:0:
350,169,51344,1,0,0:0:0:0:
260,165,51510,1,0,0:0:0:0:
78,97,51677,5,8,0:0:0:0:
159,92,51844,1,0,0:0:0:0:
239,84,52010,1,0,0:0:0:0:
78,97,52177,1,8,0:0:0:0:
159,92,52344,1,0,0:0:0:0:
338,69,52510,1,0,0:0:0:0:
159,92,52677,2,0,L|267:82,1,100,10|0,0:0|0:0,0:0:0:0:
79,165,53010,2,0,L|36:276,1,100,10|0,0:0|0:0,0:0:0:0:
291,199,53344,6,0,L|412:189,2,100,8|0|0,0:0|0:0|0:0,0:0:0:0:
110,114,53844,2,0,L|216:103,2,100,8|0|0,0:0|0:0|0:0,0:0:0:0:
291,26,54344,2,0,L|184:37,1,100,8|0,0:0|0:0,0:0:0:0:
373,14,54677,1,0,0:0:0:0:
193,229,54844,6,0,L|86:237,2,100,8|0|0,0:0|0:0|0:0,0:0:0:0:
374,206,55344,2,0,L|271:199,1,100,10|0,0:0|0:0,0:0:0:0:
396,146,55677,2,0,L|392:25,1,100,10|0,0:0|0:0,0:0:0:0:
133,290,56010,5,8,0:0:0:0:
224,290,56177,2,0,L|235:186,1,100,0|0,0:0|0:0,0:0:0:0:
416,154,56510,1,8,0:0:0:0:
326,155,56677,2,0,L|314:49,1,100,0|0,0:0|0:0,0:0:0:0:
135,66,57010,1,8,0:0:0:0:
314,55,57177,1,0,0:0:0:0:
135,66,57344,1,0,0:0:0:0:
314,55,57510,6,0,L|210:61,2,100,8|0|0,0:0|0:0|0:0,0:0:0:0:
134,211,58010,2,0,L|21:218,1,100,10|0,0:0|0:0,0:0:0:0:
216,139,58344,2,0,L|113:142,1,100,10|0,0:0|0:0,0:0:0:0:
167,143,58594,1,0,0:0:0:0:
319,262,58677,6,0,L|428:266,2,100,8|0|0,0:0|0:0|0:0,0:0:0:0:
138,273,59177,2,0,L|125:169,1,100,8|0,0:0|0:0,0:0:0:0:
304,166,59510,1,0,0:0:0:0:
126,173,59677,2,0,L|114:72,1,100,8|0,0:0|0:0,0:0:0:0:
294,57,60010,1,0,0:0:0:0:
115,73,60177,6,0,L|226:64,2,100,8|0|0,0:0|0:0|0:0,0:0:0:0:
356,212,60677,2,0,L|473:203,1,100,10|0,0:0|0:0,0:0:0:0:
215,168,61010,2,0,L|103:160,1,100,10|0,0:0|0:0,0:0:0:0:
65,158,61260,1,0,0:0:0:0:
318,42,61344,6,0,L|330:144,1,100,8|0,0:0|0:0,0:0:0:0:
148,125,61677,1,0,0:0:0:0:
387,167,61844,2,0,L|401:274,1,100,8|0,0:0|0:0,0:0:0:0:
220,276,62177,1,0,0:0:0:0:
462,323,62344,2,0,L|346:331,2,100,8|0|0,0:0|0:0|0:0,0:0:0:0:
216,161,62844,5,10,0:0:0:0:
453,175,63010,2,0,L|459:60,1,100,10|0,0:0|0:0,0:0:0:0:
408,73,63260,1,0,0:0:0:0:
202,65,63344,2,0,L|64:59,1,100,10|0,0:0|0:0,0:0:0:0:
385,278,63677,2,0,L|505:267,1,100,10|0,0:0|0:0,0:0:0:0:
120,262,64010,5,4,0:0:0:0:
256,192,65010,12,0,66510,0:0:0:0:
232,195,66677,6,0,L|102:182,1,119.999996337891,6|0,0:0|0:0,0:0:0:0:
354,108,67010,2,0,L|486:95,1,119.999996337891,10|0,0:0|0:0,0:0:0:0:
304,49,67344,1,0,0:0:0:0:
474,96,67510,1,0,0:0:0:0:
233,269,67677,2,0,L|103:258,1,119.999996337891,10|0,0:0|0:0,0:0:0:0:
363,187,68010,5,0,0:0:0:0:
118,136,68177,2,0,L|239:129,2,119.999996337891,2|10|2,0:0|0:0|0:0,0:0:0:0:
363,111,68677,1,0,0:0:0:0:
118,136,68844,2,0,L|239:129,2,119.999996337891,2|10|2,0:0|0:0|0:0,0:0:0:0:
375,342,69344,6,0,L|384:217,1,119.999996337891,6|0,0:0|0:0,0:0:0:0:
217,249,69677,2,0,L|205:120,1,119.999996337891,8|0,0:0|0:0,0:0:0:0:
374,188,70010,2,0,L|386:66,1,119.999996337891,2|0,0:0|0:0,0:0:0:0:
216,108,70344,2,0,L|206:-13,1,119.999996337891,8|0,0:0|0:0,0:0:0:0:
451,250,70677,5,0,0:0:0:0:
199,266,70844,2,0,L|76:269,2,119.999996337891,2|10|2,0:0|0:0|0:0,0:0:0:0:
445,102,71344,1,0,0:0:0:0:
197,113,71510,2,0,L|73:118,2,119.999996337891,2|10|2,0:0|0:0|0:0,0:0:0:0:
446,201,72010,6,0,L|455:333,1,119.999996337891,6|0,0:0|0:0,0:0:0:0:
206,194,72344,2,0,L|214:335,1,119.999996337891,10|0,0:0|0:0,0:0:0:0:
383,108,72677,2,0,L|505:102,1,119.999996337891,0|0,0:0|0:0,0:0:0:0:
249,57,73010,2,0,L|121:63,1,119.999996337891,10|0,0:0|0:0,0:0:0:0:
387,225,73344,5,0,0:0:0:0:
134,207,73510,1,2,0:0:0:0:
255,208,73677,2,0,L|269:82,1,119.999996337891,10|2,0:0|0:0,0:0:0:0:
22,76,74010,1,0,0:0:0:0:
273,115,74177,1,2,0:0:0:0:
153,119,74344,2,0,L|134:-2,1,119.999996337891,8|2,0:0|0:0,0:0:0:0:
406,264,74677,6,0,L|419:138,1,119.999996337891,6|0,0:0|0:0,0:0:0:0:
251,316,75010,2,0,L|263:184,1,119.999996337891,8|0,0:0|0:0,0:0:0:0:
20,129,75344,2,0,L|31:4,1,119.999996337891,2|0,0:0|0:0,0:0:0:0:
276,54,75677,2,0,L|155:46,1,119.999996337891,10|0,0:0|0:0,0:0:0:0:
96,43,75927,1,0,0:0:0:0:
340,250,76010,6,0,L|475:240,1,119.999996337891,8|0,0:0|0:0,0:0:0:0:
209,163,76344,1,2,0:0:0:0:
447,136,76510,1,8,0:0:0:0:
201,113,76677,2,0,L|61:101,1,119.999996337891,2|0,0:0|0:0,0:0:0:0:
336,41,77010,1,8,0:0:0:0:
91,27,77177,1,0,0:0:0:0:
449,310,77344,6,0,L|474:176,1,119.999996337891,6|0,0:0|0:0,0:0:0:0:
222,210,77677,2,0,L|204:85,1,119.999996337891,10|0,0:0|0:0,0:0:0:0:
373,59,78010,2,0,L|395:178,1,119.999996337891,0|0,0:0|0:0,0:0:0:0:
153,275,78344,1,10,0:0:0:0:
321,261,78510,1,0,0:0:0:0:
79,173,78677,5,0,0:0:0:0:
323,117,78844,1,2,0:0:0:0:
205,103,79010,1,10,0:0:0:0:
87,82,79177,1,2,0:0:0:0:
328,25,79344,1,0,0:0:0:0:
87,82,79510,1,2,0:0:0:0:
205,103,79677,1,10,0:0:0:0:
323,117,79844,1,2,0:0:0:0:
66,310,80010,6,0,L|56:190,1,119.999996337891,6|0,0:0|0:0,0:0:0:0:
308,193,80344,2,0,L|441:184,1,119.999996337891,10|0,0:0|0:0,0:0:0:0:
261,126,80677,2,0,L|131:115,1,119.999996337891,0|0,0:0|0:0,0:0:0:0:
391,21,81010,2,0,L|409:142,1,119.999996337891,10|0,0:0|0:0,0:0:0:0:
162,199,81344,5,0,0:0:0:0:
411,253,81510,2,0,L|289:263,2,119.999996337891,2|10|2,0:0|0:0|0:0,0:0:0:0:
162,199,82010,1,0,0:0:0:0:
406,123,82177,2,0,L|273:133,2,119.999996337891,2|10|2,0:0|0:0|0:0,0:0:0:0:
148,293,82677,6,0,L|20:303,1,119.999996337891,6|0,0:0|0:0,0:0:0:0:
288,258,83010,2,0,L|301:134,1,119.999996337891,10|0,0:0|0:0,0:0:0:0:
136,152,83344,2,0,L|115:24,1,119.999996337891,0|0,0:0|0:0,0:0:0:0:
359,37,83677,2,0,L|490:26,1,119.999996337891,10|0,0:0|0:0,0:0:0:0:
211,273,84010,5,0,0:0:0:0:
462,114,84177,2,0,L|476:242,1,119.999996337891,2|10,0:0|0:0,0:0:0:0:
359,245,84510,1,2,0:0:0:0:
109,110,84677,1,0,0:0:0:0:
361,39,84844,2,0,L|493:34,2,119.999996337891,2|10|2,0:0|0:0|0:0,0:0:0:0:
99,303,85344,6,0,L|88:173,1,119.999996337891,6|0,0:0|0:0,0:0:0:0:
253,170,85677,2,0,L|389:179,1,119.999996337891,8|0,0:0|0:0,0:0:0:0:
131,72,86010,2,0,L|7:59,1,119.999996337891,2|0,0:0|0:0,0:0:0:0:
323,67,86344,2,0,L|454:60,1,119.999996337891,10|0,0:0|0:0,0:0:0:0:
383,64,86594,1,0,0:0:0:0:
147,253,86677,5,8,0:0:0:0:
305,245,86844,1,8,0:0:0:0:
69,144,87010,1,8,0:0:0:0:
342,130,87177,1,8,0:0:0:0:
185,125,87344,1,8,0:0:0:0:
471,35,87510,1,8,0:0:0:0:
221,307,87677,1,8,0:0:0:0:
471,35,87844,1,8,0:0:0:0:
221,307,88010,6,0,L|478:295,1,239.999992675781,4|8,0:0|0:0,0:0:0:0:
341,266,88510,1,0,0:0:0:0:
84,83,88677,2,0,L|209:78,1,119.999996337891,2|0,0:0|0:0,0:0:0:0:
459,110,89010,2,0,L|475:236,1,119.999996337891,10|0,0:0|0:0,0:0:0:0:
234,253,89344,5,0,0:0:0:0:
475,229,89510,1,2,0:0:0:0:
234,253,89677,1,10,0:0:0:0:
391,243,89844,1,2,0:0:0:0:
146,158,90010,1,0,0:0:0:0:
391,133,90177,1,2,0:0:0:0:
146,158,90344,1,10,0:0:0:0:
302,144,90510,1,2,0:0:0:0:
66,86,90677,6,0,L|57:225,1,119.999996337891,6|0,0:0|0:0,0:0:0:0:
308,190,91010,2,0,L|326:335,1,119.999996337891,8|0,0:0|0:0,0:0:0:0:
161,202,91344,2,0,L|143:70,1,119.999996337891,2|0,0:0|0:0,0:0:0:0:
394,140,91677,2,0,L|417:20,1,119.999996337891,8|0,0:0|0:0,0:0:0:0:
170,275,92010,5,0,0:0:0:0:
411,252,92177,1,2,0:0:0:0:
170,275,92344,1,10,0:0:0:0:
26,293,92510,1,2,0:0:0:0:
273,124,92677,1,0,0:0:0:0:
27,113,92844,1,2,0:0:0:0:
273,124,93010,1,10,0:0:0:0:
399,109,93177,1,2,0:0:0:0:
144,303,93344,6,0,L|134:173,1,119.999996337891,6|0,0:0|0:0,0:0:0:0:
305,208,93677,2,0,L|316:75,1,119.999996337891,8|0,0:0|0:0,0:0:0:0:
482,100,94010,2,0,L|463:-21,1,119.999996337891,2|0,0:0|0:0,0:0:0:0:
214,27,94344,2,0,L|77:39,1,119.999996337891,10|0,0:0|0:0,0:0:0:0:
365,250,94677,5,0,0:0:0:0:
129,224,94844,2,0,L|5:235,2,119.999996337891,2|10|2,0:0|0:0|0:0,0:0:0:0:
358,135,95344,1,0,0:0:0:0:
119,64,95510,2,0,L|243:59,2,119.999996337891,2|10|2,0:0|0:0|0:0,0:0:0:0:
377,270,96010,6,0,L|129:281,1,239.999992675781,6|8,0:0|0:0,0:0:0:0:
256,277,96510,1,0,0:0:0:0:
490,62,96677,2,0,L|479:188,1,119.999996337891,2|0,0:0|0:0,0:0:0:0:
313,169,97010,2,0,L|439:183,1,119.999996337891,10|0,0:0|0:0,0:0:0:0:
373,174,97260,1,0,0:0:0:0:
130,157,97344,6,0,L|2:144,1,119.999996337891,10|0,0:0|0:0,0:0:0:0:
260,80,97677,1,0,0:0:0:0:
16,46,97844,1,8,0:0:0:0:
278,272,98010,2,0,L|431:255,1,119.999996337891,2|0,0:0|0:0,0:0:0:0:
145,202,98344,1,8,0:0:0:0:
394,167,98510,1,0,0:0:0:0:
48,100,98677,6,0,L|35:223,1,119.999996337891,6|0,0:0|0:0,0:0:0:0:
294,60,99010,2,0,L|317:194,1,119.999996337891,10|0,0:0|0:0,0:0:0:0:
151,150,99344,2,0,L|127:283,1,119.999996337891,0|0,0:0|0:0,0:0:0:0:
380,252,99677,2,0,L|501:238,1,119.999996337891,10|0,0:0|0:0,0:0:0:0:
246,172,100010,5,0,0:0:0:0:
498,138,100177,1,2,0:0:0:0:
246,172,100344,1,10,0:0:0:0:
98,163,100510,1,2,0:0:0:0:
355,69,100677,1,0,0:0:0:0:
106,51,100844,1,2,0:0:0:0:
355,69,101010,1,10,0:0:0:0:
494,53,101177,1,2,0:0:0:0:
192,298,101344,6,0,L|61:285,1,119.999996337891,6|0,0:0|0:0,0:0:0:0:
316,180,101677,2,0,L|447:167,1,119.999996337891,10|0,0:0|0:0,0:0:0:0:
269,110,102010,2,0,L|138:98,1,119.999996337891,0|0,0:0|0:0,0:0:0:0:
382,46,102344,2,0,L|518:31,1,119.999996337891,10|0,0:0|0:0,0:0:0:0:
229,252,102677,5,0,0:0:0:0:
490,140,102844,2,0,L|367:136,2,119.999996337891,2|10|2,0:0|0:0|0:0,0:0:0:0:
228,82,103344,1,0,0:0:0:0:
485,41,103510,2,0,L|361:37,2,119.999996337891,2|10|2,0:0|0:0|0:0,0:0:0:0:
231,242,104010,6,0,L|77:232,1,119.999996337891,6|0,0:0|0:0,0:0:0:0:
368,70,104344,2,0,L|389:197,1,119.999996337891,10|0,0:0|0:0,0:0:0:0:
218,84,104677,2,0,L|92:75,1,119.999996337891,0|0,0:0|0:0,0:0:0:0:
351,200,105010,2,0,L|370:345,1,119.999996337891,10|0,0:0|0:0,0:0:0:0:
105,160,105344,5,0,0:0:0:0:
357,125,105510,1,2,0:0:0:0:
105,160,105677,1,10,0:0:0:0:
264,144,105844,1,2,0:0:0:0:
28,57,106010,1,0,0:0:0:0:
277,24,106177,1,2,0:0:0:0:
28,57,106344,1,10,0:0:0:0:
183,40,106510,1,2,0:0:0:0:
446,258,106677,6,0,L|302:246,1,119.999996337891,6|0,0:0|0:0,0:0:0:0:
156,237,107010,2,0,L|21:225,1,119.999996337891,8|0,0:0|0:0,0:0:0:0:
325,88,107344,2,0,L|454:80,1,119.999996337891,2|0,0:0|0:0,0:0:0:0:
169,82,107677,2,0,L|177:206,1,119.999996337891,10|0,0:0|0:0,0:0:0:0:
250,200,107927,1,0,0:0:0:0:
470,287,108010,5,8,0:0:0:0:
245,303,108177,1,8,0:0:0:0:
17,323,108344,1,8,0:0:0:0:
245,303,108510,1,8,0:0:0:0:
470,287,108677,1,8,0:0:0:0:
170,318,108844,1,8,0:0:0:0:
470,287,109010,1,8,0:0:0:0:
170,318,109177,1,8,0:0:0:0:
470,287,109344,6,0,P|492:228|40:156,1,800,4|0,0:0|0:0,0:0:0:0:
285,330,113344,6,0,P|341:330|222:54,1,600,0|0,0:0|0:0,0:0:0:0:
328,60,114510,1,0,0:0:0:0:
63,312,114677,6,0,L|229:173,3,200,10|0|0|0,0:0|0:0|0:0|0:0,0:0:0:0:
498,256,116010,6,0,L|484:52,1,200,2|0,0:0|0:0,0:0:0:0:
385,61,116510,1,0,0:0:0:0:
284,70,116677,1,0,0:0:0:0:
385,61,116844,2,0,L|275:72,2,100,0|0|0,0:0|0:0|0:0,0:0:0:0:
205,228,117344,6,0,L|110:169,3,100,2|0|0|0,0:0|0:0|0:0|0:0,0:0:0:0:
298,189,118010,2,0,L|399:125,3,100,2|0|0|0,0:0|0:0|0:0|0:0,0:0:0:0:
200,300,118677,5,2,0:0:0:0:
113,233,118844,1,0,0:0:0:0:
132,125,119010,1,0,0:0:0:0:
225,64,119177,1,0,0:0:0:0:
406,237,119344,1,2,0:0:0:0:
428,142,119510,1,0,0:0:0:0:
327,114,119677,1,0,0:0:0:0:
428,142,119844,1,0,0:0:0:0:
185,252,120010,6,0,L|35:113,3,200,10|0|0|0,0:0|0:0|0:0|0:0,0:0:0:0:
185,252,121177,1,0,0:0:0:0:
356,225,121344,5,2,0:0:0:0:
385,141,121510,1,0,0:0:0:0:
264,150,121677,1,0,0:0:0:0:
234,60,121844,1,0,0:0:0:0:
353,333,122010,1,2,0:0:0:0:
323,244,122177,1,0,0:0:0:0:
437,214,122344,1,0,0:0:0:0:
467,115,122510,1,0,0:0:0:0:
286,131,122677,5,2,0:0:0:0:
187,118,122844,1,0,0:0:0:0:
286,131,123010,1,0,0:0:0:0:
316,41,123177,1,0,0:0:0:0:
139,265,123344,1,2,0:0:0:0:
40,252,123511,1,0,0:0:0:0:
139,265,123677,1,0,0:0:0:0:
169,175,123844,1,0,0:0:0:0:
407,182,124010,5,10,0:0:0:0:
439,81,124177,1,0,0:0:0:0:
260,255,124344,1,0,0:0:0:0:
228,157,124510,1,0,0:0:0:0:
338,158,124677,1,2,0:0:0:0:
370,64,124844,1,0,0:0:0:0:
191,101,125010,1,0,0:0:0:0:
159,9,125177,1,0,0:0:0:0:
401,271,125344,6,0,L|239:134,3,200,10|0|0|0,0:0|0:0|0:0|0:0,0:0:0:0:
151,152,126510,1,0,0:0:0:0:
307,109,126677,6,0,L|411:68,3,100,2|0|0|0,0:0|0:0|0:0|0:0,0:0:0:0:
208,275,127344,2,0,L|98:234,3,100,2|0|0|2,0:0|0:0|0:0|0:0,0:0:0:0:
208,275,127927,1,2,0:0:0:0:
299,290,128010,5,10,0:0:0:0:
329,189,128177,1,0,0:0:0:0:
220,183,128344,1,0,0:0:0:0:
250,86,128510,1,0,0:0:0:0:
430,112,128677,1,2,0:0:0:0:
401,22,128844,1,0,0:0:0:0:
222,22,129010,1,0,0:0:0:0:
191,113,129177,1,0,0:0:0:0:
373,259,129344,5,2,0:0:0:0:
474,242,129510,1,0,0:0:0:0:
293,147,129677,1,0,0:0:0:0:
395,131,129844,1,0,0:0:0:0:
214,239,130010,1,2,0:0:0:0:
73,238,130177,1,0,0:0:0:0:
248,159,130344,1,2,0:0:0:0:
107,137,130510,1,0,0:0:0:0:
353,76,130677,1,8,0:0:0:0:
256,192,130844,12,0,134677,0:0:0:0:
