osu file format v14

[General]
AudioFilename: audio.mp3
AudioLeadIn: 0
PreviewTime: 66594
Countdown: 0
SampleSet: Soft
StackLeniency: 0.7
Mode: 2
LetterboxInBreaks: 0
WidescreenStoryboard: 1

[Editor]
Bookmarks: 46010,134677
DistanceSpacing: 1.2
BeatDivisor: 4
GridSize: 8
TimelineZoom: 1.7

[Metadata]
Title:Daisy
TitleUnicode:Daisy
Artist:Lifetheory
ArtistUnicode:Lifetheory
Creator:Dapuluous
Version:Bastian's Cup
Source:
Tags:dnb drum and bass flower bastian -joni- idust idu5t dust du5t
BeatmapID:2099011
BeatmapSetID:993396

[Difficulty]
HPDrainRate:2
CircleSize:2.5
OverallDifficulty:6
ApproachRate:6
SliderMultiplier:1.1
SliderTickRate:1

[Events]
//Background and Video events
0,0,"28.jpg",0,0
//Break Periods
//Storyboard Layer 0 (Background)
//Storyboard Layer 1 (Fail)
//Storyboard Layer 2 (Pass)
//Storyboard Layer 3 (Foreground)
//Storyboard Layer 4 (Overlay)
//Storyboard Sound Samples

[TimingPoints]
11,333.333333333333,4,2,11,40,1,0
11,-100,4,2,11,40,0,0
16010,-133.333333333333,4,2,11,40,0,0
17344,-100,4,2,11,40,0,0
21344,-100,4,2,11,50,0,0
42677,-100,4,2,22,60,0,0
53344,-100,4,2,22,67,0,0
60010,-100,4,2,22,74,0,0
66677,-100,4,2,33,85,0,1
77010,-100,4,2,33,85,0,0
77344,-100,4,2,33,85,0,1
87677,-100,4,2,33,85,0,0
88010,-100,4,2,33,85,0,1
98344,-100,4,2,33,85,0,0
98677,-100,4,2,33,85,0,1
109344,-100,4,2,22,50,0,0
110677,-100,4,2,11,50,0,0
130677,-100,4,2,11,40,0,0
132010,-100,4,2,22,25,0,0
133344,-100,4,2,22,15,0,0

[Colours]
Combo1 : 212,212,212
Combo2 : 100,160,60
Combo3 : 255,230,0

[HitObjects]
171,343,11,6,0,P|146:311|320:35,1,440,0|8,0:0|0:0,0:0:0:0:
115,318,4010,5,0,0:0:0:0:
342,323,5344,2,0,P|388:288|243:24,1,440,0|8,0:0|0:0,0:0:0:0:
84,45,8010,5,0,0:0:0:0:
359,49,9344,1,0,0:0:0:0:
151,48,10677,2,0,P|100:107|320:197,1,440,0|8,0:0|0:0,0:0:0:0:
127,206,13344,5,0,0:0:0:0:
400,206,14677,1,0,0:0:0:0:
80,338,16010,6,0,P|26:230|131:64,1,330.000012588501,0|8,0:0|0:0,0:0:0:0:
327,29,18510,1,0,0:0:0:0:
382,29,18677,6,0,P|420:65|265:336,1,440,0|8,0:0|0:0,0:0:0:0:
87,336,21010,1,0,0:0:0:0:
175,281,21344,6,0,L|356:146,1,220,10|2,0:0|0:0,0:0:0:0:
131,149,22677,2,0,P|97:189|197:288,1,220,2|2,0:0|0:0,0:0:0:0:
319,291,23677,6,0,L|338:232,1,55,2|2,0:0|0:0,0:0:0:0:
203,238,24177,2,0,P|147:216|114:110,1,165,2|2,0:0|0:0,0:0:0:0:
242,123,25010,2,0,L|271:192,1,55,2|2,0:0|0:0,0:0:0:0:
196,173,25344,6,0,P|116:172|84:135,1,110,2|2,0:0|0:0,0:0:0:0:
239,155,26010,2,0,P|266:193|264:278,1,110,2|2,0:0|0:0,0:0:0:0:
106,254,26677,6,0,P|64:189|154:86,1,220,10|0,0:0|0:0,0:0:0:0:
384,84,28010,2,0,P|327:126|179:176,1,220,0|0,0:0|0:0,0:0:0:0:
341,287,29010,2,0,L|355:226,1,55,2|2,0:0|0:0,0:0:0:0:
426,288,29344,6,0,P|445:205|358:88,1,220,0|0,0:0|0:0,0:0:0:0:
102,102,30677,2,0,P|76:180|155:302,1,220,2|0,0:0|0:0,0:0:0:0:
300,293,31677,2,0,L|317:214,1,55,2|2,0:0|0:0,0:0:0:0:
223,239,32010,6,0,P|188:195|241:47,1,220,10|0,0:0|0:0,0:0:0:0:
467,52,33344,2,0,L|271:175,1,220,0|2,0:0|0:0,0:0:0:0:
60,168,34677,6,0,P|106:209|265:227,1,220,2|0,0:0|0:0,0:0:0:0:
84,234,36010,2,0,P|71:179|163:37,1,220,10|0,0:0|0:0,0:0:0:0:
363,88,37344,6,0,L|153:153,1,220,10|0,0:0|0:0,0:0:0:0:
407,318,38677,2,0,P|409:199|329:123,1,220,0|2,0:0|0:0,0:0:0:0:
112,128,39844,1,0,0:0:0:0:
46,128,40010,6,0,P|44:184|148:311,1,220,10|2,0:0|0:0,0:0:0:0:
256,304,41010,1,2,0:0:0:0:
377,303,41344,2,0,P|464:256|416:160,1,220,2|0,0:0|0:0,0:0:0:0:
136,104,42677,6,0,L|16:104,2,110,2|0|2,0:0|0:0|0:0,0:0:0:0:
272,104,43677,1,0,0:0:0:0:
408,104,44010,2,0,P|450:140|371:269,1,220,2|2,0:0|0:0,0:0:0:0:
88,304,45344,6,0,L|211:303,2,110,2|0|2,0:0|0:0|0:0,0:0:0:0:
240,304,46344,1,2,0:0:0:0:
384,304,46677,2,0,L|487:147,1,165,2|2,0:0|0:0,0:0:0:0:
272,168,47677,1,2,0:0:0:0:
445,315,48010,6,0,P|440:243|414:213,1,110,8|0,0:0|0:0,0:0:0:0:
361,223,48510,1,8,0:0:0:0:
152,208,49010,2,0,P|93:157|91:106,1,110,8|0,0:0|0:0,0:0:0:0:
146,125,49510,1,8,0:0:0:0:
351,117,50010,2,0,L|230:122,1,110,10|10,0:0|0:0,0:0:0:0:
376,240,50677,6,0,L|388:119,1,110,8|0,0:0|0:0,0:0:0:0:
297,126,51177,1,8,0:0:0:0:
132,126,51677,2,0,L|72:238,1,110,8|0,0:0|0:0,0:0:0:0:
147,223,52177,1,8,0:0:0:0:
336,224,52677,2,0,L|459:212,1,110,10|10,0:0|0:0,0:0:0:0:
304,128,53344,6,0,P|254:151|216:262,1,165,8|8,0:0|0:0,0:0:0:0:
380,241,54344,2,0,P|418:160|372:91,1,165,8|8,0:0|0:0,0:0:0:0:
187,82,55344,2,0,L|308:94,1,110,10|10,0:0|0:0,0:0:0:0:
163,257,56010,6,0,P|114:230|172:161,1,165,8|8,0:0|0:0,0:0:0:0:
352,112,57010,2,0,P|407:160|384:243,1,165,8|8,0:0|0:0,0:0:0:0:
204,241,58010,2,0,L|316:248,1,110,10|10,0:0|0:0,0:0:0:0:
181,318,58677,6,0,L|86:242,1,110,8|0,0:0|0:0,0:0:0:0:
151,209,59177,1,8,0:0:0:0:
318,215,59677,2,0,L|336:104,1,110,8|0,0:0|0:0,0:0:0:0:
272,112,60177,1,8,0:0:0:0:
80,88,60677,2,0,L|9:88,2,55,10|0|10,0:0|0:0|0:0,0:0:0:0:
240,100,61344,6,0,L|357:101,1,110,8|0,0:0|0:0,0:0:0:0:
284,183,61844,1,8,0:0:0:0:
119,197,62344,2,0,L|100:87,1,110,8|0,0:0|0:0,0:0:0:0:
166,91,62844,1,10,0:0:0:0:
232,90,63010,1,10,0:0:0:0:
364,90,63344,5,10,0:0:0:0:
232,90,63677,1,10,0:0:0:0:
407,90,64010,1,4,0:0:0:0:
256,192,65010,12,0,66177,0:0:0:0:
220,300,66677,6,0,L|103:244,2,110,6|10|0,0:0|0:0|0:0,0:0:0:0:
352,300,67677,2,0,P|406:273|346:155,1,220,10|10,0:0|0:0,0:0:0:0:
222,155,68677,1,0,0:0:0:0:
353,155,69010,1,10,0:0:0:0:
198,155,69344,6,0,P|134:234|217:294,1,220,6|2,0:0|0:0,0:0:0:0:
357,299,70344,1,8,0:0:0:0:
225,299,70677,2,0,L|109:299,1,110,0|10,0:0|0:0,0:0:0:0:
181,299,71177,1,2,0:0:0:0:
312,299,71510,2,0,L|335:229,1,55,2|10,0:0|0:0,0:0:0:0:
174,246,72010,6,0,P|115:199|154:62,1,220,6|0,0:0|0:0,0:0:0:0:
287,67,73010,2,0,L|407:116,2,110,10|0|10,0:0|0:0|0:0,0:0:0:0:
154,67,74010,2,0,L|105:170,1,110,0|8,0:0|0:0,0:0:0:0:
261,166,74677,6,0,P|363:194|436:301,1,220,6|2,0:0|0:0,0:0:0:0:
283,297,75677,2,0,L|260:222,1,55,10|0,0:0|0:0,0:0:0:0:
178,244,76010,2,0,L|57:97,2,165,8|8|8,0:0|0:0|0:0,0:0:0:0:
332,244,77344,6,0,P|379:195|300:91,1,220,6|0,0:0|0:0,0:0:0:0:
149,91,78344,2,0,P|87:166|183:232,1,220,10|10,0:0|0:0,0:0:0:0:
299,243,79344,1,0,0:0:0:0:
167,243,79677,1,10,0:0:0:0:
320,243,80010,6,0,L|357:130,1,110,6|10,0:0|0:0,0:0:0:0:
205,140,80677,2,0,L|162:27,1,110,0|10,0:0|0:0,0:0:0:0:
298,37,81344,6,0,L|311:169,1,110,0|10,0:0|0:0,0:0:0:0:
242,146,81844,1,2,0:0:0:0:
110,146,82177,2,0,L|87:217,1,55,2|10,0:0|0:0,0:0:0:0:
247,198,82677,6,0,L|347:263,2,110,6|10|0,0:0|0:0|0:0,0:0:0:0:
92,198,83677,6,0,P|22:278|91:342,1,220,10|10,0:0|0:0,0:0:0:0:
246,198,84677,2,0,L|306:79,1,110,0|10,0:0|0:0,0:0:0:0:
142,99,85344,6,0,P|74:172|144:243,1,220,6|2,0:0|0:0,0:0:0:0:
298,243,86344,1,10,0:0:0:0:
144,243,86677,1,8,0:0:0:0:
85,155,87010,1,8,0:0:0:0:
127,58,87343,1,8,0:0:0:0:
231,42,87676,1,8,0:0:0:0:
386,42,88010,6,0,L|489:119,2,110,4|8|2,0:0|0:0|0:0,0:0:0:0:
231,42,89010,2,0,P|170:113|256:202,1,220,10|10,0:0|0:0,0:0:0:0:
390,200,90010,2,0,L|257:200,1,110,0|10,0:0|0:0,0:0:0:0:
412,200,90677,6,0,L|416:64,1,110,6|8,0:0|0:0,0:0:0:0:
254,91,91344,2,0,L|213:194,1,110,2|8,0:0|0:0,0:0:0:0:
388,199,92010,6,0,P|380:266|343:298,1,110,0|10,0:0|0:0,0:0:0:0:
274,293,92510,1,2,0:0:0:0:
119,293,92844,2,0,L|97:218,1,55,2|10,0:0|0:0,0:0:0:0:
257,240,93344,6,0,L|371:178,2,110,6|8|2,0:0|0:0|0:0,0:0:0:0:
102,240,94344,2,0,P|85:181|177:62,1,220,10|10,0:0|0:0,0:0:0:0:
326,63,95344,6,0,L|364:180,1,110,0|10,0:0|0:0,0:0:0:0:
204,166,96010,2,0,P|178:232|279:328,1,220,6|2,0:0|0:0,0:0:0:0:
426,329,97010,1,10,0:0:0:0:
271,329,97344,6,0,L|176:246,1,110,10|0,0:0|0:0,0:0:0:0:
265,256,97844,1,8,0:0:0:0:
418,256,98177,2,0,L|432:192,1,55,0|8,0:0|0:0,0:0:0:0:
275,202,98677,6,0,P|202:163|239:30,1,220,6|0,0:0|0:0,0:0:0:0:
373,42,99677,2,0,L|474:95,2,110,10|0|10,0:0|0:0|0:0,0:0:0:0:
218,42,100677,1,0,0:0:0:0:
371,42,101010,1,10,0:0:0:0:
217,41,101344,6,0,L|74:222,1,220,6|0,0:0|0:0,0:0:0:0:
235,214,102344,1,10,0:0:0:0:
81,214,102677,6,0,L|41:96,1,110,0|10,0:0|0:0,0:0:0:0:
122,109,103177,1,2,0:0:0:0:
275,109,103510,2,0,L|304:181,1,55,2|10,0:0|0:0,0:0:0:0:
141,160,104010,6,0,L|51:249,2,110,6|10|0,0:0|0:0|0:0,0:0:0:0:
295,160,105010,2,0,P|363:227|281:304,1,220,10|10,0:0|0:0,0:0:0:0:
139,304,106010,2,0,L|274:304,1,110,0|10,0:0|0:0,0:0:0:0:
94,304,106677,6,0,P|73:249|176:116,1,220,6|2,0:0|0:0,0:0:0:0:
305,122,107677,1,10,0:0:0:0:
173,122,108010,1,8,0:0:0:0:
104,202,108343,1,8,0:0:0:0:
138,301,108676,1,8,0:0:0:0:
241,323,109009,1,8,0:0:0:0:
396,323,109344,5,4,0:0:0:0:
256,192,109677,12,0,113344,0:0:0:0:
325,304,114344,2,0,L|357:235,1,55,0|0,0:0|0:0,0:0:0:0:
259,254,114677,6,0,L|150:62,1,220,10|0,0:0|0:0,0:0:0:0:
370,62,116010,2,0,P|405:161|319:218,1,220,2|0,0:0|0:0,0:0:0:0:
102,218,117344,6,0,P|58:267|159:332,1,220,2|2,0:0|0:0,0:0:0:0:
376,333,118677,2,0,L|423:97,1,220,2|2,0:0|0:0,0:0:0:0:
286,117,119677,1,0,0:0:0:0:
154,117,120010,6,0,P|86:172|170:260,1,220,10|0,0:0|0:0,0:0:0:0:
416,261,121344,2,0,P|426:208|346:56,1,220,2|2,0:0|0:0,0:0:0:0:
137,63,122677,6,0,P|90:103|136:235,1,220,2|2,0:0|0:0,0:0:0:0:
244,234,123677,1,0,0:0:0:0:
112,234,124010,6,0,P|51:142|129:72,1,220,10|2,0:0|0:0,0:0:0:0:
240,73,125010,1,0,0:0:0:0:
372,73,125344,6,0,P|437:152|375:233,1,220,10|0,0:0|0:0,0:0:0:0:
155,232,126677,2,0,L|354:102,1,220,2|2,0:0|0:0,0:0:0:0:
146,40,127844,1,2,0:0:0:0:
80,40,128010,6,0,P|49:79|82:246,1,220,10|2,0:0|0:0,0:0:0:0:
292,236,129344,2,0,L|91:138,1,220,2|2,0:0|0:0,0:0:0:0:
204,139,130344,1,2,0:0:0:0:
50,139,130677,5,8,0:0:0:0:
256,192,131010,12,0,134677,0:0:0:0:
