osu file format v14

[General]
AudioFilename: audio.mp3
AudioLeadIn: 0
PreviewTime: 2459
Countdown: 0
SampleSet: Normal
StackLeniency: 0.7
Mode: 1
LetterboxInBreaks: 0
WidescreenStoryboard: 1

[Editor]
Bookmarks: 13126,23793,34459,45126
DistanceSpacing: 0.8
BeatDivisor: 2
GridSize: 8
TimelineZoom: 0.5799999

[Metadata]
Title:Daisy (Cut ver.)
TitleUnicode:Daisy (Cut ver.)
Artist:Lifetheory
ArtistUnicode:Lifetheory
Creator:Alwaysyukaz
Version:Futsuu
Source:
Tags:dnb drum and bass flower piano violin cello
BeatmapID:1565797
BeatmapSetID:742345

[Difficulty]
HPDrainRate:8
CircleSize:2
OverallDifficulty:4
ApproachRate:0
SliderMultiplier:1.4
SliderTickRate:1

[Events]
//Background and Video events
0,0,"Daisy1.jpg",0,-60
//Break Periods
//Storyboard Layer 0 (Background)
//Storyboard Layer 1 (Fail)
//Storyboard Layer 2 (Pass)
//Storyboard Layer 3 (Foreground)
//Storyboard Sound Samples

[TimingPoints]
2460,333.333333333333,4,1,0,55,1,0

[HitObjects]
256,192,2459,5,4,0:0:0:0:
256,192,2793,1,8,0:0:0:0:
256,192,3459,1,8,0:0:0:0:
256,192,3793,1,0,0:0:0:0:
256,192,4126,1,8,0:0:0:0:
256,192,4793,1,0,0:0:0:0:
256,192,5126,1,0,0:0:0:0:
256,192,5459,1,8,0:0:0:0:
256,192,5959,1,0,0:0:0:0:
256,192,6126,1,8,0:0:0:0:
256,192,6459,1,0,0:0:0:0:
256,192,6793,1,8,0:0:0:0:
256,192,7793,1,0,0:0:0:0:
256,192,8126,1,8,0:0:0:0:
256,192,8626,1,0,0:0:0:0:
256,192,8793,1,8,0:0:0:0:
256,192,9126,1,0,0:0:0:0:
256,192,9793,1,8,0:0:0:0:
256,192,10459,1,0,0:0:0:0:
256,192,11126,1,0,0:0:0:0:
256,192,11459,1,8,0:0:0:0:
256,192,11793,1,8,0:0:0:0:
256,192,11959,1,0,0:0:0:0:
256,192,12293,1,8,0:0:0:0:
256,192,12459,1,0,0:0:0:0:
256,192,12793,1,8,0:0:0:0:
256,192,13126,1,0,0:0:0:0:
256,192,13459,1,8,0:0:0:0:
256,192,14126,1,8,0:0:0:0:
256,192,14459,1,0,0:0:0:0:
256,192,14793,1,8,0:0:0:0:
256,192,15459,1,0,0:0:0:0:
256,192,15793,1,0,0:0:0:0:
256,192,16126,1,8,0:0:0:0:
256,192,16626,1,0,0:0:0:0:
256,192,16793,1,8,0:0:0:0:
256,192,17126,1,0,0:0:0:0:
256,192,17459,1,8,0:0:0:0:
256,192,18459,1,0,0:0:0:0:
256,192,18793,1,8,0:0:0:0:
256,192,19293,1,0,0:0:0:0:
256,192,19459,1,8,0:0:0:0:
256,192,19793,1,0,0:0:0:0:
256,192,20459,1,8,0:0:0:0:
256,192,21126,1,0,0:0:0:0:
256,192,21793,5,0,0:0:0:0:
256,192,22126,1,8,0:0:0:0:
256,192,22459,1,8,0:0:0:0:
256,192,22626,1,8,0:0:0:0:
256,192,22793,1,8,0:0:0:0:
256,192,23126,1,8,0:0:0:0:
256,192,23459,1,8,0:0:0:0:
256,192,23793,1,0,0:0:0:0:
256,192,24126,1,8,0:0:0:0:
256,192,24626,1,0,0:0:0:0:
256,192,24793,1,8,0:0:0:0:
256,192,25126,1,0,0:0:0:0:
256,192,25459,1,8,0:0:0:0:
256,192,26126,1,0,0:0:0:0:
256,192,26459,1,0,0:0:0:0:
256,192,26793,1,8,0:0:0:0:
256,192,27459,1,8,0:0:0:0:
256,192,27793,1,0,0:0:0:0:
256,192,28126,1,8,0:0:0:0:
256,192,29126,1,0,0:0:0:0:
256,192,29459,1,8,0:0:0:0:
256,192,29959,1,0,0:0:0:0:
256,192,30126,1,8,0:0:0:0:
256,192,30459,1,0,0:0:0:0:
256,192,30793,1,8,0:0:0:0:
256,192,31126,1,0,0:0:0:0:
256,192,31459,1,8,0:0:0:0:
256,192,31793,1,8,0:0:0:0:
256,192,32459,1,0,0:0:0:0:
256,192,32793,1,8,0:0:0:0:
256,192,33126,5,8,0:0:0:0:
256,192,33293,1,0,0:0:0:0:
256,192,33626,1,8,0:0:0:0:
256,192,33793,1,0,0:0:0:0:
256,192,34126,1,8,0:0:0:0:
256,192,34459,1,0,0:0:0:0:
256,192,34793,1,8,0:0:0:0:
256,192,35459,1,8,0:0:0:0:
256,192,35793,1,0,0:0:0:0:
256,192,36459,1,8,0:0:0:0:
256,192,36793,1,0,0:0:0:0:
256,192,37126,1,0,0:0:0:0:
256,192,37459,1,8,0:0:0:0:
256,192,37959,1,0,0:0:0:0:
256,192,38126,1,8,0:0:0:0:
256,192,38459,1,0,0:0:0:0:
256,192,38793,1,8,0:0:0:0:
256,192,39793,1,0,0:0:0:0:
256,192,40126,1,8,0:0:0:0:
256,192,40626,1,0,0:0:0:0:
256,192,40793,1,8,0:0:0:0:
256,192,41126,1,0,0:0:0:0:
256,192,41792,1,8,0:0:0:0:
256,192,42125,1,0,0:0:0:0:
256,192,42459,1,8,0:0:0:0:
256,192,43126,1,0,0:0:0:0:
256,192,43459,1,8,0:0:0:0:
256,192,43793,1,8,0:0:0:0:
256,192,43959,1,8,0:0:0:0:
256,192,44126,1,8,0:0:0:0:
256,192,44459,1,8,0:0:0:0:
256,192,44793,1,8,0:0:0:0:
256,192,45126,5,4,0:0:0:0:
