osu file format v14

[General]
AudioFilename: Lifetheory - Angel.mp3
AudioLeadIn: 0
PreviewTime: 46641
Countdown: 0
SampleSet: Soft
StackLeniency: 0.3
Mode: 0
LetterboxInBreaks: 0
WidescreenStoryboard: 0

[Editor]
DistanceSpacing: 0.5
BeatDivisor: 4
GridSize: 4
TimelineZoom: 2.2

[Metadata]
Title:Angel
TitleUnicode:Angel
Artist:Lifetheory
ArtistUnicode:Lifetheory
Creator:UchiganeNiigata
Version:Insane
Source:
Tags:drum and bass dnb BarkingMadDog xChorse Rohit6
BeatmapID:678587
BeatmapSetID:302784

[Difficulty]
HPDrainRate:7
CircleSize:4
OverallDifficulty:7
ApproachRate:9
SliderMultiplier:1.4
SliderTickRate:1

[Events]
//Background and Video events
0,0,"Angel.jpg",0,0
//Break Periods
2,68613,73470
2,92955,95413
2,139927,143413
//Storyboard Layer 0 (Background)
//Storyboard Layer 1 (Fail)
//Storyboard Layer 2 (Pass)
//Storyboard Layer 3 (Foreground)
//Storyboard Sound Samples

[TimingPoints]
21956,342.857142857143,4,2,0,50,1,0
43898,-100,4,2,0,5,0,0
46641,-100,4,2,0,70,0,1
49641,-66.6666666666667,4,2,0,70,0,1
68584,-66.6666666666667,4,2,0,70,0,0
74070,-66.6666666666667,4,1,0,70,0,0
79298,-66.6666666666667,4,2,0,70,0,0
90698,-66.6666666666667,4,2,0,5,0,0
96013,-100,4,3,0,50,0,0
117956,-66.6666666666667,4,2,0,70,0,0
139898,-66.6666666666667,4,2,0,70,0,0
144013,-66.6666666666667,4,2,0,70,0,1
165270,-66.6666666666667,4,2,0,70,0,0
165956,-66.6666666666667,4,2,0,70,0,1
187898,-100,4,2,0,50,0,0
188584,-100,4,2,0,35,0,0
193041,-57.1428571428571,4,2,0,60,0,0
198870,-100,4,2,0,50,0,0
199213,-100,4,2,0,45,0,0
199556,-100,4,2,0,40,0,0
199898,-100,4,2,0,35,0,0
200241,-100,4,2,0,30,0,0
200584,-100,4,2,0,25,0,0
200927,-100,4,2,0,20,0,0
201270,-100,4,2,0,15,0,0
201613,-100,4,2,0,10,0,0
201956,-100,4,2,0,5,0,0

[Colours]
Combo1 : 0,128,128
Combo2 : 255,128,128
Combo3 : 128,255,128
Combo4 : 255,255,128
Combo5 : 179,0,179

[HitObjects]
256,192,21956,6,0,P|312:240|392:252,1,140,0|0,1:0|1:0,1:0:0:0:
336,144,22641,1,0,0:0:0:0:
328,120,22813,1,0,0:0:0:0:
400,72,22984,1,0,0:0:0:0:
416,48,23156,1,0,0:0:0:0:
288,40,23327,1,0,0:0:0:0:
296,72,23498,2,0,L|208:112,1,70,0|0,0:0|0:0,0:0:0:0:
328,232,24013,6,0,L|256:272,1,70
87,206,24356,2,0,L|128:264,1,70
96,96,24698,6,0,P|156:48|224:40,1,140,0|0,1:0|1:0,1:0:0:0:
312,128,25384,5,0,0:0:0:0:
392,264,25727,1,0,0:0:0:0:
216,304,26070,2,0,B|168:248|120:265|120:265|96:236,1,140
88,104,26756,2,0,P|160:88|216:152,1,140,0|0,0:0|0:0,0:0:0:0:
376,248,27441,6,0,B|328:264|264:240|240:176,1,140,0|0,1:0|1:0,1:0:0:0:
120,64,28127,5,0,0:0:0:0:
208,56,28298,1,0,0:0:0:0:
280,112,28470,1,0,0:0:0:0:
312,192,28641,1,0,0:0:0:0:
392,224,28813,1,0,0:0:0:0:
464,176,28984,1,0,0:0:0:0:
432,312,29156,2,0,P|360:352|280:368,1,140
360,216,29670,2,0,L|288:168,1,70
200,280,30013,1,0,0:0:0:0:
72,240,30184,6,0,P|48:160|104:112,1,140,0|0,1:0|1:0,1:0:0:0:
224,72,30870,6,0,P|272:68|312:96,1,70
374,232,31213,2,0,P|416:200|416:176,1,70
248,288,31556,2,0,P|172:284|112:232,1,140
192,88,32241,1,0,0:0:0:0:
64,144,32413,1,0,0:0:0:0:
104,48,32584,1,0,0:0:0:0:
160,180,32756,1,0,0:0:0:0:
248,48,32927,6,0,B|288:104|344:84|344:84|376:112,1,140,0|0,1:0|1:0,1:0:0:0:
312,256,33613,6,0,L|384:272,1,70
232,288,33956,2,0,L|152:272,1,70
264,160,34298,2,0,P|344:192|384:144,1,140
324,48,34984,1,0,0:0:0:0:
200,44,35156,1,0,0:0:0:0:
280,144,35327,1,0,0:0:0:0:
244,244,35498,1,0,0:0:0:0:
392,208,35670,6,0,P|360:288|288:288,1,140,0|0,1:0|1:0,1:0:0:0:
192,288,36356,6,0,B|124:256|124:256|72:208,1,140
136,72,37041,2,0,B|216:60|216:60|274:95,1,140
380,200,37727,2,0,B|416:248|410:312|410:312|384:292,1,140
256,192,38413,6,0,B|206:182|180:128|180:128|152:172,1,140,0|0,1:0|1:0,1:0:0:0:
128,264,39098,6,0,P|188:304|264:336,1,140
296,200,39784,2,0,B|240:180|196:140|196:140|236:124,1,140
472,64,40470,2,0,L|464:136,1,70
308,100,40813,2,0,L|259:150,1,70
240,296,41156,6,0,P|160:288|88:320,1,140,0|0,1:0|1:0,1:0:0:0:
208,192,41841,1,0,0:0:0:0:
102,131,42013,1,0,0:0:0:0:
208,70,42184,1,0,0:0:0:0:
137,191,42356,1,0,0:0:0:0:
138,70,42527,1,0,0:0:0:0:
243,131,42698,1,0,0:0:0:0:
304,40,42870,2,0,L|368:104,1,70
347,278,43213,2,0,L|400:232,1,70
232,208,43556,2,0,L|160:160,1,70
256,192,43898,12,0,46298,0:0:0:0:
168,184,46641,6,0,L|232:264,1,70,2|0,1:0|1:0,1:0:0:0:
320,184,46984,2,0,L|352:160,1,35,0|0,0:0|0:0,0:0:0:0:
296,120,47156,2,0,L|336:88,1,35,0|0,0:0|0:0,0:0:0:0:
280,56,47327,2,0,L|320:32,1,35,0|0,0:0|0:0,0:0:0:0:
256,0,47498,1,0,1:0:0:0:
108,84,47670,2,0,P|108:132|144:164,1,70,0|0,1:0|1:0,1:0:0:0:
208,264,48013,6,0,L|280:328,1,70,2|0,1:0|1:0,1:0:0:0:
312,312,48270,1,0,0:0:0:0:
360,288,48356,1,0,0:0:0:0:
400,240,48441,1,0,0:0:0:0:
408,184,48527,1,0,0:0:0:0:
392,128,48613,1,0,0:0:0:0:
360,80,48698,1,0,0:0:0:0:
176,80,48870,2,0,B|208:100|208:100|232:136,1,70,0|0,1:0|1:0,1:0:0:0:
104,192,49213,6,0,L|48:264,1,70,0|2,1:0|1:0,1:0:0:0:
104,320,49556,1,0,0:0:0:0:
224,304,49727,2,0,L|248:216,1,52.5000020027161
312,288,49898,2,0,L|352:224,1,52.5000020027161
392,304,50070,2,0,L|440:256,1,52.5000020027161
416,192,50241,2,0,P|368:160|304:160,1,105.000004005432,0|0,1:0|1:0,1:0:0:0:
128,104,50584,6,0,L|232:64,1,105.000004005432,0|2,1:0|1:0,1:0:0:0:
312,64,50927,2,0,L|416:104,1,105.000004005432,0|0,1:0|1:0,1:0:0:0:
424,144,51184,1,0,0:0:0:0:
432,192,51270,1,0,0:0:0:0:
416,248,51356,1,0,0:0:0:0:
376,288,51442,1,0,0:0:0:0:
336,312,51527,1,0,0:0:0:0:
288,328,51613,2,0,P|232:318|184:280,1,105.000004005432,0|0,1:0|1:0,1:0:0:0:
112,224,51956,6,0,B|64:160|136:88,1,105.000004005432,0|2,1:0|1:0,1:0:0:0:
176,80,52298,1,0,0:0:0:0:
232,88,52384,2,0,L|320:56,1,52.5000020027161
280,120,52556,2,0,L|344:152,1,52.5000020027161
288,176,52727,2,0,L|320:240,1,52.5000020027161
296,320,52984,2,0,L|176:272,1,105.000004005432,0|0,1:0|1:0,1:0:0:0:
96,216,53327,6,0,L|104:96,1,105.000004005432,0|2,1:0|1:0,1:0:0:0:
288,64,53670,2,0,L|216:160,1,105.000004005432,0|0,1:0|1:0,1:0:0:0:
424,200,54013,1,0,0:0:0:0:
424,200,54098,1,0,0:0:0:0:
424,200,54184,1,0,0:0:0:0:
424,200,54270,1,0,0:0:0:0:
424,200,54356,2,0,L|384:312,1,105.000004005432,0|0,1:0|1:0,1:0:0:0:
200,256,54698,6,0,P|168:168|192:144,1,105.000004005432,0|2,1:0|1:0,1:0:0:0:
232,80,55041,1,0,1:0:0:0:
280,64,55127,1,0,0:0:0:0:
336,72,55213,1,0,0:0:0:0:
368,112,55298,1,0,0:0:0:0:
368,168,55384,1,0,0:0:0:0:
336,208,55470,1,0,0:0:0:0:
288,224,55556,1,0,0:0:0:0:
240,216,55641,1,0,0:0:0:0:
192,184,55727,2,0,L|296:136,1,105.000004005432,0|0,1:0|1:0,1:0:0:0:
448,184,56070,6,0,B|420:220|448:264|448:264|416:312,1,105.000004005432,0|2,1:0|1:0,1:0:0:0:
320,320,56413,1,0,1:0:0:0:
192,272,56584,1,2,1:0:0:0:
96,184,56756,2,0,L|152:144,1,52.5000020027161,0|0,1:0|1:0,1:0:0:0:
308,224,57013,2,0,L|252:200,1,52.5000020027161,0|0,1:0|1:0,1:0:0:0:
304,92,57270,1,0,1:0:0:0:
416,208,57441,1,0,1:0:0:0:
416,200,57613,6,0,L|400:96,1,105.000004005432,2|0,1:0|1:0,1:0:0:0:
288,264,57956,2,0,L|240:232,1,52.5000020027161
224,200,58127,2,0,L|176:168,1,52.5000020027161
176,128,58298,2,0,L|128:96,1,52.5000020027161
136,56,58470,1,0,0:0:0:0:
48,88,58641,2,0,L|80:208,1,105.000004005432,0|0,1:0|1:0,1:0:0:0:
96,304,58984,5,2,1:0:0:0:
240,256,59156,1,0,0:0:0:0:
272,216,59241,1,0,0:0:0:0:
296,168,59327,1,0,0:0:0:0:
296,112,59413,1,0,0:0:0:0:
280,64,59498,1,0,0:0:0:0:
328,40,59584,1,0,0:0:0:0:
376,64,59670,1,0,0:0:0:0:
400,112,59756,1,0,0:0:0:0:
416,160,59841,2,0,P|392:240|344:264,1,105.000004005432,0|0,1:0|1:0,1:0:0:0:
248,256,60184,6,0,L|136:184,1,105.000004005432,0|2,1:0|1:0,1:0:0:0:
112,96,60527,2,0,L|112:152,1,52.5000020027161
136,176,60698,2,0,L|136:232,1,52.5000020027161
152,264,60870,2,0,L|152:320,1,52.5000020027161
184,336,61041,2,0,P|248:336|280:288,1,105.000004005432,0|0,1:0|1:0,1:0:0:0:
344,232,61384,2,0,P|288:200|264:152,1,105.000004005432,0|0,1:0|1:0,1:0:0:0:
296,64,61727,5,2,1:0:0:0:
400,56,61898,2,0,P|424:144|392:160,1,105.000004005432,0|0,1:0|1:0,1:0:0:0:
376,128,62156,1,0,0:0:0:0:
320,160,62241,1,0,0:0:0:0:
280,128,62327,1,0,0:0:0:0:
240,160,62413,1,0,0:0:0:0:
200,128,62498,1,0,0:0:0:0:
168,168,62584,2,0,P|112:128|88:160,1,105.000004005432,0|0,1:0|1:0,1:0:0:0:
192,176,62927,6,0,P|152:224|176:272,1,105.000004005432,0|2,1:0|1:0,1:0:0:0:
104,176,63270,2,0,P|144:120|200:128,1,105.000004005432,0|0,1:0|1:0,1:0:0:0:
224,96,63527,1,0,0:0:0:0:
256,48,63613,1,0,0:0:0:0:
224,8,63698,1,0,0:0:0:0:
168,8,63784,1,0,0:0:0:0:
136,48,63870,1,0,0:0:0:0:
112,96,63956,2,0,P|56:144|8:136,1,105.000004005432,0|0,1:0|1:0,1:0:0:0:
168,224,64298,6,0,B|224:208|224:208|256:160,1,105.000004005432,0|2,1:0|1:0,1:0:0:0:
272,108,64641,1,0,0:0:0:0:
269,56,64726,1,0,0:0:0:0:
301,16,64812,1,0,0:0:0:0:
352,9,64898,1,0,0:0:0:0:
394,37,64983,1,0,0:0:0:0:
406,87,65069,1,0,0:0:0:0:
382,132,65155,1,0,0:0:0:0:
332,148,65241,2,0,B|360:200|432:204|432:204|380:240,1,157.500006008148,0|0,1:0|1:0,1:0:0:0:
280,248,65670,6,0,P|232:192|192:208,1,105.000004005432,0|2,1:0|1:0,1:0:0:0:
136,104,66013,2,0,P|200:88|232:136,1,105.000004005432,0|0,1:0|0:0,0:0:0:0:
144,232,66356,1,0,0:0:0:0:
144,232,66441,1,0,0:0:0:0:
144,232,66527,1,0,0:0:0:0:
144,232,66613,1,0,0:0:0:0:
144,232,66698,2,0,L|248:296,1,105.000004005432,0|0,1:0|1:0,1:0:0:0:
228,368,67041,6,0,P|316:328|292:224,1,210.000008010865,0|0,1:0|1:0,1:0:0:0:
152,72,67556,1,0,0:0:0:0:
88,196,67727,1,0,0:0:0:0:
92,204,67813,1,0,0:0:0:0:
96,212,67898,1,0,0:0:0:0:
280,248,68070,1,8,0:0:0:0:
184,104,68241,1,8,0:0:0:0:
368,104,68413,1,8,0:0:0:0:
160,192,74070,6,0,P|96:144|104:112,1,105.000004005432,0|0,1:0|1:0,1:0:0:0:
256,208,74413,2,0,P|320:192|336:144,1,105.000004005432,0|0,1:0|1:0,1:0:0:0:
216,88,74756,1,0,1:0:0:0:
120,192,74927,1,0,1:0:0:0:
208,304,75098,1,0,1:0:0:0:
296,192,75270,1,0,1:0:0:0:
368,80,75441,5,0,1:0:0:0:
160,80,75613,1,0,1:0:0:0:
272,240,75784,1,0,1:0:0:0:
72,240,75956,1,0,1:0:0:0:
256,88,76127,2,0,L|128:152,1,105.000004005432,0|0,1:0|1:0,1:0:0:0:
344,168,76470,2,0,L|424:272,1,105.000004005432,0|0,1:0|1:0,1:0:0:0:
192,200,76813,6,0,P|128:216|88:160,1,105.000004005432,0|0,1:0|1:0,1:0:0:0:
272,144,77156,2,0,P|328:128|344:72,1,105.000004005432,0|0,1:0|1:0,1:0:0:0:
144,104,77498,2,0,P|112:160|144:224,1,105.000004005432,0|0,1:0|1:0,1:0:0:0:
240,64,77841,2,0,P|312:112|320:168,1,105.000004005432,0|0,1:0|1:0,1:0:0:0:
248,256,78184,5,0,1:0:0:0:
128,296,78356,1,0,1:0:0:0:
368,320,78527,1,0,1:0:0:0:
280,152,78698,1,0,1:0:0:0:
144,192,78870,1,0,1:0:0:0:
45,153,79041,2,0,P|62:106|112:96,1,105.000004005432,0|0,1:0|1:0,1:0:0:0:
240,184,79384,6,0,P|256:128|208:88,1,105.000004005432,0|2,1:0|1:0,1:0:0:0:
136,56,79727,1,0,1:0:0:0:
48,184,79898,1,0,0:0:0:0:
96,208,79984,1,0,0:0:0:0:
144,184,80070,1,0,0:0:0:0:
168,136,80156,1,0,0:0:0:0:
144,88,80241,1,0,0:0:0:0:
96,80,80327,1,0,0:0:0:0:
48,104,80413,2,0,P|104:144|152:88,1,105.000004005432,0|0,1:0|1:0,1:0:0:0:
385,98,80756,6,0,B|344:64|288:104,1,105.000004005432,0|2,1:0|1:0,1:0:0:0:
256,216,81098,1,0,0:0:0:0:
288,176,81183,1,0,0:0:0:0:
344,160,81269,1,0,0:0:0:0:
396,176,81355,1,0,0:0:0:0:
432,212,81441,1,0,0:0:0:0:
440,264,81527,1,0,0:0:0:0:
416,312,81613,2,0,P|376:344|300:320,1,105.000004005432,0|0,1:0|1:0,1:0:0:0:
252,144,81956,2,0,P|222:102|172:96,1,105.000004005432,0|0,1:0|1:0,1:0:0:0:
104,272,82298,6,0,P|120:216|184:200,1,105.000004005432,2|0,1:0|1:0,1:0:0:0:
392,192,82641,1,0,0:0:0:0:
336,192,82727,1,0,0:0:0:0:
280,192,82813,1,0,0:0:0:0:
224,192,82898,1,0,0:0:0:0:
168,192,82984,1,0,0:0:0:0:
112,192,83070,2,0,B|111:92|111:92|76:148,1,157.500006008148,0|0,1:0|1:0,1:0:0:0:
136,232,83498,6,0,B|184:172|184:172|192:216,1,105.000004005432,0|2,1:0|1:0,1:0:0:0:
176,304,83841,2,0,P|120:288|72:216,1,105.000004005432,0|0,1:0|1:0,1:0:0:0:
264,272,84184,1,0,0:0:0:0:
264,272,84270,1,0,0:0:0:0:
264,272,84356,1,0,0:0:0:0:
264,272,84441,1,0,0:0:0:0:
264,272,84527,2,0,P|352:288|400:276,1,105.000004005432,0|0,1:0|1:0,1:0:0:0:
352,144,84870,6,0,P|304:100|256:100,1,105.000004005432,0|2,1:0|1:0,1:0:0:0:
64,104,85213,1,0,1:0:0:0:
32,248,85384,1,0,0:0:0:0:
80,224,85470,1,0,0:0:0:0:
120,192,85556,1,0,0:0:0:0:
144,144,85641,1,0,0:0:0:0:
144,96,85727,1,0,0:0:0:0:
120,48,85813,1,0,0:0:0:0:
148,4,85898,2,0,P|212:4|276:52,1,105.000004005432,0|0,1:0|1:0,1:0:0:0:
424,144,86241,6,0,P|401:76|352:56,1,105.000004005432,0|2,1:0|1:0,1:0:0:0:
224,152,86584,2,0,P|168:104|176:56,1,105.000004005432,0|0,1:0|1:0,1:0:0:0:
208,48,86927,1,0,0:0:0:0:
248,80,87013,1,0,0:0:0:0:
296,104,87098,1,0,0:0:0:0:
344,120,87184,1,0,0:0:0:0:
400,120,87270,2,0,P|392:216|360:232,1,105.000004005432,0|0,1:0|1:0,1:0:0:0:
224,224,87613,6,0,P|176:200|184:136,1,105.000004005432,0|2,1:0|1:0,1:0:0:0:
96,104,87956,1,0,1:0:0:0:
56,192,88127,1,0,1:0:0:0:
136,304,88298,1,0,0:0:0:0:
184,280,88384,1,0,0:0:0:0:
216,240,88470,1,0,0:0:0:0:
232,192,88556,1,0,0:0:0:0:
232,144,88641,2,0,B|152:176|152:176|168:136,1,105.000004005432,0|0,1:0|1:0,1:0:0:0:
408,216,88984,5,0,1:0:0:0:
344,128,89156,1,0,1:0:0:0:
192,64,89327,2,0,L|112:152,1,105.000004005432,0|0,1:0|1:0,1:0:0:0:
171,253,89670,1,0,1:0:0:0:
288,92,89841,1,0,1:0:0:0:
288,291,90013,1,0,1:0:0:0:
171,130,90184,1,0,1:0:0:0:
360,192,90356,1,0,1:0:0:0:
171,253,90527,1,4,1:0:0:0:
256,192,90698,12,0,92755,0:0:0:0:
280,224,96013,6,0,P|256:256|208:272,1,70
200,200,96356,1,0,0:0:0:0:
224,112,96527,1,0,0:0:0:0:
88,136,96698,2,0,B|120:168|120:168|96:240|152:272,1,140
312,96,97384,1,0,0:0:0:0:
432,200,98070,6,0,L|352:248,1,70
400,48,98413,2,0,L|339:84,1,70
128,104,98756,6,0,B|136:152|136:152|184:176,1,70
304,120,99098,1,0,0:0:0:0:
384,264,99441,1,0,0:0:0:0:
232,320,99784,2,0,P|160:256|120:272,1,140
96,128,100470,6,0,P|152:136|176:112,1,70
332,132,100813,2,0,P|307:107|273:103,1,70
192,248,101156,1,0,0:0:0:0:
56,340,101498,6,0,P|104:356|128:324,1,70
240,248,101841,2,0,B|304:240|304:240|320:160,1,140
160,128,102527,2,0,P|80:136|56:64,1,140
328,132,103556,6,0,P|279:116|255:147,1,70
224,224,103898,2,0,P|208:256|160:248,1,70
84,156,104241,2,0,P|117:157|140:132,1,70
204,36,104585,2,0,L|259:78,2,70
208,152,105270,5,0,0:0:0:0:
360,120,105613,2,0,L|456:88,1,70
304,184,105956,2,0,L|272:280,1,70
136,176,106298,1,0,0:0:0:0:
224,64,106470,1,0,0:0:0:0:
336,144,106641,1,0,0:0:0:0:
248,256,106813,1,0,0:0:0:0:
136,176,106984,6,0,P|120:208|152:240,1,70
224,160,107327,2,0,P|248:136|240:72,1,70
320,256,107670,1,0,0:0:0:0:
328,88,108013,2,0,P|240:96|184:144,1,140
128,192,109041,6,0,L|88:272,1,70
248,160,109384,2,0,L|336:128,1,70
144,72,109727,2,0,L|56:96,1,70
248,248,110070,2,0,L|344:272,1,70
240,80,110413,1,0,0:0:0:0:
88,248,110756,1,0,0:0:0:0:
440,176,111098,6,0,L|344:280,1,140
229,107,111613,2,0,P|263:115|296:104,1,70
128,192,111956,1,0,0:0:0:0:
264,280,112127,1,0,0:0:0:0:
96,80,112470,6,0,P|144:104|176:88,1,70
368,96,112813,2,0,P|304:168|336:208,1,140
128,216,113498,1,0,0:0:0:0:
256,32,113841,1,0,0:0:0:0:
256,272,114527,6,0,L|208:208,1,70
360,104,114870,2,0,L|416:48,1,70
160,144,115213,2,0,L|88:216,1,70
300,336,115556,2,0,L|408:228,1,140
208,176,116241,6,0,L|120:208,1,70
208,56,116584,2,0,L|288:24,1,70
352,152,116927,1,0,0:0:0:0:
296,288,117098,1,0,0:0:0:0:
168,192,117270,1,0,0:0:0:0:
224,72,117441,1,0,0:0:0:0:
256,208,117613,2,0,L|192:272,1,70
440,144,117956,6,0,P|368:192|336:168,1,105.000004005432,2|0,1:0|1:0,1:0:0:0:
136,152,118298,2,0,L|62:168,1,52.5000020027161
104,208,118470,2,0,L|56:260,1,52.5000020027161
128,268,118641,2,0,L|112:360,1,52.5000020027161
176,312,118813,2,0,P|226:297|256:252,1,105.000004005432,0|0,1:0|1:0,1:0:0:0:
176,228,119156,6,0,P|104:204|96:140,1,105.000004005432,0|2,1:0|1:0,1:0:0:0:
144,112,119499,1,0,0:0:0:0:
192,88,119584,1,0,0:0:0:0:
244,96,119670,1,0,0:0:0:0:
272,144,119756,1,0,0:0:0:0:
264,200,119842,1,0,0:0:0:0:
216,224,119927,1,0,0:0:0:0:
164,240,120013,2,0,P|126:269|120:336,1,105.000004005432,0|0,1:0|1:0,1:0:0:0:
356,284,120356,2,0,P|392:208|352:168,1,105.000004005432,0|0,1:0|1:0,1:0:0:0:
296,96,120698,6,0,P|216:112|192:64,1,105.000004005432,2|0,1:0|1:0,1:0:0:0:
168,64,120956,1,0,0:0:0:0:
120,88,121041,1,0,0:0:0:0:
96,136,121127,1,0,0:0:0:0:
88,192,121213,1,0,0:0:0:0:
96,240,121298,1,0,0:0:0:0:
136,280,121384,1,0,0:0:0:0:
184,296,121470,2,0,P|240:256|304:312,1,157.500006008148,0|0,1:0|1:0,1:0:0:0:
408,216,121898,6,0,P|344:192|352:152,1,105.000004005432,0|2,1:0|1:0,1:0:0:0:
280,64,122241,2,0,P|352:56|344:8,1,105.000004005432,0|0,1:0|1:0,1:0:0:0:
432,112,122584,1,0,0:0:0:0:
408,160,122670,1,0,0:0:0:0:
408,216,122756,1,0,0:0:0:0:
424,264,122841,1,0,0:0:0:0:
408,312,122927,2,0,P|376:368|320:383,1,105.000004005432,0|0,1:0|1:0,1:0:0:0:
208,348,123270,6,0,P|135:311|121:252,1,105.000004005432,0|2,1:0|1:0,1:0:0:0:
84,172,123613,1,0,0:0:0:0:
56,128,123698,1,0,0:0:0:0:
61,77,123784,1,0,0:0:0:0:
96,39,123870,1,0,0:0:0:0:
147,31,123955,1,0,0:0:0:0:
192,56,124041,1,0,0:0:0:0:
213,103,124127,1,0,0:0:0:0:
200,153,124213,1,0,0:0:0:0:
148,192,124298,2,0,P|172:240|228:240,1,105.000004005432,0|0,1:0|1:0,1:0:0:0:
276,64,124641,6,0,P|325:75|351:119,1,105.000004005432,0|2,1:0|1:0,1:0:0:0:
408,224,124984,2,0,P|432:152|464:144,1,105.000004005432,0|0,1:0|1:0,1:0:0:0:
432,96,125241,1,0,0:0:0:0:
384,120,125327,1,0,0:0:0:0:
352,160,125413,1,0,0:0:0:0:
344,208,125498,1,0,0:0:0:0:
352,256,125584,1,0,0:0:0:0:
392,288,125670,2,0,P|312:336|280:304,1,105.000004005432,0|0,1:0|1:0,1:0:0:0:
200,168,126013,6,0,P|152:208|192:272,1,105.000004005432,0|2,1:0|1:0,1:0:0:0:
208,264,126270,1,0,0:0:0:0:
248,232,126356,1,0,0:0:0:0:
264,184,126441,1,0,0:0:0:0:
240,136,126527,1,0,0:0:0:0:
192,112,126613,1,0,0:0:0:0:
136,112,126698,2,0,L|208:24,1,105.000004005432,0|0,1:0|1:0,1:0:0:0:
56,184,127041,6,0,L|128:272,1,105.000004005432,0|0,1:0|1:0,1:0:0:0:
296,280,127384,1,0,1:0:0:0:
221,205,127556,1,0,1:0:0:0:
296,131,127727,1,0,1:0:0:0:
370,205,127898,1,0,1:0:0:0:
408,96,128070,1,0,0:0:0:0:
408,96,128156,1,0,0:0:0:0:
408,96,128241,2,0,P|360:48|376:24,1,105.000004005432,0|0,1:0|1:0,1:0:0:0:
224,56,128584,1,0,1:0:0:0:
280,280,128756,1,0,1:0:0:0:
120,296,128927,6,0,P|48:320|48:376,1,105.000004005432,2|0,1:0|1:0,1:0:0:0:
96,160,129270,1,0,0:0:0:0:
120,144,129356,1,0,0:0:0:0:
144,128,129442,1,0,0:0:0:0:
168,112,129527,1,0,0:0:0:0:
192,96,129613,1,0,0:0:0:0:
216,80,129698,1,0,0:0:0:0:
248,56,129784,2,0,P|192:0|144:16,1,105.000004005432,0|0,1:0|1:0,1:0:0:0:
288,184,130127,6,0,L|240:280,1,105.000004005432,0|2,1:0|1:0,1:0:0:0:
320,112,130470,2,0,L|368:16,1,105.000004005432,0|0,1:0|1:0,1:0:0:0:
328,104,130813,1,0,0:0:0:0:
304,136,130898,1,0,0:0:0:0:
272,104,130984,1,0,0:0:0:0:
248,136,131070,1,0,0:0:0:0:
216,104,131156,2,0,L|128:192,1,105.000004005432,0|0,1:0|1:0,1:0:0:0:
280,216,131498,6,0,L|360:288,1,105.000004005432,0|2,1:0|1:0,1:0:0:0:
464,296,131842,1,0,0:0:0:0:
456,248,131927,1,0,0:0:0:0:
432,200,132013,1,0,0:0:0:0:
392,160,132099,1,0,0:0:0:0:
344,144,132184,1,0,0:0:0:0:
296,152,132270,1,0,0:0:0:0:
248,176,132356,1,0,0:0:0:0:
160,112,132527,1,0,1:0:0:0:
104,240,132698,1,0,1:0:0:0:
240,88,132870,1,0,1:0:0:0:
64,80,133041,6,0,L|148:196,1,105.000004005432,2|0,1:0|1:0,1:0:0:0:
248,176,133384,1,0,1:0:0:0:
352,336,133556,2,0,P|373:275|358:270,1,52.5000020027161
371,258,133728,2,0,P|392:197|377:192,1,52.5000020027161
373,182,133899,2,0,P|394:121|379:116,1,52.5000020027161
384,104,134070,2,0,P|405:43|368:32,1,105.000004005432,0|0,1:0|1:0,1:0:0:0:
264,72,134413,6,0,P|192:112|168:80,1,105.000004005432,2|0,1:0|1:0,1:0:0:0:
64,128,134756,1,0,0:0:0:0:
120,128,134841,1,0,0:0:0:0:
160,160,134927,1,0,0:0:0:0:
184,208,135013,1,0,0:0:0:0:
168,256,135098,1,0,0:0:0:0:
128,288,135184,1,0,0:0:0:0:
80,296,135270,2,0,L|168:368,1,105.000004005432,0|0,1:0|1:0,1:0:0:0:
312,88,135613,6,0,P|256:112|280:184,1,105.000004005432,0|2,1:0|1:0,1:0:0:0:
408,104,135956,2,0,P|464:128|440:200,1,105.000004005432,0|0,1:0|1:0,1:0:0:0:
352,256,136298,1,0,0:0:0:0:
312,224,136384,1,0,0:0:0:0:
288,176,136470,1,0,0:0:0:0:
272,128,136556,1,0,0:0:0:0:
264,80,136641,2,0,P|200:96|168:160,1,105.000004005432,0|0,1:0|1:0,1:0:0:0:
88,272,136984,1,0,1:0:0:0:
224,184,137156,5,2,1:0:0:0:
56,48,137327,1,0,0:0:0:0:
96,80,137413,1,0,0:0:0:0:
144,104,137498,1,0,0:0:0:0:
200,104,137584,1,0,0:0:0:0:
248,88,137670,1,0,0:0:0:0:
288,56,137756,1,0,0:0:0:0:
336,40,137841,2,0,P|384:48|432:96,1,105.000004005432,0|0,1:0|1:0,1:0:0:0:
208,216,138184,5,0,1:0:0:0:
400,192,138356,2,8,L|312:104,1,105.000004005432,8|8,1:0|1:0,1:0:0:0:
128,128,138698,2,8,L|72:216,1,105.000004005432,8|8,1:0|1:0,1:0:0:0:
368,272,139041,1,8,1:0:0:0:
264,112,139213,1,8,1:0:0:0:
128,168,139384,1,8,1:0:0:0:
24,56,139556,1,8,1:0:0:0:
80,264,139727,1,8,1:0:0:0:
128,88,144013,6,0,P|160:160|200:168,1,105.000004005432,2|0,1:0|1:0,1:0:0:0:
336,272,144356,1,0,1:0:0:0:
224,288,144527,1,0,1:0:0:0:
344,120,144698,2,0,P|288:168|224:152,1,105.000004005432,2|0,1:0|1:0,1:0:0:0:
160,256,145041,1,0,1:0:0:0:
88,160,145213,1,0,1:0:0:0:
192,120,145384,6,0,L|272:192,1,105.000004005432,2|0,1:0|1:0,1:0:0:0:
352,64,145727,1,0,1:0:0:0:
328,224,145898,2,0,B|344:280|344:280|296:328,1,105.000004005432,0|2,1:0|1:0,1:0:0:0:
168,304,146241,1,0,1:0:0:0:
104,168,146413,1,0,1:0:0:0:
264,112,146584,6,0,P|192:96|192:64,1,105.000004005432,0|2,1:0|1:0,1:0:0:0:
404,48,146927,1,0,1:0:0:0:
264,112,147098,1,0,1:0:0:0:
416,148,147270,1,0,1:0:0:0:
296,296,147441,1,0,1:0:0:0:
296,296,147613,2,0,L|176:240,1,105.000004005432,0|0,1:0|1:0,1:0:0:0:
80,168,147956,6,0,P|56:104|80:88,1,105.000004005432,0|2,1:0|1:0,1:0:0:0:
224,104,148298,2,0,P|288:88|264:40,1,105.000004005432,0|0,1:0|1:0,1:0:0:0:
408,160,148641,2,0,P|392:224|416:248,1,105.000004005432,0|2,1:0|1:0,1:0:0:0:
320,304,148984,1,0,1:0:0:0:
152,272,149156,1,0,1:0:0:0:
264,152,149327,1,0,1:0:0:0:
104,128,149498,6,0,L|168:216,1,105.000004005432,2|0,1:0|1:0,1:0:0:0:
264,272,149841,1,0,1:0:0:0:
264,93,150013,1,0,1:0:0:0:
418,182,150184,1,2,1:0:0:0:
208,184,150356,1,0,1:0:0:0:
378,97,150527,1,0,1:0:0:0:
368,288,150698,1,0,1:0:0:0:
264,93,150870,1,2,1:0:0:0:
418,182,151041,1,0,0:0:0:0:
376,216,151127,1,0,0:0:0:0:
336,248,151213,5,0,0:0:0:0:
260,320,151384,2,0,P|224:348|144:336,1,105.000004005432,0|2,1:0|1:0,1:0:0:0:
72,224,151727,1,0,1:0:0:0:
144,112,151898,1,0,1:0:0:0:
216,224,152070,1,0,1:0:0:0:
288,112,152241,1,2,1:0:0:0:
360,224,152413,1,0,1:0:0:0:
416,104,152584,1,0,1:0:0:0:
256,72,152756,2,0,P|288:152|328:160,1,105.000004005432,0|2,1:0|1:0,1:0:0:0:
320,96,153098,2,0,P|286:175|308:209,1,105.000004005432,0|0,1:0|1:0,1:0:0:0:
348,156,153441,6,0,P|268:188|259:228,1,105.000004005432,0|2,1:0|1:0,1:0:0:0:
328,220,153784,2,0,P|248:186|214:208,1,105.000004005432,0|0,1:0|1:0,1:0:0:0:
144,212,154127,2,0,P|96:236|84:308,2,105.000004005432,0|2|0,1:0|1:0|1:0,1:0:0:0:
232,132,154641,2,0,P|188:100|124:112,1,105.000004005432,0|0,1:0|1:0,1:0:0:0:
40,184,154984,5,2,1:0:0:0:
256,280,155156,2,0,P|328:296|320:344,1,105.000004005432,0|0,1:0|1:0,1:0:0:0:
296,104,155498,2,0,P|246:158|208:127,1,105.000004005432,0|2,1:0|1:0,1:0:0:0:
448,224,155841,2,0,P|425:153|471:136,1,105.000004005432,0|0,1:0|1:0,1:0:0:0:
336,208,156184,1,0,1:0:0:0:
328,312,156356,5,2,1:0:0:0:
224,144,156527,1,0,1:0:0:0:
440,144,156698,1,0,1:0:0:0:
336,56,156870,2,0,L|200:64,1,105.000004005432,0|2,1:0|1:0,1:0:0:0:
312,136,157213,2,0,L|250:257,1,105.000004005432,0|0,1:0|1:0,1:0:0:0:
392,120,157556,6,0,L|528:112,1,105.000004005432,0|2,1:0|1:0,1:0:0:0:
224,64,157898,1,0,1:0:0:0:
264,224,158070,1,0,1:0:0:0:
496,112,158241,1,0,1:0:0:0:
368,32,158413,1,2,1:0:0:0:
288,160,158584,2,0,L|416:224,1,105.000004005432,0|0,1:0|1:0,1:0:0:0:
192,160,158927,6,0,L|96:272,1,105.000004005432,0|2,1:0|1:0,1:0:0:0:
128,88,159270,1,0,1:0:0:0:
296,112,159441,1,0,1:0:0:0:
240,240,159613,2,0,L|336:304,1,105.000004005432,0|2,1:0|1:0,1:0:0:0:
336,224,159956,2,0,L|448:200,1,105.000004005432,0|0,1:0|1:0,1:0:0:0:
392,128,160298,6,0,L|288:64,1,105.000004005432,0|2,1:0|1:0,1:0:0:0:
160,160,160641,2,0,L|256:224,1,105.000004005432,0|0,1:0|1:0,1:0:0:0:
256,104,160984,1,0,1:0:0:0:
112,88,161156,1,2,1:0:0:0:
96,228,161327,5,0,1:0:0:0:
248,248,161498,2,0,L|360:208,1,105.000004005432,0|0,1:0|1:0,1:0:0:0:
336,96,161841,1,2,1:0:0:0:
432,136,162013,2,4,L|440:192,2,52.5000020027161
360,264,162356,2,2,L|248:320,1,105.000004005432,2|2,1:0|1:0,1:0:0:0:
240,192,162698,2,4,L|296:184,2,52.5000020027161
152,128,163041,6,0,L|80:208,1,105.000004005432,0|2,1:0|1:0,1:0:0:0:
200,256,163384,2,0,P|264:272|248:320,1,105.000004005432,0|0,1:0|1:0,1:0:0:0:
328,144,163727,2,0,P|272:88|296:56,1,105.000004005432,0|2,1:0|1:0,1:0:0:0:
352,264,164070,1,0,1:0:0:0:
232,184,164241,1,0,1:0:0:0:
224,304,164413,1,0,1:0:0:0:
360,184,164584,5,2,1:0:0:0:
176,216,164756,1,0,1:0:0:0:
288,328,164927,1,0,1:0:0:0:
296,152,165098,1,0,1:0:0:0:
128,240,165270,1,10,1:0:0:0:
222,193,165441,1,8,1:0:0:0:
81,145,165613,1,8,1:0:0:0:
176,99,165784,1,8,1:0:0:0:
288,208,165956,6,0,P|336:248|376:232,1,105.000004005432,2|0,1:0|1:0,1:0:0:0:
400,136,166298,1,0,0:0:0:0:
360,176,166384,1,0,0:0:0:0:
344,224,166470,1,0,0:0:0:0:
360,272,166556,1,0,0:0:0:0:
392,312,166641,1,0,0:0:0:0:
440,328,166727,1,0,1:0:0:0:
448,280,166813,2,0,L|452:152,1,105.000004005432,0|0,1:0|1:0,1:0:0:0:
200,112,167156,6,0,P|160:136|208:208,1,105.000004005432,0|2,1:0|1:0,1:0:0:0:
216,256,167498,1,0,0:0:0:0:
176,288,167584,1,0,0:0:0:0:
136,328,167670,1,0,0:0:0:0:
96,176,167841,2,0,P|48:216|16:200,1,105.000004005432,0|0,1:0|1:0,1:0:0:0:
160,64,168184,2,0,P|216:104|192:160,1,105.000004005432,0|0,1:0|1:0,1:0:0:0:
352,168,168527,6,0,L|400:136,2,52.5000020027161,0|0|2,0:0|0:0|1:0,0:0:0:0:
280,264,168870,2,0,P|256:320|288:352,1,105.000004005432,0|0,1:0|1:0,1:0:0:0:
96,256,169213,1,0,0:0:0:0:
80,208,169298,1,0,0:0:0:0:
80,152,169384,1,0,0:0:0:0:
96,104,169470,1,0,0:0:0:0:
136,72,169556,2,0,P|64:48|0:64,1,105.000004005432,0|0,1:0|1:0,1:0:0:0:
272,80,169898,6,0,P|336:56|392:80,1,105.000004005432,0|2,1:0|1:0,1:0:0:0:
368,232,170241,1,0,1:0:0:0:
224,232,170413,1,0,1:0:0:0:
160,96,170584,1,0,1:0:0:0:
288,16,170756,1,0,1:0:0:0:
416,88,170927,1,0,1:0:0:0:
224,232,171098,1,0,1:0:0:0:
288,16,171270,1,0,1:0:0:0:
368,232,171441,5,2,1:0:0:0:
280,144,171613,2,0,P|208:168|176:216,1,105.000004005432,0|0,1:0|1:0,1:0:0:0:
96,136,171956,1,0,0:0:0:0:
136,96,172041,1,0,0:0:0:0:
184,72,172127,1,0,0:0:0:0:
232,64,172213,1,0,0:0:0:0:
280,80,172298,2,0,P|336:56|360:8,1,105.000004005432,0|0,1:0|1:0,1:0:0:0:
368,184,172641,6,0,P|312:208|304:256,1,105.000004005432,0|2,1:0|1:0,1:0:0:0:
216,208,172984,1,0,0:0:0:0:
248,168,173070,1,0,0:0:0:0:
288,128,173156,1,0,0:0:0:0:
320,88,173241,1,0,0:0:0:0:
360,56,173327,1,0,0:0:0:0:
400,24,173413,1,0,0:0:0:0:
352,8,173498,2,0,P|283:1|240:54,1,105.000004005432,0|0,1:0|1:0,1:0:0:0:
32,64,173841,2,0,P|88:24|152:48,1,105.000004005432,0|0,1:0|1:0,1:0:0:0:
104,120,174184,6,0,P|160:168|208:144,1,105.000004005432,2|0,1:0|1:0,1:0:0:0:
128,240,174527,1,0,0:0:0:0:
176,272,174613,1,0,0:0:0:0:
208,312,174698,1,0,0:0:0:0:
224,360,174784,1,0,0:0:0:0:
280,352,174870,2,0,P|344:376|392:320,2,105.000004005432,0|0|0,1:0|1:0|1:0,1:0:0:0:
208,104,175384,1,0,1:0:0:0:
364,123,175556,5,2,1:0:0:0:
269,248,175727,1,0,1:0:0:0:
112,144,175898,2,0,P|48:192|56:256,1,105.000004005432,0|0,1:0|1:0,1:0:0:0:
208,104,176241,1,2,1:0:0:0:
269,248,176413,1,0,1:0:0:0:
364,123,176584,1,0,1:0:0:0:
384,240,176756,6,0,P|336:288|344:320,1,105.000004005432,0|2,1:0|1:0,1:0:0:0:
248,280,177098,1,0,0:0:0:0:
200,248,177184,1,0,0:0:0:0:
168,208,177270,1,0,0:0:0:0:
144,160,177356,1,0,0:0:0:0:
152,112,177441,1,0,0:0:0:0:
176,64,177527,1,0,0:0:0:0:
216,32,177613,2,0,P|144:16|96:40,1,105.000004005432,0|0,1:0|1:0,1:0:0:0:
88,208,177956,2,0,P|128:264|192:264,1,105.000004005432,0|0,1:0|1:0,1:0:0:0:
176,184,178298,5,2,1:0:0:0:
264,88,178470,1,0,0:0:0:0:
264,88,178556,1,0,0:0:0:0:
264,88,178641,1,0,0:0:0:0:
336,264,178813,2,0,P|424:288|440:320,2,105.000004005432,0|0|0,1:0|1:0|1:0,1:0:0:0:
240,328,179327,1,0,1:0:0:0:
144,160,179498,1,0,0:0:0:0:
144,160,179584,1,0,0:0:0:0:
144,160,179670,5,2,1:0:0:0:
88,240,179841,2,0,P|120:296|168:304,1,105.000004005432,0|0,1:0|1:0,1:0:0:0:
248,248,180184,1,0,0:0:0:0:
216,208,180270,1,0,0:0:0:0:
216,152,180356,1,0,0:0:0:0:
240,104,180441,1,0,0:0:0:0:
288,112,180527,2,0,L|192:16,1,105.000004005432,0|0,1:0|1:0,1:0:0:0:
368,192,180870,1,0,1:0:0:0:
256,296,181041,5,2,1:0:0:0:
144,192,181213,1,0,1:0:0:0:
256,88,181384,1,0,1:0:0:0:
256,296,181556,1,0,1:0:0:0:
144,192,181727,1,2,1:0:0:0:
368,192,181898,1,0,1:0:0:0:
256,88,182070,1,0,1:0:0:0:
256,192,182241,1,0,1:0:0:0:
144,72,182413,6,0,P|96:104|88:176,1,105.000004005432,2|0,1:0|1:0,1:0:0:0:
160,144,182756,1,0,0:0:0:0:
192,184,182841,1,0,0:0:0:0:
200,232,182927,1,0,0:0:0:0:
192,280,183013,1,0,0:0:0:0:
160,320,183098,1,0,0:0:0:0:
112,336,183184,1,0,0:0:0:0:
64,320,183270,2,0,P|24:269|35:201,1,105.000004005432,0|0,1:0|1:0,1:0:0:0:
288,320,183613,6,0,P|352:328|400:288,1,105.000004005432,0|2,1:0|1:0,1:0:0:0:
304,216,183956,1,0,0:0:0:0:
256,200,184041,1,0,0:0:0:0:
216,160,184127,1,0,0:0:0:0:
216,104,184213,1,0,0:0:0:0:
248,64,184298,1,0,0:0:0:0:
304,56,184384,1,0,0:0:0:0:
352,80,184470,1,0,0:0:0:0:
376,128,184556,1,0,0:0:0:0:
352,176,184641,2,0,L|264:112,2,105.000004005432,0|0|0,1:0|1:0|1:0,1:0:0:0:
353,289,185156,5,2,1:0:0:0:
255,329,185327,1,0,1:0:0:0:
158,289,185498,1,0,1:0:0:0:
118,191,185670,1,0,1:0:0:0:
158,94,185841,1,0,1:0:0:0:
256,54,186013,1,0,1:0:0:0:
353,94,186184,1,0,1:0:0:0:
393,192,186356,1,0,1:0:0:0:
255,329,186527,5,2,1:0:0:0:
118,191,186698,1,0,1:0:0:0:
256,54,186870,1,0,1:0:0:0:
393,192,187041,1,0,1:0:0:0:
158,289,187213,5,0,1:0:0:0:
158,94,187384,1,0,1:0:0:0:
353,94,187556,1,0,1:0:0:0:
352,288,187727,1,0,1:0:0:0:
256,192,187898,5,6,1:0:0:0:
256,96,188584,6,0,B|200:136|312:192|312:192|200:232|256:288,1,280
192,236,189956,1,0,0:0:0:0:
368,216,190298,1,0,0:0:0:0:
360,136,190641,2,0,B|232:160|336:304|184:336,1,280
184,152,192013,1,0,0:0:0:0:
384,144,192698,1,0,0:0:0:0:
272,241,193041,5,0,0:0:0:0:
213,222,193127,1,0,0:0:0:0:
213,161,193213,1,0,0:0:0:0:
272,142,193298,1,0,0:0:0:0:
308,192,193384,5,2,1:0:0:0:
192,128,193556,2,0,L|320:128,1,122.500001168251
255,229,193898,2,0,L|256:304,1,61.2500005841255
352,336,194070,1,0,0:0:0:0:
400,232,194241,1,0,0:0:0:0:
144,216,194413,2,0,L|240:296,1,122.500001168251
264,176,194756,6,0,L|320:224,1,61.2500005841255,2|0,1:0|0:0,0:0:0:0:
168,320,195013,2,0,L|96:264,1,61.2500005841255
256,240,195270,1,0,0:0:0:0:
272,56,195441,1,0,0:0:0:0:
310,215,195613,1,0,0:0:0:0:
208,88,195784,1,0,0:0:0:0:
200,200,195956,6,0,P|128:224|160:264,1,122.500001168251,0|2,0:0|1:0,0:0:0:0:
232,320,196298,2,0,L|312:312,1,61.2500005841255
280,232,196470,2,0,L|328:184,1,61.2500005841255
240,160,196641,2,0,L|240:64,1,61.2500005841255
160,144,196813,2,0,L|96:88,1,61.2500005841255
168,256,196984,2,0,P|208:320|280:312,2,122.500001168251
224,112,197498,6,0,P|136:136|160:192,1,122.500001168251,2|0,1:0|0:0,0:0:0:0:
208,240,197841,1,0,0:0:0:0:
344,160,198013,1,0,0:0:0:0:
392,288,198184,1,0,0:0:0:0:
240,176,198356,1,0,0:0:0:0:
424,184,198527,1,0,0:0:0:0:
288,296,198698,1,0,0:0:0:0:
336,96,198870,5,4,1:0:0:0:
256,192,199041,12,0,201956,0:0:0:0:
