osu file format v14

[General]
AudioFilename: audio.mp3
AudioLeadIn: 0
PreviewTime: -6
Countdown: 0
SampleSet: Normal
StackLeniency: 0.7
Mode: 0
LetterboxInBreaks: 0
WidescreenStoryboard: 0

[Editor]
DistanceSpacing: 1.7
BeatDivisor: 4
GridSize: 4
TimelineZoom: 1.5

[Metadata]
Title:Angel
TitleUnicode:Angel
Artist:Lifetheory
ArtistUnicode:Lifetheory
Creator:Megaten
Version:Insane
Source:
Tags:
BeatmapID:1718463
BeatmapSetID:819615

[Difficulty]
HPDrainRate:6
CircleSize:4
OverallDifficulty:7.5
ApproachRate:9
SliderMultiplier:1.4
SliderTickRate:1

[Events]
//Background and Video events
0,0,"Webp.net-resizeimage.jpg",0,0
//Break Periods
//Storyboard Layer 0 (Background)
//Storyboard Layer 1 (Fail)
//Storyboard Layer 2 (Pass)
//Storyboard Layer 3 (Foreground)
//Storyboard Sound Samples

[TimingPoints]
199,342.857142857143,4,1,1,100,1,0
22141,-133.333333333333,4,2,1,40,0,0
44084,-133.333333333333,4,2,2,40,0,0
46827,-71.4285714285714,4,1,1,70,0,0
68771,-100,4,2,1,55,0,0
72541,-83.3333333333333,4,2,1,55,0,0
74257,-83.3333333333333,4,1,1,60,0,0
79741,-71.4285714285714,4,1,1,70,0,0
96200,-117.647058823529,4,2,1,40,0,0
109832,-117.647058823529,4,2,1,5,0,0
109918,-117.647058823529,4,2,1,40,0,0
112575,-117.647058823529,4,2,1,5,0,0
112661,-117.647058823529,4,2,1,40,0,0
115318,-117.647058823529,4,2,1,5,0,0
115404,-117.647058823529,4,2,1,40,0,0
118142,-71.4285714285714,4,1,1,70,0,0
139741,-58.8235294117647,4,1,1,70,0,0
140084,-133.333333333333,4,2,1,25,0,0
140684,-133.333333333333,4,2,2,25,0,0
140775,-133.333333333333,4,2,1,25,0,0
141375,-133.333333333333,4,1,2,25,0,0
141461,-133.333333333333,4,2,1,25,0,0
142056,-133.333333333333,4,1,2,25,0,0
142146,-133.333333333333,4,2,1,25,0,0
142741,-133.333333333333,4,1,2,25,0,0
142832,-133.333333333333,4,2,1,25,0,0
143427,-133.333333333333,4,2,2,25,0,0
143513,-333.333333333333,4,2,1,50,0,0
143770,-333.333333333333,4,2,2,50,0,0
143856,-333.333333333333,4,2,1,50,0,0
144113,-333.333333333333,4,2,2,50,0,0
144199,-100,4,1,1,70,0,0
166142,-66.6666666666667,4,1,1,70,0,1
188427,-200,4,1,1,70,0,0
193227,-100,4,1,1,70,0,0

[HitObjects]
294,332,22141,6,0,P|253:323|230:300,2,52.5000020027161
415,302,22827,2,0,L|455:243,1,52.5000020027161
362,239,23170,2,0,L|405:177,1,52.5000020027161
452,102,23513,2,0,P|465:61|454:31,2,52.5000020027161
283,53,24199,5,0,0:0:0:0:
204,57,24370,1,0,0:0:0:0:
249,123,24541,1,0,0:0:0:0:
173,127,24713,1,0,0:0:0:0:
107,192,24884,2,0,P|121:223|145:237,2,52.5000020027161
233,335,25570,5,0,0:0:0:0:
334,245,25913,1,0,0:0:0:0:
176,195,26256,1,0,0:0:0:0:
297,124,26599,1,0,0:0:0:0:
229,262,26941,1,0,0:0:0:0:
345,341,27284,1,0,0:0:0:0:
446,266,27627,6,0,P|428:320|414:331,2,52.5000020027161
435,107,28313,2,0,L|394:162,1,52.5000020027161
372,63,28656,2,0,L|332:115,1,52.5000020027161
344,200,28999,2,0,L|395:243,2,52.5000020027161
214,127,29684,6,0,L|173:69,1,52.5000020027161
295,127,30027,2,0,L|342:69,1,52.5000020027161
435,72,30370,1,0,0:0:0:0:
471,147,30541,1,0,0:0:0:0:
441,222,30713,1,0,0:0:0:0:
386,151,30884,5,0,0:0:0:0:
359,229,31056,2,0,P|299:226|289:218,1,52.5000020027161
231,142,31399,1,0,0:0:0:0:
299,55,31741,1,0,0:0:0:0:
404,53,32084,1,0,0:0:0:0:
327,192,32427,2,0,L|261:157,1,52.5000020027161
375,267,32770,2,0,L|417:329,1,52.5000020027161
244,315,33113,6,0,P|199:269|197:265,2,52.5000020027161
42,310,33799,2,0,L|12:243,1,52.5000020027161
52,162,34141,1,0,0:0:0:0:
151,188,34313,1,0,0:0:0:0:
179,292,34484,2,0,P|154:298|125:300,2,52.5000020027161
57,98,35170,6,0,L|88:37,1,52.5000020027161
162,94,35513,1,0,0:0:0:0:
254,48,35684,1,0,0:0:0:0:
327,112,35856,1,0,0:0:0:0:
327,112,36199,2,0,P|284:122|258:138,2,52.5000020027161
405,189,36884,5,0,0:0:0:0:
199,189,37227,1,0,0:0:0:0:
438,188,37570,1,0,0:0:0:0:
158,189,37913,1,0,0:0:0:0:
476,192,38256,1,0,0:0:0:0:
321,304,38599,6,0,P|281:310|247:302,2,52.5000020027161
382,178,39284,2,0,L|336:121,1,52.5000020027161
286,181,39627,2,0,L|239:125,1,52.5000020027161
174,55,39970,2,0,P|105:57|100:58,2,52.5000020027161
140,245,40656,6,0,P|100:203|94:187,1,52.5000020027161
222,166,40999,1,0,0:0:0:0:
288,232,41170,1,0,0:0:0:0:
273,325,41341,2,0,P|309:340|343:333,1,52.5000020027161
417,316,41684,1,0,0:0:0:0:
445,176,41856,2,0,P|409:161|381:141,1,52.5000020027161
278,38,42199,1,0,0:0:0:0:
441,40,42370,5,0,0:0:0:0:
431,227,42713,1,0,0:0:0:0:
210,159,43056,1,0,0:0:0:0:
310,304,43399,2,0,L|375:315,1,52.5000020027161
361,312,43741,1,0,0:0:0:0:
361,312,43913,1,0,0:0:0:0:
256,192,44084,12,0,46484,2:0:0:0:
58,265,46827,6,0,L|145:338,1,97.9999970092774
138,330,47170,1,0,0:0:0:0:
315,327,47341,1,0,0:0:0:0:
334,311,47427,1,0,0:0:0:0:
355,299,47513,1,0,0:0:0:0:
273,220,47684,1,0,0:0:0:0:
439,238,47856,1,0,0:0:0:0:
368,123,48027,5,0,0:0:0:0:
368,123,48113,1,0,0:0:0:0:
368,123,48199,2,0,P|331:60|299:41,1,97.9999970092774
165,40,48541,1,0,0:0:0:0:
202,141,48713,2,0,L|262:151,2,48.9999985046387
165,40,49056,2,0,P|120:77|93:115,1,97.9999970092774
63,229,49399,5,0,0:0:0:0:
87,252,49484,1,0,0:0:0:0:
110,276,49570,2,0,P|160:291|219:284,2,97.9999970092774
170,184,50084,1,0,0:0:0:0:
196,162,50170,1,0,0:0:0:0:
224,142,50256,1,0,0:0:0:0:
256,130,50341,1,0,0:0:0:0:
289,120,50427,5,0,0:0:0:0:
332,241,50599,1,0,0:0:0:0:
439,183,50770,2,0,L|476:151,2,48.9999985046387
332,241,51113,1,0,0:0:0:0:
346,104,51284,1,0,0:0:0:0:
179,57,51456,2,0,L|217:86,1,48.9999985046387
170,147,51627,2,0,L|217:183,1,48.9999985046387
300,173,51799,2,0,P|287:220|223:263,1,97.9999970092774
401,337,52141,5,0,0:0:0:0:
418,307,52227,1,0,0:0:0:0:
430,274,52313,2,0,P|452:220|453:173,1,97.9999970092774
321,218,52656,1,0,0:0:0:0:
222,304,52827,1,0,0:0:0:0:
197,280,52913,1,0,0:0:0:0:
172,255,52999,1,0,0:0:0:0:
152,227,53084,1,0,0:0:0:0:
135,197,53170,1,0,0:0:0:0:
258,115,53341,1,0,0:0:0:0:
421,72,53513,6,0,L|472:108,2,48.9999985046387
349,188,53856,1,0,0:0:0:0:
451,284,54027,1,0,0:0:0:0:
349,188,54199,2,0,P|290:188|272:188,1,48.9999985046387
260,255,54370,2,0,P|201:255|183:255,1,48.9999985046387
114,196,54541,1,0,0:0:0:0:
196,45,54713,1,0,0:0:0:0:
217,163,54884,5,0,0:0:0:0:
256,191,54970,1,0,0:0:0:0:
304,199,55056,1,0,0:0:0:0:
411,173,55227,2,0,P|464:135|478:102,1,97.9999970092774
358,40,55570,1,0,0:0:0:0:
321,34,55656,1,0,0:0:0:0:
285,33,55741,1,0,0:0:0:0:
248,39,55827,1,0,0:0:0:0:
213,50,55913,1,0,0:0:0:0:
139,191,56084,1,0,0:0:0:0:
301,164,56256,5,0,0:0:0:0:
301,164,56341,1,0,0:0:0:0:
301,164,56427,1,0,0:0:0:0:
155,276,56599,2,0,P|215:300|254:298,1,97.9999970092774
366,308,56941,5,0,0:0:0:0:
439,97,57113,1,0,0:0:0:0:
470,249,57284,5,0,0:0:0:0:
316,55,57456,2,0,P|262:38|201:37,1,97.9999970092774
165,154,57799,6,0,P|107:206|95:233,1,97.9999970092774
75,335,58141,1,0,0:0:0:0:
239,349,58313,1,0,0:0:0:0:
246,323,58399,1,0,0:0:0:0:
256,289,58484,1,0,0:0:0:0:
265,262,58570,1,0,0:0:0:0:
278,228,58656,2,0,L|311:121,1,97.9999970092774
438,85,58999,6,0,L|385:47,2,48.9999985046387
414,243,59341,1,0,0:0:0:0:
282,117,59513,1,0,0:0:0:0:
128,30,59684,1,0,0:0:0:0:
113,49,59770,1,0,0:0:0:0:
101,70,59856,1,0,0:0:0:0:
92,93,59941,1,0,0:0:0:0:
87,117,60027,1,0,0:0:0:0:
184,212,60199,1,0,0:0:0:0:
63,264,60370,6,0,P|94:319|121:324,2,48.9999985046387
86,113,60713,2,0,P|98:57|148:28,1,97.9999970092774
181,120,61056,2,0,L|235:115,2,48.9999985046387
248,206,61313,2,0,L|204:242,1,48.9999985046387
95,320,61570,1,0,0:0:0:0:
242,321,61741,5,0,0:0:0:0:
276,320,61827,1,0,0:0:0:0:
310,318,61913,2,0,P|363:315|410:309,1,97.9999970092774
407,309,62256,1,0,0:0:0:0:
452,197,62427,2,0,L|420:151,1,48.9999985046387
361,199,62599,2,0,L|329:153,1,48.9999985046387
273,78,62770,1,0,0:0:0:0:
238,213,62941,1,0,0:0:0:0:
353,332,63113,6,0,L|395:300,2,48.9999985046387
180,315,63456,1,0,0:0:0:0:
64,207,63627,1,0,0:0:0:0:
215,176,63799,1,0,0:0:0:0:
234,160,63884,1,0,0:0:0:0:
249,141,63970,1,0,0:0:0:0:
259,119,64056,1,0,0:0:0:0:
265,95,64141,1,0,0:0:0:0:
94,55,64313,1,0,0:0:0:0:
78,185,64484,5,0,0:0:0:0:
80,219,64570,1,0,0:0:0:0:
83,253,64656,2,0,P|101:320|117:345,1,97.9999970092774
235,266,64999,1,0,0:0:0:0:
379,315,65170,1,0,0:0:0:0:
399,300,65256,1,0,0:0:0:0:
415,283,65341,1,0,0:0:0:0:
428,262,65427,1,0,0:0:0:0:
437,239,65513,1,0,0:0:0:0:
435,82,65684,1,0,0:0:0:0:
226,46,65856,6,0,L|275:71,2,48.9999985046387
357,35,66199,2,0,P|350:102|301:142,1,97.9999970092774
213,180,66541,1,0,0:0:0:0:
194,196,66627,1,0,0:0:0:0:
179,215,66713,1,0,0:0:0:0:
166,236,66799,1,0,0:0:0:0:
157,259,66884,1,0,0:0:0:0:
319,282,67056,1,0,0:0:0:0:
434,343,67227,6,0,L|480:307,1,48.9999985046387
467,227,67399,2,0,P|469:159|466:125,1,97.9999970092774
307,165,67741,1,0,0:0:0:0:
188,77,67913,1,0,0:0:0:0:
188,77,67999,1,0,0:0:0:0:
188,77,68084,5,0,0:0:0:0:
424,160,68256,1,0,0:0:0:0:
116,217,68427,1,0,0:0:0:0:
360,318,68599,1,0,0:0:0:0:
449,236,68770,5,0,0:0:0:0:
425,184,69113,1,0,0:0:0:0:
401,134,69456,1,0,0:0:0:0:
283,51,69799,6,0,L|197:61,1,70
144,27,70141,2,0,P|136:73|168:116,1,70
215,164,70484,1,0,0:0:0:0:
215,164,70827,1,0,0:0:0:0:
328,292,71170,5,0,0:0:0:0:
328,292,71341,2,0,P|385:262|403:246,1,70
434,148,71856,1,0,0:0:0:0:
434,148,72199,1,0,0:0:0:0:
119,110,72541,6,0,L|209:81,1,83.9999974365235
204,204,72884,1,0,0:0:0:0:
204,204,72970,1,0,0:0:0:0:
204,204,73056,1,0,0:0:0:0:
319,250,73227,2,0,P|251:303|230:309,1,83.9999974365235
79,286,73570,1,0,0:0:0:0:
161,85,73741,1,0,0:0:0:0:
221,267,73913,1,0,0:0:0:0:
46,165,74084,1,0,0:0:0:0:
273,152,74256,6,0,P|326:142|372:118,1,83.9999974365235
441,36,74599,2,0,P|484:93|471:133,1,83.9999974365235
428,213,74941,2,0,P|447:282|487:296,1,83.9999974365235
250,345,75284,6,0,L|174:285,1,83.9999974365235
264,192,75627,1,0,0:0:0:0:
387,270,75799,1,0,0:0:0:0:
445,116,75970,1,0,0:0:0:0:
387,270,76141,1,0,0:0:0:0:
313,93,76313,2,0,L|246:38,1,83.9999974365235
107,99,76656,2,0,L|171:152,1,83.9999974365235
80,248,76999,5,0,0:0:0:0:
217,329,77170,1,0,0:0:0:0:
59,231,77341,1,0,0:0:0:0:
248,344,77513,1,0,0:0:0:0:
262,195,77684,2,0,P|299:159|330:139,1,83.9999974365235
430,46,78027,1,0,0:0:0:0:
457,164,78199,1,0,0:0:0:0:
328,108,78370,6,0,P|271:57|259:57,1,83.9999974365235
297,186,78713,2,0,P|366:184|394:157,1,83.9999974365235
414,38,79056,1,0,0:0:0:0:
185,45,79227,1,0,0:0:0:0:
328,108,79399,1,0,0:0:0:0:
138,124,79570,1,0,0:0:0:0:
266,265,79741,6,0,L|166:290,2,97.9999970092774
417,203,80256,1,0,0:0:0:0:
430,182,80341,1,0,0:0:0:0:
437,159,80427,1,0,0:0:0:0:
437,134,80513,1,0,0:0:0:0:
429,109,80599,2,0,P|410:64|365:37,1,97.9999970092774
204,111,80941,5,0,0:0:0:0:
204,111,81027,1,0,0:0:0:0:
204,111,81113,2,0,P|183:162|145:190,1,97.9999970092774
59,68,81456,1,0,0:0:0:0:
172,35,81627,1,0,0:0:0:0:
194,25,81713,1,0,0:0:0:0:
218,21,81799,1,0,0:0:0:0:
243,23,81884,1,0,0:0:0:0:
266,30,81970,1,0,0:0:0:0:
208,162,82141,1,0,0:0:0:0:
352,237,82313,6,0,L|400:198,2,48.9999985046387
231,319,82656,2,0,P|157:280|139:250,1,97.9999970092774
103,148,82999,2,0,P|114:115|128:97,1,48.9999985046387
196,52,83170,2,0,P|230:33|265:33,1,48.9999985046387
327,32,83341,1,0,0:0:0:0:
278,147,83513,1,0,0:0:0:0:
415,220,83684,5,0,0:0:0:0:
415,220,83770,1,0,0:0:0:0:
415,220,83856,2,0,P|390:316|387:322,2,97.9999970092774
359,108,84370,2,0,L|298:70,3,48.9999985046387
239,34,84713,1,0,0:0:0:0:
239,192,84884,1,0,0:0:0:0:
112,258,85056,5,0,0:0:0:0:
97,224,85141,1,0,0:0:0:0:
82,191,85227,2,0,P|63:137|57:84,1,97.9999970092774
232,100,85570,1,0,0:0:0:0:
241,217,85741,2,0,L|294:246,1,48.9999985046387
348,177,85913,2,0,L|401:206,1,48.9999985046387
407,290,86084,1,0,0:0:0:0:
248,338,86256,1,0,0:0:0:0:
94,314,86427,6,0,L|31:346,2,48.9999985046387
46,190,86770,1,0,0:0:0:0:
187,289,86941,1,0,0:0:0:0:
209,177,87113,1,0,0:0:0:0:
216,153,87199,1,0,0:0:0:0:
216,129,87284,1,0,0:0:0:0:
210,105,87370,1,0,0:0:0:0:
197,85,87456,1,0,0:0:0:0:
70,46,87627,1,0,0:0:0:0:
74,184,87799,5,0,0:0:0:0:
83,216,87884,1,0,0:0:0:0:
93,245,87970,2,0,P|114:299|151:329,2,97.9999970092774
214,181,88484,1,0,0:0:0:0:
236,172,88570,1,0,0:0:0:0:
260,167,88656,1,0,0:0:0:0:
285,164,88741,1,0,0:0:0:0:
309,165,88827,1,0,0:0:0:0:
269,302,88999,1,0,0:0:0:0:
433,263,89170,6,0,L|466:324,2,48.9999985046387
392,149,89513,1,0,0:0:0:0:
306,47,89684,1,0,0:0:0:0:
286,219,89856,1,0,0:0:0:0:
103,105,90027,1,0,0:0:0:0:
282,132,90199,1,0,0:0:0:0:
125,273,90370,1,0,0:0:0:0:
325,337,90541,1,0,0:0:0:0:
394,180,90713,5,0,0:0:0:0:
256,192,90884,12,0,96199,0:0:0:0:
254,189,96370,5,0,0:0:0:0:
254,96,96541,2,0,P|224:76|193:77,2,59.5000011348725
364,49,97227,1,0,0:0:0:0:
486,93,97570,1,0,0:0:0:0:
432,233,98256,6,0,P|388:250|361:234,1,59.5000011348725
365,171,98599,2,0,P|318:175|300:201,1,59.5000011348725
249,274,98941,5,0,0:0:0:0:
176,220,99113,1,0,0:0:0:0:
115,154,99284,1,0,0:0:0:0:
202,133,99456,1,0,0:0:0:0:
160,54,99627,1,0,0:0:0:0:
340,37,99970,1,0,0:0:0:0:
340,37,100313,1,0,0:0:0:0:
333,160,100656,6,0,L|409:167,1,59.5000011348725
384,242,100999,2,0,L|300:236,2,59.5000011348725
206,167,101684,6,0,L|201:96,1,59.5000011348725
197,19,102027,1,0,0:0:0:0:
403,33,102370,1,0,0:0:0:0:
306,146,102713,1,0,0:0:0:0:
459,218,103056,1,0,0:0:0:0:
206,307,103741,6,0,P|187:250|198:237,1,59.5000011348725
257,241,104084,2,0,P|227:188|210:188,1,59.5000011348725
150,148,104427,5,0,0:0:0:0:
74,235,104599,1,0,0:0:0:0:
121,329,104770,1,0,0:0:0:0:
304,330,105113,1,0,0:0:0:0:
446,204,105456,1,0,0:0:0:0:
321,47,105799,6,0,L|268:90,1,59.5000011348725
336,141,106141,2,0,L|276:191,1,59.5000011348725
214,129,106484,2,0,L|161:172,1,59.5000011348725
225,225,106827,2,0,L|165:275,1,59.5000011348725
75,326,107170,6,0,B|121:357|130:360|134:312|181:325|177:358|228:348|240:284|266:291|266:291|290:357|292:357|379:297|379:297|363:231|430:249|459:272,1,476.00000907898
453,98,109227,6,0,B|394:61|410:145|396:148|372:196|399:209|378:213|321:164,1,208.250003972054,0|0,0:0|2:0,0:0:0:0:
279,115,109913,2,0,B|257:73|199:48|185:109|222:169|222:169|119:140|106:46|114:162|150:256|175:275|231:258,1,476.00000907898
410,331,111970,6,0,L|454:118,1,208.250003972054,0|0,0:0|2:0,0:0:0:0:
430,60,112656,2,0,B|372:49|257:59|189:48|299:152|310:178|121:92|135:85|161:31|178:32|63:46|41:35|42:139,1,476.00000907898
336,180,114713,6,0,P|325:130|272:209,1,208.250003972054,0|0,0:0|2:0,0:0:0:0:
184,223,115399,2,0,B|197:286|282:303|398:231,1,238.00000453949
431,98,116427,2,0,B|322:44|320:119|304:176|238:27|212:73|188:71,1,238.00000453949
257,193,117456,5,0,0:0:0:0:
257,193,118141,5,0,0:0:0:0:
340,58,118313,1,0,0:0:0:0:
185,137,118484,1,0,0:0:0:0:
115,28,118656,1,0,0:0:0:0:
92,36,118741,1,0,0:0:0:0:
72,51,118827,1,0,0:0:0:0:
56,69,118913,1,0,0:0:0:0:
45,92,118999,2,0,P|47:152|80:213,1,97.9999970092774
228,129,119341,5,0,0:0:0:0:
246,116,119427,1,0,0:0:0:0:
263,106,119513,2,0,P|322:86|366:89,1,97.9999970092774
429,212,119856,1,0,0:0:0:0:
392,332,120027,1,0,0:0:0:0:
367,332,120113,1,0,0:0:0:0:
343,332,120199,1,0,0:0:0:0:
318,332,120284,1,0,0:0:0:0:
294,332,120370,1,0,0:0:0:0:
141,329,120541,1,0,0:0:0:0:
245,184,120713,6,0,L|206:131,2,48.9999985046387
330,49,121056,2,0,L|394:131,1,97.9999970092774
418,287,121399,2,0,L|331:289,1,48.9999985046387
288,334,121570,2,0,L|272:269,1,48.9999985046387
253,200,121741,1,0,0:0:0:0:
183,74,121913,1,0,0:0:0:0:
39,182,122084,6,0,L|101:183,1,48.9999985046387
163,180,122256,2,0,P|219:180|274:183,2,97.9999970092774
72,276,122770,1,0,0:0:0:0:
92,289,122856,1,0,0:0:0:0:
114,299,122941,1,0,0:0:0:0:
138,306,123027,1,0,0:0:0:0:
162,309,123113,1,0,0:0:0:0:
203,186,123284,1,0,0:0:0:0:
347,180,123456,5,0,0:0:0:0:
378,168,123541,1,0,0:0:0:0:
404,149,123627,1,0,0:0:0:0:
467,42,123799,1,0,0:0:0:0:
378,168,123970,1,0,0:0:0:0:
261,90,124141,2,0,L|330:58,2,48.9999985046387
187,60,124399,2,0,L|161:110,1,48.9999985046387
160,259,124656,1,0,0:0:0:0:
348,324,124827,5,0,0:0:0:0:
369,297,124913,1,0,0:0:0:0:
384,268,124999,1,0,0:0:0:0:
307,175,125170,2,0,L|417:147,1,97.9999970092774
448,55,125513,1,0,0:0:0:0:
423,50,125599,1,0,0:0:0:0:
399,46,125684,1,0,0:0:0:0:
375,41,125770,1,0,0:0:0:0:
353,37,125856,2,0,L|226:18,1,97.9999970092774
281,140,126199,5,0,0:0:0:0:
304,147,126284,1,0,0:0:0:0:
327,154,126370,1,0,0:0:0:0:
456,254,126541,1,0,0:0:0:0:
290,305,126713,1,0,0:0:0:0:
160,291,126884,2,0,L|159:228,1,48.9999985046387
79,256,127056,2,0,L|78:193,1,48.9999985046387
148,161,127227,1,0,0:0:0:0:
54,53,127399,1,0,0:0:0:0:
230,71,127570,5,0,0:0:0:0:
260,98,127656,1,0,0:0:0:0:
289,123,127741,1,0,0:0:0:0:
333,235,127913,2,0,P|378:176|412:177,1,97.9999970092774
453,284,128256,1,0,0:0:0:0:
433,299,128341,1,0,0:0:0:0:
412,311,128427,1,0,0:0:0:0:
389,319,128513,1,0,0:0:0:0:
365,323,128599,1,0,0:0:0:0:
399,180,128770,2,0,P|443:131|448:100,1,97.9999970092774
112,67,129113,6,0,L|217:140,1,97.9999970092774
265,170,129456,1,0,0:0:0:0:
435,69,129627,6,0,L|330:142,1,97.9999970092774
266,194,129970,1,0,0:0:0:0:
414,253,130141,6,0,L|519:326,1,97.9999970092774
266,221,130484,1,0,0:0:0:0:
121,252,130656,6,0,L|16:325,1,97.9999970092774
266,252,130999,1,0,0:0:0:0:
320,106,131170,6,2,L|424:56,1,97.9999970092774
132,194,131513,2,2,L|28:244,1,97.9999970092774
178,322,131856,6,0,P|222:340|267:322,1,97.9999970092774
222,237,132199,1,0,0:0:0:0:
443,181,132370,6,0,P|395:121|346:128,1,97.9999970092774
359,204,132713,1,0,0:0:0:0:
177,45,132884,6,0,P|110:82|109:131,1,97.9999970092774
186,130,133227,1,0,0:0:0:0:
296,342,133399,6,0,P|363:305|364:256,1,97.9999970092774
287,257,133741,1,0,0:0:0:0:
168,96,133913,6,2,L|64:46,1,97.9999970092774
356,184,134256,2,2,L|460:234,1,97.9999970092774
161,252,134599,6,0,L|102:365,2,97.9999970092774
117,90,135113,2,0,L|22:4,2,97.9999970092774
279,129,135627,2,0,L|337:15,2,97.9999970092774
332,287,136141,2,0,L|426:372,2,97.9999970092774
186,78,136656,5,0,0:0:0:0:
349,149,136827,1,0,0:0:0:0:
104,149,136999,1,0,0:0:0:0:
295,220,137170,1,0,0:0:0:0:
415,335,137341,6,0,L|296:311,1,97.9999970092774
319,316,137684,1,0,0:0:0:0:
205,76,137856,2,0,L|312:125,1,97.9999970092774
295,117,138199,1,0,0:0:0:0:
180,330,138370,6,0,L|57:310,1,97.9999970092774
84,315,138713,5,0,0:0:0:0:
243,134,138884,1,0,0:0:0:0:
243,134,139056,1,0,0:0:0:0:
204,299,139227,5,0,0:0:0:0:
45,118,139399,1,0,0:0:0:0:
45,118,139570,1,0,0:0:0:0:
295,46,139741,6,0,L|455:92,1,119.000002269745
410,80,140084,6,0,P|387:62|413:96,1,183.750007009506,0|0,0:0|2:0,0:0:0:0:
395,92,140770,6,0,P|372:74|398:108,1,183.750007009506,0|0,0:0|2:0,0:0:0:0:
369,111,141456,6,0,P|346:93|372:127,1,183.750007009506,0|0,0:0|2:0,0:0:0:0:
350,128,142141,6,0,P|327:110|353:144,1,183.750007009506,0|0,0:0|2:0,0:0:0:0:
325,151,142827,6,0,P|302:133|328:167,1,183.750007009506,0|0,0:0|2:0,0:0:0:0:
395,193,143513,6,0,L|396:230,1,31.4999990386963,0|0,0:0|2:0,0:0:0:0:
470,223,143856,2,0,L|466:186,1,31.4999990386963,0|0,0:0|2:0,0:0:0:0:
463,102,144199,6,0,L|399:60,1,70
245,49,144541,1,0,0:0:0:0:
245,49,144713,1,0,0:0:0:0:
343,160,144884,2,0,P|265:190|260:191,1,70
180,132,145227,6,0,P|162:177|184:215,2,70
345,53,145741,1,0,0:0:0:0:
345,53,145827,1,0,0:0:0:0:
345,53,145913,1,0,0:0:0:0:
365,185,146084,1,0,0:0:0:0:
357,312,146256,2,0,P|408:319|432:358,1,70
420,330,146513,1,0,0:0:0:0:
420,330,146599,1,0,0:0:0:0:
247,343,146770,1,0,0:0:0:0:
150,219,146941,6,0,P|133:264|91:290,1,70
42,344,147284,1,0,0:0:0:0:
42,344,147456,1,0,0:0:0:0:
20,192,147627,1,0,0:0:0:0:
42,344,147799,1,0,0:0:0:0:
197,206,147970,6,0,P|224:171|247:143,2,70
123,105,148484,1,0,0:0:0:0:
123,105,148570,1,0,0:0:0:0:
123,105,148656,2,0,L|59:38,1,70
266,27,148999,1,0,0:0:0:0:
221,175,149170,1,0,0:0:0:0:
400,61,149341,1,0,0:0:0:0:
400,61,149513,1,0,0:0:0:0:
338,222,149684,6,0,L|422:163,1,70
425,333,150027,1,0,0:0:0:0:
425,333,150199,1,0,0:0:0:0:
468,215,150370,2,0,P|474:152|457:118,1,70
289,142,150713,6,2,L|211:177,2,70
142,60,151227,2,0,L|183:55,2,35
61,196,151570,1,0,0:0:0:0:
252,209,151741,1,0,0:0:0:0:
120,315,151913,5,0,0:0:0:0:
151,330,151999,1,0,0:0:0:0:
185,336,152084,1,0,0:0:0:0:
252,209,152256,1,0,0:0:0:0:
340,329,152427,2,0,P|374:313|401:289,1,70
468,197,152770,2,0,L|398:192,1,70
280,188,153113,1,0,0:0:0:0:
280,188,153284,1,0,0:0:0:0:
93,72,153456,5,0,0:0:0:0:
162,200,153627,1,0,0:0:0:0:
118,63,153799,1,0,0:0:0:0:
136,208,153970,1,0,0:0:0:0:
144,65,154141,1,0,0:0:0:0:
110,206,154313,1,0,0:0:0:0:
299,127,154484,5,0,0:0:0:0:
299,127,154656,1,0,0:0:0:0:
199,328,154827,1,0,0:0:0:0:
199,328,154999,1,0,0:0:0:0:
440,326,155170,6,0,P|452:265|446:231,1,70
434,142,155513,1,0,0:0:0:0:
434,142,155684,1,0,0:0:0:0:
434,142,155856,2,0,L|355:196,1,70
336,289,156199,6,0,L|279:239,2,70
190,338,156713,1,0,0:0:0:0:
159,320,156798,1,0,0:0:0:0:
125,299,156884,2,0,P|99:266|87:230,1,70
235,143,157227,1,0,0:0:0:0:
328,46,157399,1,0,0:0:0:0:
361,55,157484,1,0,0:0:0:0:
393,69,157570,1,0,0:0:0:0:
422,88,157656,1,0,0:0:0:0:
448,112,157741,1,0,0:0:0:0:
362,226,157913,6,0,P|331:240|322:281,1,70
445,332,158256,1,0,0:0:0:0:
445,332,158427,1,0,0:0:0:0:
362,228,158599,2,0,L|285:176,1,70
125,51,158941,5,0,0:0:0:0:
261,106,159113,1,0,0:0:0:0:
126,171,159284,1,0,0:0:0:0:
68,296,159456,2,0,L|97:325,2,35
226,311,159799,1,0,0:0:0:0:
324,217,159970,2,0,L|370:282,1,70
429,351,160313,1,0,0:0:0:0:
429,351,160484,1,0,0:0:0:0:
456,240,160656,6,0,L|448:142,1,70
316,53,160999,1,0,0:0:0:0:
466,69,161170,1,0,0:0:0:0:
330,186,161341,2,0,P|290:206|243:204,1,70
170,64,161684,6,0,L|239:115,2,70
19,42,162199,1,0,0:0:0:0:
19,42,162284,1,0,0:0:0:0:
19,42,162370,1,0,0:0:0:0:
39,202,162541,1,0,0:0:0:0:
219,253,162713,1,0,0:0:0:0:
154,140,162884,1,0,0:0:0:0:
165,106,162969,1,0,0:0:0:0:
185,78,163055,1,0,0:0:0:0:
213,58,163141,1,0,0:0:0:0:
246,46,163226,1,0,0:0:0:0:
383,62,163399,6,0,P|423:111|436:147,1,70
291,154,163741,1,0,0:0:0:0:
291,154,163913,1,0,0:0:0:0:
121,74,164084,2,0,L|32:22,1,70
138,235,164427,2,0,L|49:287,1,70
319,331,164770,5,0,0:0:0:0:
319,331,164941,2,0,L|334:241,1,70
359,136,165284,1,0,0:0:0:0:
200,40,165456,5,0,0:0:0:0:
248,318,165627,1,0,0:0:0:0:
237,37,165799,1,0,0:0:0:0:
204,323,165970,1,0,0:0:0:0:
107,236,166141,6,0,L|90:146,1,70
103,50,166484,1,0,0:0:0:0:
253,36,166656,1,0,0:0:0:0:
278,33,166741,1,0,0:0:0:0:
304,38,166827,1,0,0:0:0:0:
328,49,166913,1,0,0:0:0:0:
350,63,166998,1,0,0:0:0:0:
231,143,167170,2,0,P|277:211|305:221,1,105.000004005432
421,320,167513,5,0,0:0:0:0:
246,325,167684,1,0,0:0:0:0:
246,325,167770,1,0,0:0:0:0:
246,325,167856,1,0,0:0:0:0:
326,221,168027,1,0,0:0:0:0:
241,139,168199,2,0,P|312:99|310:72,1,105.000004005432
201,29,168541,1,0,0:0:0:0:
70,76,168713,1,0,0:0:0:0:
66,104,168799,1,0,0:0:0:0:
63,135,168884,6,0,L|53:248,1,105.000004005432
175,164,169227,1,0,0:0:0:0:
220,288,169399,1,0,0:0:0:0:
239,305,169484,1,0,0:0:0:0:
263,316,169570,1,0,0:0:0:0:
289,319,169656,1,0,0:0:0:0:
315,315,169741,1,0,0:0:0:0:
254,188,169913,2,0,P|297:147|349:132,1,105.000004005432
446,197,170256,5,0,0:0:0:0:
446,197,170427,1,0,0:0:0:0:
181,178,170599,1,0,0:0:0:0:
410,262,170770,5,0,0:0:0:0:
410,262,170941,1,0,0:0:0:0:
223,109,171113,1,0,0:0:0:0:
345,298,171284,5,0,0:0:0:0:
292,91,171456,1,0,0:0:0:0:
225,241,171627,6,0,L|130:184,1,105.000004005432
59,77,171970,1,0,0:0:0:0:
197,40,172141,1,0,0:0:0:0:
222,32,172226,1,0,0:0:0:0:
247,27,172312,1,0,0:0:0:0:
274,26,172398,1,0,0:0:0:0:
300,27,172483,1,0,0:0:0:0:
402,122,172656,1,0,0:0:0:0:
270,179,172827,1,0,0:0:0:0:
403,260,172999,6,0,L|305:308,1,105.000004005432
168,326,173341,1,0,0:0:0:0:
88,239,173513,1,0,0:0:0:0:
69,220,173598,1,0,0:0:0:0:
58,196,173684,1,0,0:0:0:0:
57,170,173770,1,0,0:0:0:0:
64,145,173855,1,0,0:0:0:0:
130,49,174027,2,0,P|194:33|256:39,1,105.000004005432
363,40,174370,5,0,0:0:0:0:
466,115,174541,1,0,0:0:0:0:
468,237,174713,1,0,0:0:0:0:
356,169,174884,1,0,0:0:0:0:
332,158,174969,1,0,0:0:0:0:
306,156,175055,1,0,0:0:0:0:
281,164,175141,1,0,0:0:0:0:
260,180,175226,1,0,0:0:0:0:
256,308,175399,2,0,P|199:328|146:329,1,105.000004005432
48,178,175741,5,0,0:0:0:0:
175,226,175913,1,0,0:0:0:0:
115,92,176084,1,0,0:0:0:0:
254,62,176256,1,0,0:0:0:0:
280,61,176341,1,0,0:0:0:0:
306,66,176427,1,0,0:0:0:0:
330,74,176513,1,0,0:0:0:0:
353,87,176598,1,0,0:0:0:0:
438,176,176770,2,0,P|463:240|459:289,1,105.000004005432
343,339,177113,6,0,P|368:268|352:229,1,105.000004005432
311,125,177456,1,0,0:0:0:0:
225,215,177627,1,0,0:0:0:0:
206,233,177712,1,0,0:0:0:0:
188,252,177798,1,0,0:0:0:0:
169,271,177884,1,0,0:0:0:0:
151,289,177969,1,0,0:0:0:0:
40,219,178141,1,0,0:0:0:0:
45,340,178313,1,0,0:0:0:0:
195,349,178484,5,0,0:0:0:0:
353,350,178656,1,0,0:0:0:0:
353,350,178741,1,0,0:0:0:0:
353,350,178827,1,0,0:0:0:0:
373,234,178999,1,0,0:0:0:0:
369,110,179170,1,0,0:0:0:0:
475,28,179341,1,0,0:0:0:0:
468,174,179513,1,0,0:0:0:0:
369,110,179684,2,0,L|382:45,2,52.5000020027161
278,211,180027,1,0,0:0:0:0:
211,86,180199,5,0,0:0:0:0:
93,38,180370,1,0,0:0:0:0:
76,58,180455,1,0,0:0:0:0:
64,81,180541,1,0,0:0:0:0:
54,106,180627,1,0,0:0:0:0:
49,131,180712,1,0,0:0:0:0:
164,199,180884,2,0,P|112:262|111:304,1,105.000004005432
242,327,181227,5,0,0:0:0:0:
242,327,181399,1,0,0:0:0:0:
399,169,181570,1,0,0:0:0:0:
308,343,181741,5,0,0:0:0:0:
308,343,181913,1,0,0:0:0:0:
343,153,182084,1,0,0:0:0:0:
374,344,182256,5,0,0:0:0:0:
282,150,182427,1,0,0:0:0:0:
139,328,182599,6,0,P|72:282|62:223,1,105.000004005432
41,134,182941,1,0,0:0:0:0:
149,61,183113,1,0,0:0:0:0:
171,47,183198,1,0,0:0:0:0:
195,37,183284,1,0,0:0:0:0:
221,31,183370,1,0,0:0:0:0:
247,30,183455,1,0,0:0:0:0:
219,157,183627,1,0,0:0:0:0:
358,117,183799,1,0,0:0:0:0:
288,253,183970,6,0,P|350:267|405:246,1,105.000004005432
465,125,184313,1,0,0:0:0:0:
369,58,184484,1,0,0:0:0:0:
350,76,184569,1,0,0:0:0:0:
331,94,184655,1,0,0:0:0:0:
312,112,184741,1,0,0:0:0:0:
293,130,184826,1,0,0:0:0:0:
246,247,184999,2,0,P|173:221|137:179,1,105.000004005432
78,40,185341,5,0,0:0:0:0:
211,109,185513,1,0,0:0:0:0:
154,259,185684,2,0,P|99:224|72:183,1,105.000004005432
167,75,186027,5,0,0:0:0:0:
245,201,186199,1,0,0:0:0:0:
118,300,186370,2,0,P|88:241|86:192,1,105.000004005432
270,157,186713,5,0,0:0:0:0:
284,304,186885,1,0,0:0:0:0:
127,337,187056,2,0,P|126:271|146:226,1,105.000004005432
351,232,187399,5,0,0:0:0:0:
205,165,187570,2,0,P|254:122|301:108,1,105.000004005432
449,66,187913,1,0,0:0:0:0:
337,315,188084,1,0,0:0:0:0:
84,306,189027,6,0,L|108:318,1,17.5
200,335,189456,1,0,0:0:0:0:
383,335,190141,5,0,0:0:0:0:
377,240,190484,1,0,0:0:0:0:
303,184,190827,1,0,0:0:0:0:
251,298,191513,1,0,0:0:0:0:
140,238,192199,1,0,0:0:0:0:
133,110,192884,2,0,L|162:50,1,52.5,0|0,0:0|2:0,0:0:0:0:
169,42,193227,5,0,0:0:0:0:
186,41,193312,1,0,0:0:0:0:
203,41,193398,1,0,0:0:0:0:
221,40,193484,1,0,0:0:0:0:
238,40,193569,1,0,0:0:0:0:
334,88,193741,1,0,0:0:0:0:
249,157,193913,1,0,0:0:0:0:
380,180,194084,6,0,L|383:236,1,35
313,220,194256,2,0,L|316:276,1,35
386,294,194427,1,0,0:0:0:0:
256,342,194599,2,0,L|177:342,1,70
63,268,194941,5,0,0:0:0:0:
82,157,195113,2,0,L|121:123,1,35
168,94,195284,1,0,0:0:0:0:
198,214,195456,2,0,P|240:235|286:234,1,70
357,146,195799,1,0,0:0:0:0:
434,44,195970,1,0,0:0:0:0:
309,37,196142,1,0,0:0:0:0:
291,36,196227,1,0,0:0:0:0:
268,37,196313,6,0,L|182:38,1,70
93,88,196656,1,0,0:0:0:0:
129,181,196827,1,0,0:0:0:0:
138,195,196912,1,0,0:0:0:0:
152,206,196998,1,0,0:0:0:0:
168,212,197084,1,0,0:0:0:0:
186,212,197169,1,0,0:0:0:0:
275,131,197341,2,0,L|341:184,1,70
401,311,197684,6,0,L|317:302,1,70
257,182,198027,1,0,0:0:0:0:
320,358,198199,6,0,L|269:290,1,70
315,163,198542,1,0,0:0:0:0:
208,293,198713,5,0,0:0:0:0:
409,215,198884,1,0,0:0:0:0:
261,139,199056,5,0,0:0:0:0:
256,192,199227,12,0,201954,2:0:0:0:
