osu file format v14

[General]
AudioFilename: soundodger - 04 - Lifeformed - Chloroplast Skin.mp3
AudioLeadIn: 1500
PreviewTime: 116371
Countdown: 0
SampleSet: Normal
StackLeniency: 0.7
Mode: 3
LetterboxInBreaks: 0
SpecialStyle: 0
WidescreenStoryboard: 0

[Editor]
DistanceSpacing: 0.8
BeatDivisor: 6
GridSize: 16
TimelineZoom: 1.94

[Metadata]
Title:Chloroplast Skin
TitleUnicode:Chloroplast Skin
Artist:Lifeformed
ArtistUnicode:Lifeformed
Creator:Halogen-
Version:Colorless
Source:
Tags:
BeatmapID:901152
BeatmapSetID:415946

[Difficulty]
HPDrainRate:7
CircleSize:4
OverallDifficulty:10
ApproachRate:9
SliderMultiplier:1.4
SliderTickRate:1

[Events]
//Background and Video events
0,0,"Chloroplast-bg.png",0,0
//Break Periods
//Storyboard Layer 0 (Background)
//Storyboard Layer 1 (Fail)
//Storyboard Layer 2 (Pass)
//Storyboard Layer 3 (Foreground)
//Storyboard Sound Samples

[TimingPoints]
1050,454.545,4,1,0,15,1,0
1050,-100,4,1,0,15,0,0
31103,-50,4,1,0,15,0,0
31293,-100,4,1,0,15,0,0
31482,-200,4,1,0,15,0,0
31671,-400,4,1,0,15,0,0
31861,-100,4,1,0,15,0,0
32921,-50,4,1,0,15,0,0
33111,-100,4,1,0,15,0,0
33300,-200,4,1,0,15,0,0
33490,-400,4,1,0,15,0,0
33755,-100,4,1,0,15,0,0
34740,-50,4,1,0,15,0,0
34929,-100,4,1,0,15,0,0
35118,-200,4,1,0,15,0,0
35308,-400,4,1,0,15,0,0
35497,-100,4,1,0,15,0,0
36558,-50,4,1,0,15,0,0
36785,-100,4,1,0,15,0,0
37012,-200,4,1,0,15,0,0
37202,-400,4,1,0,15,0,0
37391,-100,4,1,0,15,0,0
38376,-50,4,1,0,15,0,0
38565,-100,4,1,0,15,0,0
38755,-200,4,1,0,15,0,0
38944,-400,4,1,0,15,0,0
39133,-100,4,1,0,15,0,0
40194,-50,4,1,0,15,0,0
40421,-100,4,1,0,15,0,0
40649,-200,4,1,0,15,0,0
40838,-400,4,1,0,15,0,0
41027,-100,4,1,0,15,0,0
42012,-50,4,1,0,15,0,0
42202,-100,4,1,0,15,0,0
42391,-200,4,1,0,15,0,0
42580,-400,4,1,0,15,0,0
42770,-100,4,1,0,15,0,0
43830,-50,4,1,0,15,0,0
44058,-100,4,1,0,15,0,0
44247,-200,4,1,0,15,0,0
44474,-400,4,1,0,15,0,0
44664,-100,4,1,0,15,0,0
45649,-50,4,1,0,15,0,0
45876,-100,4,1,0,15,0,0
46103,-200,4,1,0,15,0,0
46293,-400,4,1,0,15,0,0
46482,-100,4,1,0,15,0,0
47467,-50,4,1,0,15,0,0
47694,-100,4,1,0,15,0,0
47921,-200,4,1,0,15,0,0
48111,-400,4,1,0,15,0,0
48300,-100,4,1,0,15,0,0
49285,-50,4,1,0,15,0,0
49474,-100,4,1,0,15,0,0
49664,-200,4,1,0,15,0,0
49853,-400,4,1,0,15,0,0
50043,-100,4,1,0,15,0,0
51103,-50,4,1,0,15,0,0
51330,-100,4,1,0,15,0,0
51520,-200,4,1,0,15,0,0
51747,-400,4,1,0,15,0,0
51937,-100,4,1,0,15,0,0
52921,-50,4,1,0,15,0,0
53111,-100,4,1,0,15,0,0
53300,-200,4,1,0,15,0,0
53490,-400,4,1,0,15,0,0
53679,-100,4,1,0,15,0,0
54740,-50,4,1,0,15,0,0
54967,-100,4,1,0,15,0,0
55156,-200,4,1,0,15,0,0
55383,-400,4,1,0,15,0,0
55573,-100,4,1,0,15,0,0
56558,-50,4,1,0,15,0,0
56747,-100,4,1,0,15,0,0
56937,-200,4,1,0,15,0,0
57126,-400,4,1,0,15,0,0
57315,-100,4,1,0,15,0,0
58376,-50,4,1,0,15,0,0
58603,-100,4,1,0,15,0,0
58793,-200,4,1,0,15,0,0
58982,-400,4,1,0,15,0,0
59096,-50,4,1,0,15,0,0
59209,-100,4,1,0,15,0,0
60194,-50,4,1,0,15,0,0
60383,-100,4,1,0,15,0,0
60573,-200,4,1,0,15,0,0
60762,-400,4,1,0,15,0,0
60952,-100,4,1,0,15,0,0
62012,-50,4,1,0,15,0,0
62240,-100,4,1,0,15,0,0
62429,-200,4,1,0,15,0,0
62656,-400,4,1,0,15,0,0
62846,-100,4,1,0,15,0,0
63830,-50,4,1,0,15,0,0
64020,-100,4,1,0,15,0,0
64209,-200,4,1,0,15,0,0
64399,-400,4,1,0,15,0,0
64588,-100,4,1,0,15,0,0
65649,-50,4,1,0,15,0,0
65876,-100,4,1,0,15,0,0
66065,-200,4,1,0,15,0,0
66293,-400,4,1,0,15,0,0
66482,-100,4,1,0,15,0,0
67467,-50,4,1,0,15,0,0
67656,-100,4,1,0,15,0,0
67846,-200,4,1,0,15,0,0
68035,-400,4,1,0,15,0,0
68224,-100,4,1,0,15,0,0
69285,-50,4,1,0,15,0,0
69474,-100,4,1,0,15,0,0
69664,-200,4,1,0,15,0,0
69891,-400,4,1,0,15,0,0
70118,-100,4,1,0,15,0,0
71103,-50,4,1,0,15,0,0
71293,-100,4,1,0,15,0,0
71482,-200,4,1,0,15,0,0
71671,-400,4,1,0,15,0,0
71861,-100,4,1,0,15,0,0
72921,-50,4,1,0,15,0,0
73111,-100,4,1,0,15,0,0
73300,-200,4,1,0,15,0,0
73527,-400,4,1,0,15,0,0
73755,-100,4,1,0,15,0,0
74740,-50,4,1,0,15,0,0
74929,-100,4,1,0,15,0,0
75118,-200,4,1,0,15,0,0
75308,-400,4,1,0,15,0,0
75497,-100,4,1,0,15,0,0
76558,-50,4,1,0,15,0,0
76785,-100,4,1,0,15,0,0
76974,-200,4,1,0,15,0,0
77202,-400,4,1,0,15,0,0
77391,-100,4,1,0,15,0,0
78376,-50,4,1,0,15,0,0
78565,-100,4,1,0,15,0,0
78755,-200,4,1,0,15,0,0
78944,-400,4,1,0,15,0,0
79133,-100,4,1,0,15,0,0
80194,-50,4,1,0,15,0,0
80421,-100,4,1,0,15,0,0
80611,-200,4,1,0,15,0,0
80838,-400,4,1,0,15,0,0
81027,-100,4,1,0,15,0,0
82012,-50,4,1,0,15,0,0
82202,-100,4,1,0,15,0,0
82391,-200,4,1,0,15,0,0
82580,-400,4,1,0,15,0,0
82770,-100,4,1,0,15,0,0
83830,-50,4,1,0,15,0,0
84058,-100,4,1,0,15,0,0
84247,-200,4,1,0,15,0,0
84474,-400,4,1,0,15,0,0
84664,-100,4,1,0,15,0,0
85649,-50,4,1,0,15,0,0
85838,-100,4,1,0,15,0,0
86027,-200,4,1,0,15,0,0
86217,-400,4,1,0,15,0,0
86406,-100,4,1,0,15,0,0
87467,-50,4,1,0,15,0,0
87694,-100,4,1,0,15,0,0
87883,-200,4,1,0,15,0,0
88111,-400,4,1,0,15,0,0
88300,-133.333333333333,4,1,0,15,0,0
102846,-111.111111111111,4,1,0,15,0,0
116709,-125,4,1,0,15,0,0
116936,-142.857142857143,4,1,0,15,0,0
117164,-166.666666666667,4,1,0,15,0,0
117391,-100,4,1,0,15,0,0

[HitObjects]
320,0,1050,5,0,1:0:0:0:
64,0,1050,128,0,1996:0:0:0:0:
448,0,1996,1,0,1:0:0:0:
320,0,2792,1,0,1:0:0:0:
64,0,2868,128,0,3815:0:0:0:0:
448,0,3815,1,0,1:0:0:0:
64,0,4686,128,0,5633:0:0:0:0:
320,0,4686,1,0,1:0:0:0:
448,0,5633,1,0,1:0:0:0:
320,0,6428,1,0,1:0:0:0:
64,0,6504,128,0,7451:0:0:0:0:
192,0,7451,1,0,1:0:0:0:
448,0,7716,128,0,8322:0:0:0:0:
64,0,8322,128,0,9269:0:0:0:0:
192,0,8322,1,0,1:0:0:0:
320,0,8322,128,0,9269:0:0:0:0:
448,0,9269,1,0,1:0:0:0:
64,0,10140,1,0,1:0:0:0:
192,0,10140,128,0,11087:0:0:0:0:
320,0,10140,128,0,11087:0:0:0:0:
448,0,11087,1,0,1:0:0:0:
64,0,11959,128,0,12906:0:0:0:0:
192,0,11959,1,0,1:0:0:0:
320,0,11959,128,0,12906:0:0:0:0:
448,0,12906,1,0,1:0:0:0:
192,0,13701,128,0,15140:0:0:0:0:
64,0,13777,1,0,1:0:0:0:
320,0,13777,128,0,15140:0:0:0:0:
448,0,14724,1,0,1:0:0:0:
64,0,15027,1,0,1:0:0:0:
64,0,15140,1,0,1:0:0:0:
64,0,15595,128,0,16277:0:0:0:0:
320,0,15595,1,0,1:0:0:0:
448,0,15595,128,0,16542:0:0:0:0:
320,0,16049,1,0,1:0:0:0:
192,0,16277,1,0,1:0:0:0:
64,0,16504,1,0,1:0:0:0:
320,0,16504,1,0,1:0:0:0:
448,0,17186,1,0,1:0:0:0:
192,0,17299,1,0,1:0:0:0:
64,0,17337,128,0,18095:0:0:0:0:
320,0,17413,1,0,1:0:0:0:
448,0,17413,128,0,18322:0:0:0:0:
192,0,17868,1,0,1:0:0:0:
320,0,18095,1,0,1:0:0:0:
64,0,18322,1,0,1:0:0:0:
448,0,19004,1,0,1:0:0:0:
320,0,19118,1,0,1:0:0:0:
64,0,19231,128,0,19913:0:0:0:0:
192,0,19231,128,0,20140:0:0:0:0:
448,0,19686,1,0,1:0:0:0:
320,0,19913,1,0,1:0:0:0:
64,0,20140,1,0,1:0:0:0:
192,0,20822,1,0,1:0:0:0:
320,0,20936,1,0,1:0:0:0:
448,0,20974,128,0,21731:0:0:0:0:
64,0,21049,1,0,1:0:0:0:
192,0,21049,128,0,21959:0:0:0:0:
320,0,21504,1,0,1:0:0:0:
64,0,21731,1,0,1:0:0:0:
448,0,21959,1,0,1:0:0:0:
320,0,22186,128,0,22640:0:0:0:0:
64,0,22640,1,0,1:0:0:0:
192,0,22754,1,0,1:0:0:0:
64,0,22868,128,0,23549:0:0:0:0:
320,0,22868,1,0,1:0:0:0:
448,0,22868,128,0,23777:0:0:0:0:
320,0,23322,1,0,1:0:0:0:
192,0,23549,1,0,1:0:0:0:
64,0,23777,1,0,1:0:0:0:
320,0,24459,1,0,1:0:0:0:
192,0,24610,128,0,25368:0:0:0:0:
64,0,24686,1,0,1:0:0:0:
320,0,24686,128,0,25595:0:0:0:0:
448,0,24686,1,0,1:0:0:0:
448,0,25140,1,0,1:0:0:0:
64,0,25368,1,0,1:0:0:0:
192,0,25595,1,0,1:0:0:0:
320,0,26277,1,0,1:0:0:0:
64,0,26390,1,0,1:0:0:0:
192,0,26504,1,0,1:0:0:0:
320,0,26504,128,0,27186:0:0:0:0:
448,0,26504,128,0,27413:0:0:0:0:
64,0,26959,1,0,1:0:0:0:
192,0,27186,1,0,1:0:0:0:
320,0,27413,1,0,1:0:0:0:
448,0,28095,1,0,1:0:0:0:
320,0,28246,128,0,29004:0:0:0:0:
64,0,28322,128,0,29231:0:0:0:0:
192,0,28322,1,0,1:0:0:0:
448,0,28322,1,0,1:0:0:0:
192,0,28777,1,0,1:0:0:0:
448,0,29004,1,0,1:0:0:0:
320,0,29231,1,0,1:0:0:0:
192,0,29231,128,0,30140:0:0:0:0:
64,0,29572,1,0,1:0:0:0:
64,0,29686,1,0,1:0:0:0:
64,0,30140,1,0,1:0:0:0:
448,0,30140,128,0,31125:0:0:0:0:
320,0,30339,1,0,1:0:0:0:
192,0,30538,1,0,1:0:0:0:
64,0,30737,1,0,1:0:0:0:
64,0,31125,1,0,1:0:0:0:
192,0,31125,128,0,31883:0:0:0:0:
320,0,31125,1,0,1:0:0:0:
320,0,31883,128,0,32943:0:0:0:0:
64,0,31959,128,0,32943:0:0:0:0:
192,0,32157,1,0,1:0:0:0:
448,0,32356,1,0,1:0:0:0:
192,0,32555,1,0,1:0:0:0:
192,0,32943,1,0,1:0:0:0:
448,0,32943,1,0,1:0:0:0:
64,0,33777,128,0,34762:0:0:0:0:
320,0,33777,1,0,1:0:0:0:
448,0,33777,128,0,34762:0:0:0:0:
192,0,33976,1,0,1:0:0:0:
320,0,34174,1,0,1:0:0:0:
192,0,34373,1,0,1:0:0:0:
192,0,34762,1,0,1:0:0:0:
320,0,34762,1,0,1:0:0:0:
64,0,35519,128,0,36580:0:0:0:0:
192,0,35595,128,0,36580:0:0:0:0:
320,0,35595,1,0,1:0:0:0:
448,0,35794,1,0,1:0:0:0:
320,0,36049,128,0,37413:0:0:0:0:
448,0,36248,1,0,1:0:0:0:
448,0,36580,1,0,1:0:0:0:
64,0,37413,1,0,1:0:0:0:
192,0,37413,128,0,38398:0:0:0:0:
448,0,37413,128,0,38398:0:0:0:0:
320,0,37612,1,0,1:0:0:0:
64,0,37811,1,0,1:0:0:0:
320,0,38010,1,0,1:0:0:0:
64,0,38398,1,0,1:0:0:0:
320,0,38398,1,0,1:0:0:0:
192,0,39156,128,0,40216:0:0:0:0:
64,0,39231,128,0,40216:0:0:0:0:
320,0,39231,1,0,1:0:0:0:
448,0,39430,1,0,1:0:0:0:
320,0,39629,1,0,1:0:0:0:
448,0,39828,1,0,1:0:0:0:
320,0,40216,1,0,1:0:0:0:
448,0,40216,1,0,1:0:0:0:
64,0,41049,1,0,1:0:0:0:
192,0,41049,128,0,42034:0:0:0:0:
320,0,41049,128,0,42034:0:0:0:0:
448,0,41248,1,0,1:0:0:0:
64,0,41447,1,0,1:0:0:0:
448,0,41646,1,0,1:0:0:0:
64,0,42034,1,0,1:0:0:0:
448,0,42034,1,0,1:0:0:0:
64,0,42792,128,0,43852:0:0:0:0:
192,0,42868,1,0,1:0:0:0:
448,0,42868,128,0,43852:0:0:0:0:
320,0,43067,1,0,1:0:0:0:
192,0,43265,1,0,1:0:0:0:
320,0,43464,1,0,1:0:0:0:
192,0,43852,1,0,1:0:0:0:
320,0,43852,1,0,1:0:0:0:
64,0,44686,128,0,44885:0:0:0:0:
320,0,44686,128,0,45671:0:0:0:0:
192,0,44885,128,0,45671:0:0:0:0:
64,0,45671,1,0,1:0:0:0:
448,0,45671,1,0,1:0:0:0:
320,0,46504,128,0,47489:0:0:0:0:
64,0,47489,1,0,1:0:0:0:
192,0,47489,1,0,1:0:0:0:
448,0,47489,1,0,1:0:0:0:
192,0,48322,128,0,49307:0:0:0:0:
448,0,48322,128,0,48521:0:0:0:0:
320,0,48521,128,0,49307:0:0:0:0:
64,0,49307,1,0,1:0:0:0:
448,0,49307,1,0,1:0:0:0:
192,0,50065,128,0,51125:0:0:0:0:
320,0,50140,128,0,51125:0:0:0:0:
64,0,50595,128,0,51959:0:0:0:0:
448,0,51125,1,0,1:0:0:0:
320,0,51959,128,0,52943:0:0:0:0:
448,0,51959,128,0,52943:0:0:0:0:
64,0,52943,1,0,1:0:0:0:
192,0,52943,1,0,1:0:0:0:
192,0,53701,128,0,54762:0:0:0:0:
448,0,53777,128,0,54762:0:0:0:0:
64,0,54762,1,0,1:0:0:0:
320,0,54762,1,0,1:0:0:0:
64,0,55595,128,0,56580:0:0:0:0:
320,0,55595,128,0,56580:0:0:0:0:
448,0,55794,1,0,1:0:0:0:
192,0,55993,1,0,1:0:0:0:
448,0,56191,1,0,1:0:0:0:
192,0,56580,1,0,1:0:0:0:
448,0,56580,1,0,1:0:0:0:
448,0,57337,128,0,58398:0:0:0:0:
64,0,57413,1,0,1:0:0:0:
320,0,57413,128,0,58398:0:0:0:0:
192,0,57612,1,0,1:0:0:0:
64,0,57811,1,0,1:0:0:0:
192,0,58010,1,0,1:0:0:0:
192,0,58398,128,0,59231:0:0:0:0:
64,0,58398,128,0,59231:0:0:0:0:
320,0,59231,128,0,60216:0:0:0:0:
448,0,59231,1,0,1:0:0:0:
64,0,59421,1,0,1:0:0:0:
192,0,59610,1,0,1:0:0:0:
448,0,59799,1,0,1:0:0:0:
64,0,60216,1,0,1:0:0:0:
192,0,60216,1,0,1:0:0:0:
320,0,60974,1,0,1:0:0:0:
192,0,60974,128,0,62034:0:0:0:0:
448,0,61106,1,0,1:0:0:0:
64,0,61580,1,0,1:0:0:0:
320,0,61731,1,0,1:0:0:0:
64,0,62034,1,0,1:0:0:0:
448,0,62034,1,0,1:0:0:0:
64,0,62868,1,0,1:0:0:0:
320,0,62868,128,0,63852:0:0:0:0:
448,0,63095,1,0,1:0:0:0:
192,0,63625,1,0,1:0:0:0:
64,0,63739,1,0,1:0:0:0:
192,0,63852,1,0,1:0:0:0:
448,0,63852,1,0,1:0:0:0:
320,0,64610,1,0,1:0:0:0:
64,0,64610,128,0,65652:0:0:0:0:
448,0,64913,1,0,1:0:0:0:
320,0,65140,128,0,66504:0:0:0:0:
192,0,65396,1,0,1:0:0:0:
192,0,65652,1,0,1:0:0:0:
448,0,65652,1,0,1:0:0:0:
448,0,66504,1,0,1:0:0:0:
320,0,66703,1,0,1:0:0:0:
192,0,66902,1,0,1:0:0:0:
64,0,67101,1,0,1:0:0:0:
192,0,67470,1,0,1:0:0:0:
320,0,67470,1,0,1:0:0:0:
448,0,67470,1,0,1:0:0:0:
448,0,68246,128,0,69288:0:0:0:0:
64,0,68322,1,0,1:0:0:0:
320,0,68521,1,0,1:0:0:0:
192,0,68720,1,0,1:0:0:0:
64,0,68919,1,0,1:0:0:0:
64,0,69288,1,0,1:0:0:0:
192,0,69288,1,0,1:0:0:0:
64,0,70140,128,0,71125:0:0:0:0:
448,0,70140,1,0,1:0:0:0:
192,0,70339,1,0,1:0:0:0:
320,0,70538,1,0,1:0:0:0:
448,0,70737,1,0,1:0:0:0:
320,0,71125,1,0,1:0:0:0:
448,0,71125,1,0,1:0:0:0:
192,0,71883,128,0,72943:0:0:0:0:
448,0,71959,1,0,1:0:0:0:
320,0,72157,1,0,1:0:0:0:
64,0,72356,1,0,1:0:0:0:
448,0,72555,1,0,1:0:0:0:
320,0,72943,1,0,1:0:0:0:
448,0,72943,1,0,1:0:0:0:
192,0,73777,128,0,74762:0:0:0:0:
320,0,73777,128,0,74762:0:0:0:0:
64,0,74307,1,0,1:0:0:0:
448,0,74610,1,0,1:0:0:0:
64,0,74762,1,0,1:0:0:0:
64,0,75510,128,0,76561:0:0:0:0:
320,0,75595,128,0,76561:0:0:0:0:
192,0,75709,1,0,1:0:0:0:
192,0,76561,1,0,1:0:0:0:
448,0,76561,1,0,1:0:0:0:
192,0,77413,128,0,78379:0:0:0:0:
448,0,77413,128,0,78379:0:0:0:0:
320,0,77527,1,0,1:0:0:0:
64,0,77640,1,0,1:0:0:0:
320,0,78209,1,0,1:0:0:0:
64,0,78379,1,0,1:0:0:0:
320,0,78379,1,0,1:0:0:0:
320,0,79155,128,0,80197:0:0:0:0:
192,0,79203,1,0,1:0:0:0:
448,0,79231,128,0,80197:0:0:0:0:
192,0,79686,128,0,81049:0:0:0:0:
64,0,80197,1,0,1:0:0:0:
64,0,81049,1,0,1:0:0:0:
320,0,81049,128,0,82015:0:0:0:0:
448,0,81049,128,0,82015:0:0:0:0:
64,0,81580,1,0,1:0:0:0:
64,0,82015,1,0,1:0:0:0:
192,0,82015,1,0,1:0:0:0:
448,0,82792,128,0,83834:0:0:0:0:
192,0,82868,128,0,83834:0:0:0:0:
320,0,82868,1,0,1:0:0:0:
320,0,83398,1,0,1:0:0:0:
64,0,83834,1,0,1:0:0:0:
320,0,83834,1,0,1:0:0:0:
64,0,84686,128,0,85652:0:0:0:0:
192,0,84686,128,0,85652:0:0:0:0:
448,0,84799,1,0,1:0:0:0:
320,0,85254,1,0,1:0:0:0:
320,0,85652,1,0,1:0:0:0:
448,0,85652,1,0,1:0:0:0:
448,0,86428,128,0,88322:0:0:0:0:
320,0,86504,128,0,88322:0:0:0:0:
192,0,87186,1,0,1:0:0:0:
64,0,87470,128,0,88322:0:0:0:0:
192,0,87470,128,0,88322:0:0:0:0:
448,0,88549,1,0,1:0:0:0:
192,0,88777,1,0,1:0:0:0:
192,0,89572,1,0,1:0:0:0:
448,0,89686,1,0,1:0:0:0:
320,0,89799,1,0,1:0:0:0:
192,0,89913,1,0,1:0:0:0:
64,0,90140,1,0,1:0:0:0:
448,0,90368,1,0,1:0:0:0:
320,0,90481,1,0,1:0:0:0:
192,0,90595,1,0,1:0:0:0:
320,0,90709,1,0,1:0:0:0:
192,0,90822,1,0,1:0:0:0:
192,0,91049,1,0,1:0:0:0:
448,0,91277,1,0,1:0:0:0:
448,0,91504,1,0,1:0:0:0:
320,0,91618,1,0,1:0:0:0:
192,0,91731,1,0,1:0:0:0:
64,0,91959,1,0,1:0:0:0:
448,0,92186,1,0,1:0:0:0:
192,0,92413,1,0,1:0:0:0:
448,0,92640,1,0,1:0:0:0:
448,0,92868,1,0,1:0:0:0:
320,0,92981,1,0,1:0:0:0:
192,0,93095,1,0,1:0:0:0:
448,0,93208,1,0,1:0:0:0:
192,0,93322,1,0,1:0:0:0:
320,0,93436,1,0,1:0:0:0:
448,0,93549,1,0,1:0:0:0:
64,0,93777,1,0,1:0:0:0:
448,0,94004,1,0,1:0:0:0:
320,0,94231,128,0,95595:0:0:0:0:
448,0,94345,1,0,1:0:0:0:
192,0,94458,1,0,1:0:0:0:
64,0,94572,1,0,1:0:0:0:
192,0,94686,1,0,1:0:0:0:
448,0,94913,1,0,1:0:0:0:
64,0,95027,1,0,1:0:0:0:
192,0,95140,1,0,1:0:0:0:
448,0,95595,1,0,1:0:0:0:
320,0,95822,1,0,1:0:0:0:
192,0,95936,1,0,1:0:0:0:
64,0,96049,1,0,1:0:0:0:
320,0,96277,1,0,1:0:0:0:
64,0,96504,1,0,1:0:0:0:
320,0,96731,1,0,1:0:0:0:
64,0,96845,1,0,1:0:0:0:
192,0,96958,1,0,1:0:0:0:
320,0,97072,1,0,1:0:0:0:
192,0,97186,1,0,1:0:0:0:
448,0,97413,1,0,1:0:0:0:
320,0,97640,1,0,1:0:0:0:
192,0,97754,1,0,1:0:0:0:
64,0,97868,1,0,1:0:0:0:
192,0,98095,1,0,1:0:0:0:
64,0,98208,1,0,1:0:0:0:
320,0,98322,1,0,1:0:0:0:
192,0,98549,1,0,1:0:0:0:
320,0,98663,1,0,1:0:0:0:
64,0,98777,1,0,1:0:0:0:
192,0,98890,1,0,1:0:0:0:
64,0,99004,1,0,1:0:0:0:
448,0,99231,1,0,1:0:0:0:
320,0,99458,1,0,1:0:0:0:
192,0,99686,1,0,1:0:0:0:
320,0,99799,1,0,1:0:0:0:
64,0,99913,1,0,1:0:0:0:
320,0,100027,1,0,1:0:0:0:
64,0,100140,1,0,1:0:0:0:
320,0,100368,1,0,1:0:0:0:
64,0,100595,1,0,1:0:0:0:
320,0,100708,1,0,1:0:0:0:
192,0,100822,1,0,1:0:0:0:
448,0,101049,1,0,1:0:0:0:
320,0,101277,1,0,1:0:0:0:
192,0,101390,1,0,1:0:0:0:
64,0,101504,1,0,1:0:0:0:
192,0,101731,1,0,1:0:0:0:
64,0,101958,1,0,1:0:0:0:
320,0,102186,1,0,1:0:0:0:
64,0,102413,1,0,1:0:0:0:
320,0,102527,1,0,1:0:0:0:
192,0,102640,1,0,1:0:0:0:
320,0,102868,1,0,1:0:0:0:
448,0,102868,128,0,103777:0:0:0:0:
192,0,103095,1,0,1:0:0:0:
64,0,103322,1,0,1:0:0:0:
320,0,103777,1,0,1:0:0:0:
192,0,104118,1,0,1:0:0:0:
448,0,104231,1,0,1:0:0:0:
320,0,104345,1,0,1:0:0:0:
64,0,104458,1,0,1:0:0:0:
320,0,104686,1,0,1:0:0:0:
448,0,104686,128,0,105595:0:0:0:0:
192,0,104913,1,0,1:0:0:0:
64,0,105140,1,0,1:0:0:0:
320,0,105595,1,0,1:0:0:0:
448,0,105822,1,0,1:0:0:0:
192,0,106049,1,0,1:0:0:0:
64,0,106504,1,0,1:0:0:0:
192,0,106504,128,0,107413:0:0:0:0:
448,0,106731,1,0,1:0:0:0:
320,0,106958,1,0,1:0:0:0:
64,0,107413,1,0,1:0:0:0:
448,0,107640,1,0,1:0:0:0:
192,0,107754,1,0,1:0:0:0:
320,0,107868,1,0,1:0:0:0:
192,0,107981,1,0,1:0:0:0:
448,0,108095,1,0,1:0:0:0:
64,0,108322,128,0,109231:0:0:0:0:
320,0,108322,1,0,1:0:0:0:
448,0,108549,1,0,1:0:0:0:
320,0,108777,1,0,1:0:0:0:
192,0,108777,128,0,110140:0:0:0:0:
320,0,109231,1,0,1:0:0:0:
448,0,109458,1,0,1:0:0:0:
320,0,109686,1,0,1:0:0:0:
448,0,109799,1,0,1:0:0:0:
320,0,109913,1,0,1:0:0:0:
320,0,110140,1,0,1:0:0:0:
448,0,110140,128,0,111049:0:0:0:0:
192,0,110368,1,0,1:0:0:0:
64,0,110595,1,0,1:0:0:0:
64,0,111049,1,0,1:0:0:0:
448,0,111390,1,0,1:0:0:0:
320,0,111504,1,0,1:0:0:0:
64,0,111618,1,0,1:0:0:0:
192,0,111731,1,0,1:0:0:0:
320,0,111958,1,0,1:0:0:0:
448,0,111958,128,0,112868:0:0:0:0:
192,0,112186,1,0,1:0:0:0:
64,0,112413,1,0,1:0:0:0:
64,0,112868,1,0,1:0:0:0:
320,0,113095,1,0,1:0:0:0:
192,0,113322,1,0,1:0:0:0:
192,0,113777,1,0,1:0:0:0:
448,0,113777,128,0,114686:0:0:0:0:
320,0,114004,1,0,1:0:0:0:
64,0,114231,1,0,1:0:0:0:
192,0,114686,1,0,1:0:0:0:
320,0,115027,1,0,1:0:0:0:
192,0,115140,1,0,1:0:0:0:
64,0,115254,1,0,1:0:0:0:
320,0,115368,1,0,1:0:0:0:
448,0,115595,128,0,116504:0:0:0:0:
64,0,115822,1,0,1:0:0:0:
192,0,116049,1,0,1:0:0:0:
320,0,116277,1,0,1:0:0:0:
64,0,116504,128,0,117413:0:0:0:0:
192,0,116504,128,0,117413:0:0:0:0:
448,0,117413,1,0,1:0:0:0:
320,0,117565,1,0,1:0:0:0:
192,0,117716,1,0,1:0:0:0:
64,0,117868,1,0,1:0:0:0:
320,0,118123,1,0,1:0:0:0:
448,0,118123,1,0,1:0:0:0:
192,0,118351,1,0,1:0:0:0:
320,0,118351,1,0,1:0:0:0:
448,0,118351,1,0,1:0:0:0:
320,0,118701,1,0,1:0:0:0:
64,0,118815,1,0,1:0:0:0:
192,0,118928,1,0,1:0:0:0:
320,0,119042,1,0,1:0:0:0:
448,0,119231,128,0,120102:0:0:0:0:
64,0,119288,1,0,1:0:0:0:
320,0,119402,1,0,1:0:0:0:
192,0,119515,1,0,1:0:0:0:
320,0,119743,1,0,1:0:0:0:
64,0,119875,1,0,1:0:0:0:
192,0,119875,1,0,1:0:0:0:
64,0,120102,1,0,1:0:0:0:
192,0,120102,1,0,1:0:0:0:
320,0,120102,1,0,1:0:0:0:
192,0,120538,1,0,1:0:0:0:
448,0,120652,1,0,1:0:0:0:
64,0,120765,1,0,1:0:0:0:
320,0,120879,1,0,1:0:0:0:
64,0,121049,128,0,121996:0:0:0:0:
448,0,121106,1,0,1:0:0:0:
320,0,121220,1,0,1:0:0:0:
192,0,121333,1,0,1:0:0:0:
448,0,121580,1,0,1:0:0:0:
320,0,121760,1,0,1:0:0:0:
448,0,121760,1,0,1:0:0:0:
192,0,121987,1,0,1:0:0:0:
320,0,121987,1,0,1:0:0:0:
448,0,121987,1,0,1:0:0:0:
448,0,122356,1,0,1:0:0:0:
320,0,122470,1,0,1:0:0:0:
192,0,122583,1,0,1:0:0:0:
64,0,122697,1,0,1:0:0:0:
448,0,122868,128,0,123739:0:0:0:0:
64,0,122924,1,0,1:0:0:0:
192,0,123038,1,0,1:0:0:0:
320,0,123152,1,0,1:0:0:0:
192,0,123322,1,0,1:0:0:0:
64,0,123511,1,0,1:0:0:0:
320,0,123511,1,0,1:0:0:0:
64,0,123739,1,0,1:0:0:0:
192,0,123739,1,0,1:0:0:0:
320,0,123739,1,0,1:0:0:0:
192,0,124061,1,0,1:0:0:0:
64,0,124174,1,0,1:0:0:0:
320,0,124288,1,0,1:0:0:0:
448,0,124402,1,0,1:0:0:0:
64,0,124515,1,0,1:0:0:0:
192,0,124686,128,0,125633:0:0:0:0:
448,0,124743,1,0,1:0:0:0:
320,0,124856,1,0,1:0:0:0:
64,0,124970,1,0,1:0:0:0:
320,0,125197,1,0,1:0:0:0:
320,0,125396,1,0,1:0:0:0:
448,0,125396,1,0,1:0:0:0:
64,0,125623,1,0,1:0:0:0:
320,0,125623,1,0,1:0:0:0:
448,0,125623,1,0,1:0:0:0:
192,0,125993,1,0,1:0:0:0:
64,0,126106,1,0,1:0:0:0:
320,0,126220,1,0,1:0:0:0:
448,0,126333,1,0,1:0:0:0:
320,0,126504,128,0,127375:0:0:0:0:
64,0,126561,1,0,1:0:0:0:
192,0,126674,1,0,1:0:0:0:
448,0,126788,1,0,1:0:0:0:
64,0,127015,1,0,1:0:0:0:
64,0,127148,1,0,1:0:0:0:
192,0,127148,1,0,1:0:0:0:
64,0,127375,1,0,1:0:0:0:
192,0,127375,1,0,1:0:0:0:
448,0,127375,1,0,1:0:0:0:
448,0,127811,1,0,1:0:0:0:
320,0,127924,1,0,1:0:0:0:
192,0,128038,1,0,1:0:0:0:
64,0,128152,1,0,1:0:0:0:
192,0,128265,1,0,1:0:0:0:
448,0,128322,128,0,129269:0:0:0:0:
320,0,128379,1,0,1:0:0:0:
64,0,128493,1,0,1:0:0:0:
64,0,128720,1,0,1:0:0:0:
192,0,128833,1,0,1:0:0:0:
64,0,129032,1,0,1:0:0:0:
320,0,129032,1,0,1:0:0:0:
64,0,129260,1,0,1:0:0:0:
192,0,129260,1,0,1:0:0:0:
320,0,129260,1,0,1:0:0:0:
448,0,129629,1,0,1:0:0:0:
64,0,129743,1,0,1:0:0:0:
192,0,129856,1,0,1:0:0:0:
320,0,129970,1,0,1:0:0:0:
448,0,130083,1,0,1:0:0:0:
64,0,130140,128,0,131011:0:0:0:0:
320,0,130197,1,0,1:0:0:0:
192,0,130311,1,0,1:0:0:0:
448,0,130538,1,0,1:0:0:0:
192,0,130784,1,0,1:0:0:0:
320,0,130784,1,0,1:0:0:0:
192,0,131011,1,0,1:0:0:0:
320,0,131011,1,0,1:0:0:0:
448,0,131011,1,0,1:0:0:0:
448,0,131333,1,0,1:0:0:0:
320,0,131447,1,0,1:0:0:0:
192,0,131561,1,0,1:0:0:0:
64,0,131674,1,0,1:0:0:0:
192,0,131788,1,0,1:0:0:0:
448,0,131902,1,0,1:0:0:0:
64,0,131958,128,0,132905:0:0:0:0:
320,0,132015,1,0,1:0:0:0:
192,0,132129,1,0,1:0:0:0:
448,0,132356,1,0,1:0:0:0:
192,0,132811,1,0,1:0:0:0:
320,0,132896,1,0,1:0:0:0:
448,0,132896,1,0,1:0:0:0:
64,0,133038,1,0,1:0:0:0:
192,0,133265,1,0,1:0:0:0:
64,0,133493,1,0,1:0:0:0:
320,0,133606,1,0,1:0:0:0:
64,0,133720,1,0,1:0:0:0:
448,0,133777,128,0,134686:0:0:0:0:
320,0,133833,1,0,1:0:0:0:
192,0,133947,1,0,1:0:0:0:
320,0,134174,1,0,1:0:0:0:
320,0,134515,1,0,1:0:0:0:
64,0,134648,1,0,1:0:0:0:
192,0,134648,1,0,1:0:0:0:
320,0,134743,1,0,1:0:0:0:
448,0,134970,1,0,1:0:0:0:
320,0,135083,1,0,1:0:0:0:
64,0,135197,1,0,1:0:0:0:
192,0,135311,1,0,1:0:0:0:
320,0,135424,1,0,1:0:0:0:
448,0,135538,1,0,1:0:0:0:
64,0,135595,128,0,136542:0:0:0:0:
320,0,135652,1,0,1:0:0:0:
192,0,135765,1,0,1:0:0:0:
448,0,135993,1,0,1:0:0:0:
320,0,136239,1,0,1:0:0:0:
448,0,136352,1,0,1:0:0:0:
192,0,136466,1,0,1:0:0:0:
320,0,136532,1,0,1:0:0:0:
448,0,136532,1,0,1:0:0:0:
192,0,136674,1,0,1:0:0:0:
320,0,136902,1,0,1:0:0:0:
64,0,137015,1,0,1:0:0:0:
192,0,137129,1,0,1:0:0:0:
320,0,137243,1,0,1:0:0:0:
448,0,137356,1,0,1:0:0:0:
320,0,137470,1,0,1:0:0:0:
64,0,137583,1,0,1:0:0:0:
192,0,137811,1,0,1:0:0:0:
448,0,137868,128,0,139231:0:0:0:0:
320,0,138038,1,0,1:0:0:0:
320,0,138265,1,0,1:0:0:0:
192,0,138379,1,0,1:0:0:0:
64,0,138493,1,0,1:0:0:0:
320,0,138720,1,0,1:0:0:0:
64,0,138833,1,0,1:0:0:0:
192,0,138947,1,0,1:0:0:0:
320,0,139061,1,0,1:0:0:0:
192,0,139174,1,0,1:0:0:0:
64,0,139231,128,0,140178:0:0:0:0:
320,0,139288,1,0,1:0:0:0:
448,0,139402,1,0,1:0:0:0:
320,0,139629,1,0,1:0:0:0:
192,0,139743,1,0,1:0:0:0:
320,0,140169,1,0,1:0:0:0:
448,0,140169,1,0,1:0:0:0:
192,0,140292,1,0,1:0:0:0:
320,0,140405,1,0,1:0:0:0:
448,0,140519,1,0,1:0:0:0:
64,0,140633,1,0,1:0:0:0:
192,0,140765,1,0,1:0:0:0:
320,0,140879,1,0,1:0:0:0:
64,0,140993,1,0,1:0:0:0:
448,0,141049,128,0,141921:0:0:0:0:
320,0,141106,1,0,1:0:0:0:
192,0,141220,1,0,1:0:0:0:
64,0,141447,1,0,1:0:0:0:
320,0,141561,1,0,1:0:0:0:
64,0,141921,1,0,1:0:0:0:
192,0,141921,1,0,1:0:0:0:
320,0,142015,1,0,1:0:0:0:
192,0,142129,1,0,1:0:0:0:
448,0,142356,1,0,1:0:0:0:
64,0,142470,1,0,1:0:0:0:
192,0,142583,1,0,1:0:0:0:
320,0,142697,1,0,1:0:0:0:
448,0,142811,1,0,1:0:0:0:
64,0,142868,128,0,143815:0:0:0:0:
320,0,142924,1,0,1:0:0:0:
192,0,143038,1,0,1:0:0:0:
320,0,143265,1,0,1:0:0:0:
448,0,143379,1,0,1:0:0:0:
192,0,143720,1,0,1:0:0:0:
320,0,143805,1,0,1:0:0:0:
448,0,143805,1,0,1:0:0:0:
192,0,143947,1,0,1:0:0:0:
64,0,144155,1,0,1:0:0:0:
320,0,144269,1,0,1:0:0:0:
448,0,144383,1,0,1:0:0:0:
64,0,144496,1,0,1:0:0:0:
320,0,144629,1,0,1:0:0:0:
192,0,144743,1,0,1:0:0:0:
64,0,144856,1,0,1:0:0:0:
192,0,145083,1,0,1:0:0:0:
320,0,145197,1,0,1:0:0:0:
448,0,145424,1,0,1:0:0:0:
64,0,145557,1,0,1:0:0:0:
192,0,145557,1,0,1:0:0:0:
320,0,145652,1,0,1:0:0:0:
192,0,145879,1,0,1:0:0:0:
64,0,145993,1,0,1:0:0:0:
320,0,146106,1,0,1:0:0:0:
448,0,146220,1,0,1:0:0:0:
192,0,146333,1,0,1:0:0:0:
64,0,146504,1,0,1:0:0:0:
448,0,146504,1,0,1:0:0:0:
320,0,146693,1,0,1:0:0:0:
192,0,146883,1,0,1:0:0:0:
448,0,147157,1,0,1:0:0:0:
320,0,147441,1,0,1:0:0:0:
448,0,147441,1,0,1:0:0:0:
192,0,147583,1,0,1:0:0:0:
64,0,147811,1,0,1:0:0:0:
192,0,147924,1,0,1:0:0:0:
448,0,148038,1,0,1:0:0:0:
320,0,148152,1,0,1:0:0:0:
64,0,148322,1,0,1:0:0:0:
192,0,148322,1,0,1:0:0:0:
448,0,148511,1,0,1:0:0:0:
192,0,148701,1,0,1:0:0:0:
64,0,148966,1,0,1:0:0:0:
320,0,148966,1,0,1:0:0:0:
192,0,149193,1,0,1:0:0:0:
448,0,149193,1,0,1:0:0:0:
320,0,149515,1,0,1:0:0:0:
448,0,149629,1,0,1:0:0:0:
64,0,149743,1,0,1:0:0:0:
192,0,149856,1,0,1:0:0:0:
320,0,149970,1,0,1:0:0:0:
448,0,150083,1,0,1:0:0:0:
64,0,150140,1,0,1:0:0:0:
192,0,150140,1,0,1:0:0:0:
320,0,150368,1,0,1:0:0:0:
448,0,150850,1,0,1:0:0:0:
320,0,150974,1,0,1:0:0:0:
64,0,151078,1,0,1:0:0:0:
192,0,151078,1,0,1:0:0:0:
448,0,151333,1,0,1:0:0:0:
64,0,151447,1,0,1:0:0:0:
320,0,151561,1,0,1:0:0:0:
192,0,151674,1,0,1:0:0:0:
448,0,151788,1,0,1:0:0:0:
64,0,151958,1,0,1:0:0:0:
192,0,151958,1,0,1:0:0:0:
64,0,152413,1,0,1:0:0:0:
320,0,152602,1,0,1:0:0:0:
192,0,152830,1,0,1:0:0:0:
320,0,152830,1,0,1:0:0:0:
192,0,153152,1,0,1:0:0:0:
64,0,153265,1,0,1:0:0:0:
192,0,153379,1,0,1:0:0:0:
448,0,153493,1,0,1:0:0:0:
320,0,153606,1,0,1:0:0:0:
64,0,153777,1,0,1:0:0:0:
64,0,154231,1,0,1:0:0:0:
448,0,154487,1,0,1:0:0:0:
320,0,154714,1,0,1:0:0:0:
448,0,154714,1,0,1:0:0:0:
64,0,155083,1,0,1:0:0:0:
448,0,155197,1,0,1:0:0:0:
320,0,155311,1,0,1:0:0:0:
192,0,155424,1,0,1:0:0:0:
64,0,155595,1,0,1:0:0:0:
320,0,155595,1,0,1:0:0:0:
64,0,156049,1,0,1:0:0:0:
448,0,156239,1,0,1:0:0:0:
192,0,156466,1,0,1:0:0:0:
448,0,156466,1,0,1:0:0:0:
320,0,156788,1,0,1:0:0:0:
64,0,156902,1,0,1:0:0:0:
192,0,157015,1,0,1:0:0:0:
320,0,157129,1,0,1:0:0:0:
448,0,157243,1,0,1:0:0:0:
64,0,157413,1,0,1:0:0:0:
64,0,157868,1,0,1:0:0:0:
320,0,158123,1,0,1:0:0:0:
192,0,158350,1,0,1:0:0:0:
320,0,158350,1,0,1:0:0:0:
320,0,158720,1,0,1:0:0:0:
64,0,158833,1,0,1:0:0:0:
192,0,158947,1,0,1:0:0:0:
320,0,159061,1,0,1:0:0:0:
64,0,159231,1,0,1:0:0:0:
64,0,159686,1,0,1:0:0:0:
320,0,159856,1,0,1:0:0:0:
320,0,160083,1,0,1:0:0:0:
448,0,160083,1,0,1:0:0:0:
320,0,161277,128,0,162299:0:0:0:0:
192,0,163057,128,0,164080:0:0:0:0:
320,0,164913,128,0,165936:0:0:0:0:
448,0,166788,128,0,167792:0:0:0:0:
320,0,168511,128,0,169534:0:0:0:0:
192,0,170405,128,0,171428:0:0:0:0:
192,0,172375,128,0,173398:0:0:0:0:
64,0,174203,128,0,175254:0:0:0:0:
448,0,175907,1,0,1:0:0:0:
192,0,176106,1,0,1:0:0:0:
320,0,176333,1,0,1:0:0:0:
