osu file format v14

[General]
AudioFilename: audio.mp3
AudioLeadIn: 0
PreviewTime: 57728
Countdown: 0
SampleSet: Soft
StackLeniency: 0.3
Mode: 0
LetterboxInBreaks: 0
WidescreenStoryboard: 1

[Editor]
Bookmarks: 29055,57712,86369,115025,143698,172339,200996,229652
DistanceSpacing: 0.7
BeatDivisor: 16
GridSize: 8
TimelineZoom: 1.7

[Metadata]
Title:What Lies Beneath
TitleUnicode:What Lies Beneath
Artist:Life on Venus
ArtistUnicode:Life on Venus
Creator:nine19
Version:Under the Foggy Night
Source:
Tags:gazpriest odes to the void piroshki maruoko delette aishiteiru- shoegaze dream pop dreampop rock english departure
BeatmapID:3320335
BeatmapSetID:1380546

[Difficulty]
HPDrainRate:5
CircleSize:4
OverallDifficulty:7
ApproachRate:8.4
SliderMultiplier:2.5
SliderTickRate:1

[Events]
//Background and Video events
0,0,"bg.jpg",0,0
//Break Periods
//Storyboard Layer 0 (Background)
//Storyboard Layer 1 (Fail)
//Storyboard Layer 2 (Pass)
//Storyboard Layer 3 (Foreground)
//Storyboard Layer 4 (Overlay)
//Storyboard Sound Samples

[TimingPoints]
418,895.522388059701,4,2,1,45,1,0
29074,-100,4,2,1,55,0,0
54149,-166.666666666667,4,2,1,40,0,0
55044,-100,4,2,1,40,0,0
57731,-166.666666666667,4,2,1,75,0,1
58179,-41.6666666666667,4,2,1,75,0,1
58626,-33.3333333333333,4,2,1,75,0,1
59074,-41.6666666666667,4,2,1,75,0,1
59186,-41.6666666666667,4,2,1,5,0,1
59298,-41.6666666666667,4,2,1,75,0,1
59410,-41.6666666666667,4,2,1,5,0,1
59522,-166.666666666667,4,2,1,75,0,1
60417,-41.6666666666667,4,2,1,75,0,1
61761,-166.666666666667,4,2,1,75,0,1
62209,-41.6666666666667,4,2,1,75,0,1
62880,-166.666666666667,4,2,1,75,0,1
63552,-166.666666666667,4,2,1,75,0,1
64000,-41.6666666666667,4,2,1,75,0,1
64895,-166.666666666667,4,2,1,75,0,1
65343,-41.6666666666667,4,2,1,75,0,1
65791,-33.3333333333333,4,2,1,75,0,1
66238,-41.6666666666667,4,2,1,75,0,1
66350,-41.6666666666667,4,2,1,5,0,1
66462,-41.6666666666667,4,2,1,75,0,1
66574,-41.6666666666667,4,2,1,5,0,1
66686,-166.666666666667,4,2,1,75,0,1
67582,-41.6666666666667,4,2,1,75,0,1
67694,-41.6666666666667,4,2,1,5,0,1
67806,-41.6666666666667,4,2,1,75,0,1
67917,-41.6666666666667,4,2,1,5,0,1
68029,-166.666666666667,4,2,1,75,0,1
71612,-41.6666666666667,4,2,1,75,0,1
72059,-166.666666666667,4,2,1,75,0,1
72507,-41.6666666666667,4,2,1,75,0,1
72955,-33.3333333333333,4,2,1,75,0,1
73403,-41.6666666666667,4,2,1,75,0,1
73515,-41.6666666666667,4,2,1,5,0,1
73627,-41.6666666666667,4,2,1,75,0,1
73739,-41.6666666666667,4,2,1,5,0,1
73850,-166.666666666667,4,2,1,75,0,1
74746,-41.6666666666667,4,2,1,75,0,1
76089,-166.666666666667,4,2,1,75,0,1
76537,-41.6666666666667,4,2,1,75,0,1
76985,-41.6666666666667,4,2,1,75,0,1
77097,-41.6666666666667,4,2,1,5,0,1
77209,-41.6666666666667,4,2,1,75,0,1
77320,-41.6666666666667,4,2,1,5,0,1
77432,-41.6666666666667,4,2,1,75,0,1
77880,-166.666666666667,4,2,1,75,0,1
78328,-41.6666666666667,4,2,1,75,0,1
79223,-166.666666666667,4,2,1,75,0,1
79671,-41.6666666666667,4,2,1,75,0,1
80119,-33.3333333333333,4,2,1,75,0,1
80567,-41.6666666666667,4,2,1,75,0,1
80679,-41.6666666666667,4,2,1,75,0,1
80791,-41.6666666666667,4,2,1,75,0,1
80903,-41.6666666666667,4,2,1,75,0,1
81015,-166.666666666667,4,2,1,75,0,1
81910,-41.6666666666667,4,2,1,75,0,1
82022,-41.6666666666667,4,2,1,5,0,1
82134,-41.6666666666667,4,2,1,75,0,1
82246,-41.6666666666667,4,2,1,5,0,1
82358,-166.666666666667,4,2,1,75,0,1
85940,-41.6666666666667,4,2,1,75,0,1
86052,-41.6666666666667,4,2,1,5,0,1
86164,-41.6666666666667,4,2,1,75,0,1
86276,-41.6666666666667,4,2,1,5,0,1
86388,-166.666666666667,4,2,1,65,0,0
100044,-41.6666666666667,4,2,1,65,0,0
100716,-166.666666666667,4,2,1,65,0,0
115044,-100,4,2,1,55,0,0
150529,-100,4,2,1,5,0,0
150641,-100,4,2,1,55,0,0
150753,-100,4,2,1,5,0,0
150865,-100,4,2,1,55,0,0
172358,-166.666666666667,4,2,1,75,0,1
172806,-41.6666666666667,4,2,1,75,0,1
173253,-31.25,4,2,1,75,0,1
173701,-41.6666666666667,4,2,1,75,0,1
173813,-41.6666666666667,4,2,1,5,0,1
173925,-41.6666666666667,4,2,1,75,0,1
174037,-41.6666666666667,4,2,1,5,0,1
174149,-166.666666666667,4,2,1,75,0,1
175492,-41.6666666666667,4,2,1,75,0,1
175828,-41.6666666666667,4,2,1,5,0,1
175940,-166.666666666667,4,2,1,75,0,1
177283,-41.6666666666667,4,2,1,75,0,1
178179,-166.666666666667,4,2,1,75,0,1
178626,-41.6666666666667,4,2,1,75,0,1
179074,-41.6666666666667,4,2,1,75,0,1
179186,-41.6666666666667,4,2,1,5,0,1
179298,-41.6666666666667,4,2,1,75,0,1
179410,-41.6666666666667,4,2,1,5,0,1
179522,-166.666666666667,4,2,1,75,0,1
179970,-41.6666666666667,4,2,1,75,0,1
180417,-33.3333333333333,4,2,1,75,0,1
181313,-166.666666666667,4,2,1,75,0,1
182209,-41.6666666666667,4,2,1,75,0,1
182544,-41.6666666666667,4,2,1,5,0,1
182656,-166.666666666667,4,2,1,75,0,1
186238,-41.6666666666667,4,2,1,75,0,1
186686,-166.666666666667,4,2,1,75,0,1
187134,-41.6666666666667,4,2,1,75,0,1
187582,-33.3333333333333,4,2,1,75,0,1
188029,-41.6666666666667,4,2,1,75,0,1
188477,-166.666666666667,4,2,1,75,0,1
189373,-41.6666666666667,4,2,1,75,0,1
189820,-166.666666666667,4,2,1,75,0,1
191164,-41.6666666666667,4,2,1,75,0,1
191612,-41.6666666666667,4,2,1,75,0,1
191723,-41.6666666666667,4,2,1,5,0,1
191835,-41.6666666666667,4,2,1,75,0,1
191947,-41.6666666666667,4,2,1,5,0,1
192059,-50,4,2,1,75,0,1
192171,-50,4,2,1,5,0,1
192283,-62.5,4,2,1,75,0,1
192395,-62.5,4,2,1,5,0,1
192507,-83.3333333333333,4,2,1,75,0,1
192619,-83.3333333333333,4,2,1,5,0,1
192731,-41.6666666666667,4,2,1,75,0,1
193850,-166.666666666667,4,2,1,75,0,1
194298,-41.6666666666667,4,2,1,75,0,1
194746,-33.3333333333333,4,2,1,75,0,1
195194,-41.6666666666667,4,2,1,75,0,1
195641,-166.666666666667,4,2,1,75,0,1
196537,-41.6666666666667,4,2,1,75,0,1
196985,-166.666666666667,4,2,1,75,0,1
200119,-41.6666666666667,4,2,1,75,0,1
201015,-166.666666666667,4,2,1,65,0,0
214895,-41.6666666666667,4,2,1,65,0,0
215343,-166.666666666667,4,2,1,65,0,0
228776,-41.6666666666667,4,2,1,65,0,0
229671,-100,4,2,1,65,0,0

[Colours]
Combo1 : 169,163,192
Combo2 : 153,165,219
Combo3 : 174,174,174
Combo4 : 168,206,200

[HitObjects]
63,193,418,6,0,P|157:182|196:219,1,125,4|0,3:1|0:0,0:0:0:0:
197,277,1089,1,0,3:2:0:0:
314,101,1313,2,0,L|298:174,1,62.5,10|0,0:0|0:0,0:0:0:0:
306,96,1761,1,2,0:0:0:0:
398,177,1985,2,0,L|411:115,1,62.5,2|0,0:0|0:0,0:0:0:0:
401,107,2656,1,0,0:0:0:0:
375,32,2880,1,0,3:2:0:0:
456,250,3104,1,10,0:0:0:0:
377,338,3328,2,0,L|224:317,1,125,2|0,3:2|3:2,0:0:0:0:
88,291,4000,6,0,L|149:299,1,62.5,0|0,3:2|0:0,0:0:0:0:
213,256,4447,1,0,0:0:0:0:
210,246,4671,1,0,3:2:0:0:
55,178,4895,2,0,P|101:166|131:147,1,62.5,10|0,3:2|0:0,0:0:0:0:
125,165,5343,1,2,0:0:0:0:
80,25,5567,2,0,P|67:70|68:106,1,62.5,2|0,0:0|0:0,0:0:0:0:
200,123,6015,2,0,P|166:89|135:72,2,62.5,2|0|0,0:0|0:0|3:2,0:0:0:0:
142,311,6686,1,10,3:2:0:0:
219,241,6910,1,0,3:2:0:0:
312,287,7134,1,2,0:0:0:0:
316,299,7358,1,2,3:2:0:0:
420,147,7582,6,0,L|394:302,1,125,4|2,3:1|0:0,0:0:0:0:
468,329,8253,1,0,3:2:0:0:
397,212,8477,2,0,L|407:150,1,62.5,10|0,0:0|0:0,0:0:0:0:
417,146,8925,1,2,0:0:0:0:
314,163,9149,2,0,L|324:101,1,62.5,2|0,0:0|0:0,0:0:0:0:
326,87,9820,1,0,0:0:0:0:
312,176,10044,1,0,3:2:0:0:
145,50,10268,5,10,0:0:0:0:
56,129,10492,1,2,3:2:0:0:
166,169,10716,1,0,0:0:0:0:
150,39,10940,1,0,3:2:0:0:
81,219,11164,6,0,L|85:290,1,62.5,2|0,3:2|0:0,0:0:0:0:
146,340,11612,1,0,0:0:0:0:
140,353,11835,1,0,3:2:0:0:
250,219,12059,2,0,P|288:224|329:241,1,62.5,10|0,3:2|0:0,0:0:0:0:
352,136,12507,1,2,0:0:0:0:
352,136,12731,2,0,P|380:161|404:199,1,62.5,2|0,0:0|0:0,0:0:0:0:
479,103,13179,2,0,P|493:138|499:182,2,62.5,8|0|0,3:2|0:0|3:2,0:0:0:0:
390,268,13850,1,10,3:2:0:0:
470,362,14074,1,0,3:2:0:0:
461,235,14298,1,0,0:0:0:0:
309,357,14522,1,0,3:2:0:0:
261,381,14634,1,0,3:2:0:0:
206,384,14746,6,0,L|235:239,1,125,4|2,3:1|0:0,0:0:0:0:
174,190,15417,1,0,3:2:0:0:
46,261,15641,2,0,L|128:250,1,62.5,10|0,0:0|0:0,0:0:0:0:
174,190,16089,1,2,0:0:0:0:
123,117,16313,2,0,L|0:132,1,125,2|0,0:0|0:0,0:0:0:0:
50,46,16985,1,0,0:0:0:0:
49,36,17209,1,0,3:2:0:0:
191,193,17432,1,10,0:0:0:0:
285,161,17656,1,0,3:2:0:0:
312,63,17880,1,2,0:0:0:0:
301,66,18104,1,2,3:2:0:0:
471,137,18328,6,0,L|463:213,1,62.5,0|0,3:2|0:0,0:0:0:0:
508,273,18776,1,0,0:0:0:0:
507,286,19000,1,0,3:2:0:0:
386,361,19223,2,0,P|349:353|318:363,1,62.5,10|0,3:2|0:0,0:0:0:0:
354,278,19671,1,2,0:0:0:0:
241,332,19895,2,0,P|303:280|350:271,2,125,2|0|0,0:0|0:0|3:2,0:0:0:0:
83,269,21015,1,10,3:2:0:0:
178,250,21238,1,2,3:2:0:0:
35,187,21462,1,0,0:0:0:0:
196,157,21686,1,0,3:2:0:0:
10,31,21910,6,0,L|150:55,1,125,4|0,3:1|0:0,0:0:0:0:
221,66,22582,1,0,3:2:0:0:
376,94,22806,2,0,L|272:76,1,62.5,10|0,0:0|0:0,0:0:0:0:
311,74,23253,1,2,0:0:0:0:
472,116,23477,2,0,P|447:177|401:229,1,125,2|0,0:0|0:0,0:0:0:0:
327,240,24149,1,0,0:0:0:0:
317,236,24373,1,0,3:2:0:0:
512,353,24597,1,10,0:0:0:0:
413,299,24820,1,2,3:2:0:0:
355,356,25044,1,0,0:0:0:0:
424,303,25268,1,0,3:2:0:0:
120,373,25492,6,0,P|160:344|181:312,1,62.5,2|0,3:2|0:0,0:0:0:0:
40,311,25940,2,0,P|88:303|122:284,1,62.5,0|0,0:0|3:2,0:0:0:0:
38,140,26388,2,0,P|21:211|94:232,1,125,10|2,3:2|0:0,0:0:0:0:
122,124,27059,2,0,L|195:113,1,62.5,2|0,0:0|0:0,0:0:0:0:
462,73,27507,1,8,3:2:0:0:
433,151,27731,1,0,0:0:0:0:
433,151,28179,1,10,3:2:0:0:
462,73,28403,1,0,3:2:0:0:
380,87,28626,1,0,0:0:0:0:
332,243,28850,1,0,3:2:0:0:
279,236,28962,1,0,3:2:0:0:
226,229,29074,6,0,L|146:219,1,62.5,4|0,3:1|0:0,0:0:0:0:
148,219,29522,1,2,0:0:0:0:
60,107,29746,2,0,L|91:110,1,31.25,0|0,3:2|0:0,0:0:0:0:
171,127,29970,2,0,P|101:135|62:179,1,125,10|0,0:0|0:0,0:0:0:0:
58,254,30641,1,2,0:0:0:0:
51,344,30865,2,0,P|83:334|132:342,1,62.5,2|0,0:0|0:0,0:0:0:0:
201,371,31313,2,0,P|232:371|261:362,1,62.5,2|0,0:0|3:2,0:0:0:0:
399,242,31761,2,0,P|367:241|338:250,1,62.5,10|0,0:0|3:2,0:0:0:0:
457,308,32209,1,2,0:0:0:0:
444,169,32432,1,0,3:2:0:0:
360,347,32656,6,0,P|305:350|219:315,1,125,2|0,3:2|0:0,0:0:0:0:
199,249,33328,1,0,3:2:0:0:
231,58,33552,2,0,L|219:135,1,62.5,10|0,3:2|0:0,0:0:0:0:
231,128,34000,1,0,0:0:0:0:
138,14,34223,1,2,0:0:0:0:
61,67,34447,2,0,L|49:144,1,62.5,2|0,0:0|0:0,0:0:0:0:
123,193,34895,2,0,L|132:131,1,62.5,2|0,0:0|3:2,0:0:0:0:
25,273,35343,1,10,3:2:0:0:
25,273,35567,1,0,3:2:0:0:
14,349,35791,2,0,L|87:331,1,62.5,2|0,0:0|3:2,0:0:0:0:
260,337,36238,6,0,L|333:319,1,62.5,4|0,3:1|0:0,0:0:0:0:
359,234,36686,1,0,0:0:0:0:
482,282,36910,2,0,L|451:289,1,31.25,0|0,3:2|0:0,0:0:0:0:
354,248,37134,6,0,P|325:194|360:141,1,125,10|0,0:0|0:0,0:0:0:0:
437,134,37806,1,2,0:0:0:0:
303,52,38029,2,0,L|225:61,1,62.5,2|0,0:0|0:0,0:0:0:0:
140,72,38477,2,0,L|62:81,1,62.5,2|0,0:0|3:2,0:0:0:0:
175,207,38925,2,0,P|199:174|191:131,1,62.5,10|0,0:0|3:2,0:0:0:0:
218,278,39373,1,2,0:0:0:0:
99,233,39597,1,0,3:2:0:0:
337,328,39820,6,0,L|472:315,1,125,2|2,3:2|0:0,0:0:0:0:
387,242,40492,1,0,3:2:0:0:
250,362,40716,2,0,L|187:367,1,62.5,10|0,3:2|0:0,0:0:0:0:
100,305,41164,1,0,0:0:0:0:
28,376,41388,1,2,0:0:0:0:
107,294,41612,1,2,0:0:0:0:
45,73,41835,1,8,3:2:0:0:
26,153,42059,2,0,L|88:147,1,62.5,2|0,0:0|3:2,0:0:0:0:
292,61,42507,2,0,P|309:79|320:95,1,31.25,10|0,3:2|0:0,0:0:0:0:
336,161,42731,1,0,3:2:0:0:
336,161,43179,1,0,3:2:0:0:
302,203,43291,1,0,3:2:0:0:
302,256,43403,6,0,L|376:266,1,62.5,4|0,3:1|0:0,0:0:0:0:
461,282,43850,1,0,0:0:0:0:
323,366,44074,2,0,P|311:351|304:334,1,31.25,0|0,3:2|0:0,0:0:0:0:
198,180,44298,2,0,P|208:241|177:294,1,125,10|0,0:0|0:0,0:0:0:0:
90,325,44970,1,2,0:0:0:0:
126,225,45194,2,0,P|109:195|77:172,1,62.5,2|0,0:0|0:0,0:0:0:0:
33,28,45641,2,0,P|50:58|82:81,1,62.5,2|0,0:0|3:2,0:0:0:0:
234,81,46089,2,0,L|306:73,1,62.5,10|0,0:0|3:2,0:0:0:0:
400,123,46537,1,2,0:0:0:0:
480,47,46761,1,0,3:2:0:0:
324,196,46985,6,0,P|302:250|308:331,1,125,2|0,3:2|0:0,0:0:0:0:
372,368,47656,1,0,3:2:0:0:
213,242,47880,2,0,L|128:255,1,62.5,10|0,3:2|0:0,0:0:0:0:
33,342,48328,1,0,0:0:0:0:
117,331,48552,1,2,0:0:0:0:
201,320,48776,2,0,P|218:293|227:264,1,62.5,2|0,0:0|0:0,0:0:0:0:
202,107,49223,2,0,P|184:133|175:162,1,62.5,2|0,0:0|3:2,0:0:0:0:
297,47,49671,1,10,3:2:0:0:
306,155,49895,1,0,3:2:0:0:
395,223,50119,1,0,0:0:0:0:
424,64,50343,1,0,3:2:0:0:
409,67,50455,1,0,3:0:0:0:
398,78,50567,6,0,L|388:152,1,62.5,4|0,3:1|0:0,0:0:0:0:
403,345,51238,2,0,L|407:314,1,31.25,0|0,3:2|0:0,0:0:0:0:
272,384,51462,2,0,L|290:249,1,125,10|0,0:0|0:0,0:0:0:0:
303,159,52134,1,2,0:0:0:0:
200,62,52358,2,0,L|212:132,1,62.5,2|0,0:0|0:0,0:0:0:0:
110,79,52806,2,0,L|120:140,1,62.5,2|0,0:0|3:2,0:0:0:0:
38,289,53253,2,0,L|48:227,1,62.5,10|0,0:0|3:2,0:0:0:0:
119,334,53701,1,2,0:0:0:0:
142,219,53925,1,0,3:2:0:0:
254,360,54149,6,0,P|325:330|370:335,1,112.499996566773,2|0,3:2|0:0,0:0:0:0:
439,352,55044,2,0,P|428:318|427:281,1,62.5,2|0,0:2|0:0,0:0:0:0:
429,281,55492,1,0,0:0:0:0:
446,189,55716,1,2,0:2:0:0:
439,198,55940,6,0,P|409:208|378:210,1,62.5,2|0,0:2|0:0,0:0:0:0:
312,175,56388,2,0,P|280:176|251:186,1,62.5,2|0,0:2|0:0,0:0:0:0:
375,49,56835,1,8,3:2:0:0:
210,251,57059,1,4,3:2:0:0:
210,251,57507,1,0,3:2:0:0:
24,15,57731,6,0,P|45:25|52:51,1,37.4999988555909,4|0,3:1|0:0,0:0:0:0:
74,118,58179,6,0,L|47:271,1,149.999995422363,2|0,0:2|0:0,0:0:0:0:
143,33,58626,2,0,P|238:-10|348:13,1,187.500007152558,10|0,3:2|0:0,0:0:0:0:
394,59,59074,2,0,L|407:132,1,74.9999977111817,2|0,0:2|0:0,0:0:0:0:
348,181,59298,2,0,L|361:254,1,74.9999977111817
435,300,59522,6,0,P|475:307|507:291,2,74.9999977111817,0|0|8,3:2|3:2|3:2,0:0:0:0:
347,173,60641,5,0,3:2:0:0:
341,161,60753,1,0,3:0:0:0:
345,146,60865,6,0,B|281:183|280:233|280:233|312:273|357:289|357:289|391:334|351:376,1,299.999990844727,4|0,3:1|0:2,0:0:0:0:
368,277,61537,1,0,0:0:0:0:
379,347,61761,6,0,P|370:365|357:384,1,37.4999988555909,0|0,3:2|0:0,0:0:0:0:
161,253,62209,6,0,P|84:243|-6:263,1,149.999995422363,10|0,3:2|0:0,0:0:0:0:
229,316,62656,2,0,P|247:276|255:221,1,74.9999977111817,2|0,0:2|0:0,0:0:0:0:
255,129,62880,6,0,L|248:77,1,37.4999988555909,2|0,0:0|0:2,0:0:0:0:
165,263,63328,1,8,3:2:0:0:
82,222,63552,2,0,L|75:168,1,37.4999988555909,0|0,3:2|0:0,0:0:0:0:
248,73,64000,6,0,P|326:60|415:88,1,149.999995422363,10|0,3:2|3:2,0:0:0:0:
442,139,64447,1,2,0:2:0:0:
130,55,64671,1,0,3:2:0:0:
180,121,64895,6,0,P|189:143|194:170,1,37.4999988555909,4|0,3:1|0:0,0:0:0:0:
210,239,65343,6,0,P|197:323|146:395,1,149.999995422363,2|0,0:2|0:0,0:0:0:0:
285,144,65791,2,0,P|388:150|459:198,1,187.500007152558,10|0,3:2|0:0,0:0:0:0:
483,269,66238,2,0,L|490:353,1,74.9999977111817,2|0,0:2|0:0,0:0:0:0:
475,356,66462,2,0,L|468:281,1,74.9999977111817
319,210,66686,6,0,P|341:211|366:222,1,37.4999988555909,0|0,3:2|0:0,0:0:0:0:
217,276,67134,2,0,P|237:274|261:263,1,37.4999988555909,0|0,3:2|0:0,0:0:0:0:
113,194,67582,6,0,P|157:192|201:211,1,74.9999977111817,10|0,3:2|0:0,0:0:0:0:
359,293,67806,2,0,P|403:295|447:276,1,74.9999977111817,0|0,3:2|0:0,0:0:0:0:
499,171,68029,6,0,P|508:134|512:95,2,74.9999977111817,4|0|0,3:1|0:2|3:2,0:0:0:0:
416,32,69373,2,0,P|419:68|416:109,1,74.9999977111817,8|0,3:2|0:2,0:0:0:0:
410,122,70044,1,0,0:0:0:0:
354,194,70268,1,0,0:2:0:0:
114,71,70492,1,8,3:2:0:0:
99,56,70716,2,0,P|121:55|141:60,1,37.4999988555909,0|0,3:2|0:0,0:0:0:0:
216,144,71164,5,10,3:2:0:0:
190,217,71276,1,0,0:0:0:0:
118,241,71388,1,2,0:2:0:0:
95,224,71500,1,0,0:0:0:0:
76,206,71612,2,0,P|34:204|-4:213,1,74.9999977111817,0|0,3:0|0:0,0:0:0:0:
176,295,71835,2,0,P|218:297|256:288,1,74.9999977111817,0|0,3:2|0:2,0:0:0:0:
390,166,72059,6,0,P|366:167|341:172,1,37.4999988555909,4|0,3:1|0:0,0:0:0:0:
294,219,72507,6,0,L|268:385,1,149.999995422363,2|0,0:2|0:0,0:0:0:0:
281,133,72955,2,0,P|192:83|81:69,1,187.500007152558,10|0,3:2|0:0,0:0:0:0:
56,172,73403,2,0,P|94:172|129:163,1,74.9999977111817,2|0,0:2|0:0,0:0:0:0:
219,59,73626,2,0,P|255:49|292:49,1,74.9999977111817
392,80,73850,6,0,P|418:105|438:142,2,74.9999977111817,0|0|10,3:2|3:2|3:2,0:0:0:0:
285,149,74970,1,0,3:2:0:0:
281,165,75082,1,0,3:0:0:0:
278,179,75194,6,0,B|277:147|262:84|370:186|267:311|267:311|258:271|214:256,1,299.999990844727,4|0,3:1|0:2,0:0:0:0:
147,263,75865,1,0,0:0:0:0:
219,266,76089,6,0,P|241:281|254:299,1,37.4999988555909,2|0,3:2|0:0,0:0:0:0:
134,144,76537,6,0,P|215:152|291:188,1,149.999995422363,10|0,3:2|0:0,0:0:0:0:
330,348,76985,2,0,P|318:306|332:271,1,74.9999977111817,2|0,0:2|0:0,0:0:0:0:
394,229,77209,2,0,P|403:193|391:158,1,74.9999977111817
336,107,77432,1,0,0:2:0:0:
413,318,77656,1,8,3:2:0:0:
418,330,77880,6,0,L|467:325,1,37.4999988555909,2|0,3:2|0:0,0:0:0:0:
264,178,78328,6,0,L|95:199,1,149.999995422363,10|0,3:2|3:2,0:0:0:0:
109,209,78664,1,0,3:0:0:0:
105,218,78776,1,2,3:2:0:0:
277,162,79000,1,0,3:2:0:0:
284,87,79223,6,0,P|276:66|262:52,1,37.4999988555909,4|0,3:1|0:0,0:0:0:0:
193,26,79671,6,0,P|118:36|48:62,1,149.999995422363,2|0,0:2|0:0,0:0:0:0:
308,249,80119,2,0,P|262:176|151:142,1,187.500007152558,10|0,3:2|0:0,0:0:0:0:
84,161,80567,2,0,P|21:222|7:305,1,149.999995422363,2|0,0:2|0:0,0:0:0:0:
76,359,81015,6,0,P|93:365|112:366,1,37.4999988555909,0|0,3:2|0:0,0:0:0:0:
208,301,81462,2,0,P|232:301|256:311,1,37.4999988555909,0|0,3:2|0:0,0:0:0:0:
334,349,81910,6,0,L|312:247,1,74.9999977111817,10|0,3:2|0:0,0:0:0:0:
130,286,82134,2,0,L|149:204,1,74.9999977111817,2|0,3:2|0:0,0:0:0:0:
280,141,82358,6,0,P|260:108|224:80,2,74.9999977111817,4|0|0,3:1|0:2|3:2,0:0:0:0:
400,121,83701,2,0,P|404:161|393:201,1,74.9999977111817,8|0,3:2|0:2,0:0:0:0:
387,208,84373,1,0,0:0:0:0:
311,233,84597,1,0,0:2:0:0:
192,26,84820,1,8,3:2:0:0:
327,8,85044,2,0,L|323:47,1,37.4999988555909,0|0,3:2|0:0,0:0:0:0:
51,136,85492,5,8,3:2:0:0:
109,194,85604,1,0,0:0:0:0:
61,258,85716,1,2,0:2:0:0:
48,286,85828,1,0,0:0:0:0:
68,309,85940,2,0,L|77:223,1,74.9999977111817,0|0,3:2|0:0,0:0:0:0:
192,26,86164,2,0,L|184:100,1,74.9999977111817,0|0,3:2|0:2,0:0:0:0:
269,202,86388,5,4,3:1:0:0:
399,168,86835,2,0,P|425:176|449:193,1,37.4999988555909,2|0,0:2|0:0,0:0:0:0:
260,214,87283,2,0,P|299:261|315:307,1,74.9999977111817,10|2,3:2|0:2,0:0:0:0:
182,114,88179,2,0,P|155:169|120:203,2,74.9999977111817,2|0|8,3:2|3:2|3:2,0:0:0:0:
149,30,89298,1,0,3:2:0:0:
273,116,89522,2,0,B|320:100|320:100|382:109|382:109|427:95,1,149.999995422363,4|2,3:1|3:2,0:0:0:0:
329,181,90865,6,0,L|346:271,1,74.9999977111817,8|2,3:2|0:2,0:0:0:0:
263,252,91537,2,0,L|256:215,1,37.4999988555909,0|0,0:0|0:2,0:0:0:0:
419,195,91985,1,8,3:2:0:0:
399,311,92209,1,0,3:2:0:0:
403,329,92656,1,10,3:2:0:0:
408,343,93104,1,0,0:2:0:0:
389,339,93216,1,0,0:0:0:0:
371,335,93328,1,0,3:2:0:0:
426,309,93440,1,0,0:0:0:0:
482,286,93552,5,4,3:1:0:0:
290,377,94000,2,0,P|275:338|273:297,2,74.9999977111817,2|10|2,0:2|3:2|0:2,0:0:0:0:
191,274,95343,2,0,P|198:250|209:232,1,37.4999988555909,2|0,3:2|0:0,0:0:0:0:
274,296,95791,2,0,P|293:280|313:272,1,37.4999988555909,2|0,3:2|0:0,0:0:0:0:
439,347,96238,2,0,P|422:338|408:326,1,37.4999988555909,10|0,3:2|3:2,0:0:0:0:
473,271,96686,2,0,P|454:220|505:134,1,149.999995422363,4|0,3:1|3:2,0:0:0:0:
303,168,98029,5,8,3:2:0:0:
294,179,98477,1,0,0:2:0:0:
217,139,98701,2,0,L|177:143,1,37.4999988555909,0|0,0:0|0:2,0:0:0:0:
363,16,99149,1,8,3:2:0:0:
323,90,99373,2,0,L|283:94,1,37.4999988555909,0|0,3:2|0:0,0:0:0:0:
447,33,99820,1,10,3:2:0:0:
478,172,100044,1,0,3:0:0:0:
425,196,100156,1,0,3:0:0:0:
370,173,100268,2,0,L|346:79,1,74.9999977111817,0|0,3:0|0:0,0:0:0:0:
327,266,100492,2,0,L|352:357,1,74.9999977111817,0|0,3:0|0:0,0:0:0:0:
165,287,100716,5,4,3:1:0:0:
176,204,101164,2,0,L|231:224,1,37.4999988555909,2|0,0:2|0:0,0:0:0:0:
121,83,101612,2,0,L|191:108,1,74.9999977111817,10|2,3:2|0:2,0:0:0:0:
412,45,102507,1,2,3:2:0:0:
351,100,102955,1,2,3:2:0:0:
462,294,103403,1,10,3:2:0:0:
329,248,103850,2,0,B|184:295,1,149.999995422363,4|2,3:1|3:2,0:0:0:0:
0,233,105194,5,10,3:2:0:0:
15,229,105641,2,0,P|26:240|32:261,2,37.4999988555909,0|0|0,0:2|0:0|0:2,0:0:0:0:
37,373,106313,1,8,3:2:0:0:
98,317,106537,2,0,P|110:276|110:237,1,74.9999977111817,0|10,3:0|3:2,0:0:0:0:
160,163,107209,1,0,0:0:0:0:
174,166,107320,1,0,0:0:0:0:
185,176,107432,1,0,0:0:0:0:
192,188,107544,1,0,0:0:0:0:
213,129,107656,5,0,3:2:0:0:
268,102,107768,1,0,0:0:0:0:
330,108,107880,5,4,3:1:0:0:
361,229,108328,2,0,P|327:211|291:201,2,74.9999977111817,2|10|2,0:2|3:2|0:2,0:0:0:0:
491,299,109671,2,0,L|467:200,1,74.9999977111817,2|2,3:2|3:2,0:0:0:0:
442,116,110567,2,0,L|450:152,1,37.4999988555909,10|0,3:2|3:2,0:0:0:0:
362,172,111015,2,0,L|338:73,1,74.9999977111817,4|2,3:1|0:2,0:0:0:0:
341,89,111910,5,0,3:2:0:0:
304,248,112358,2,0,P|281:251|257:253,1,37.4999988555909,8|0,3:2|0:0,0:0:0:0:
171,195,112806,1,0,0:2:0:0:
171,195,113029,2,0,P|189:196|208:199,1,37.4999988555909,0|0,0:0|0:2,0:0:0:0:
103,268,113477,1,8,3:2:0:0:
78,181,113701,2,0,P|81:158|88:140,1,37.4999988555909,0|0,3:2|0:0,0:0:0:0:
99,282,114149,1,8,3:2:0:0:
166,98,114373,1,0,3:2:0:0:
181,93,114485,1,0,3:0:0:0:
195,88,114597,1,0,0:2:0:0:
96,68,114820,1,0,3:2:0:0:
202,281,115044,5,4,3:1:0:0:
202,281,115492,1,0,0:0:0:0:
121,293,115716,1,0,3:2:0:0:
327,265,115940,2,0,L|464:300,1,125,10|0,0:0|0:0,0:0:0:0:
367,354,116612,1,2,0:0:0:0:
322,256,116835,2,0,P|334:210|355:185,1,62.5,2|0,0:0|0:0,0:0:0:0:
450,164,117283,2,0,P|465:136|470:106,1,62.5,2|0,0:0|3:2,0:0:0:0:
327,265,117731,1,10,0:0:0:0:
332,274,118179,2,0,P|320:320|299:345,1,62.5,2|0,0:0|3:2,0:0:0:0:
172,369,118626,6,0,L|50:338,1,125,0|0,3:2|0:0,0:0:0:0:
36,333,119298,1,0,3:2:0:0:
158,164,119522,2,0,L|163:226,1,62.5,10|0,3:2|0:0,0:0:0:0:
65,139,119970,1,0,0:0:0:0:
132,74,120194,1,2,0:0:0:0:
226,98,120417,2,0,P|262:106|301:106,1,62.5,2|0,0:0|0:0,0:0:0:0:
325,197,120865,2,0,P|358:182|390:159,1,62.5,2|0,0:0|3:2,0:0:0:0:
498,300,121313,1,8,3:2:0:0:
468,213,121537,1,2,3:2:0:0:
491,308,121761,1,0,0:0:0:0:
474,202,121985,1,0,3:2:0:0:
360,328,122209,6,0,L|265:319,1,62.5,4|0,3:1|0:0,0:0:0:0:
377,323,122880,1,0,3:2:0:0:
159,296,123104,2,0,P|95:323|40:364,1,125,10|0,0:0|0:0,0:0:0:0:
173,302,123776,1,2,0:0:0:0:
71,298,124000,2,0,P|37:239|36:215,1,62.5,2|0,0:0|0:0,0:0:0:0:
116,188,124447,2,0,P|117:119|128:98,1,62.5,2|0,0:0|3:2,0:0:0:0:
301,75,124895,2,0,P|264:132|244:144,1,62.5,10|0,0:0|3:2,0:0:0:0:
183,88,125343,2,0,P|122:118|98:118,1,62.5,2|0,0:0|3:2,0:0:0:0:
0,22,125791,6,0,P|68:47|131:38,1,125,2|0,3:2|0:0,0:0:0:0:
128,32,126462,1,0,3:2:0:0:
283,0,126686,2,0,L|357:12,1,62.5,10|0,3:2|0:0,0:0:0:0:
361,111,127134,1,0,0:0:0:0:
361,111,127358,2,0,L|299:100,1,62.5,2|2,0:0|0:0,0:0:0:0:
476,140,127806,1,8,3:2:0:0:
390,220,128029,2,0,P|371:285|371:357,1,125,2|10,0:0|3:2,0:0:0:0:
291,265,128701,1,0,3:2:0:0:
279,266,128925,1,2,0:0:0:0:
460,296,129149,1,0,3:2:0:0:
272,352,129373,5,4,3:1:0:0:
272,352,129820,1,0,0:0:0:0:
195,312,130044,1,0,3:2:0:0:
68,135,130268,2,0,P|131:135|202:159,1,125,10|0,0:0|0:0,0:0:0:0:
190,232,130940,1,2,0:0:0:0:
270,165,131164,2,0,P|268:133|256:105,1,62.5,2|0,0:0|0:0,0:0:0:0:
267,26,131612,2,0,P|296:36|320:56,1,62.5,2|0,0:0|3:2,0:0:0:0:
295,277,132059,1,10,0:0:0:0:
346,211,132283,2,0,P|379:193|421:192,2,62.5,0|2|0,3:2|0:0|3:2,0:0:0:0:
249,345,132955,6,0,L|114:325,1,125,2|0,3:2|0:0,0:0:0:0:
49,310,133626,1,0,3:2:0:0:
235,263,133850,2,0,L|158:251,1,62.5,10|0,3:2|0:0,0:0:0:0:
120,185,134298,1,0,0:0:0:0:
150,106,134522,1,2,0:0:0:0:
181,29,134746,2,0,P|219:20|266:22,1,62.5,2|0,0:0|0:0,0:0:0:0:
350,61,135194,2,0,P|381:59|411:51,1,62.5,2|0,0:0|3:2,0:0:0:0:
266,158,135641,1,10,3:2:0:0:
351,147,135865,1,0,3:2:0:0:
374,229,136089,1,2,0:0:0:0:
398,307,136313,1,0,3:2:0:0:
432,135,136537,6,0,L|451:73,1,62.5,4|0,3:1|0:0,0:0:0:0:
450,75,137209,1,0,3:2:0:0:
276,282,137432,2,0,L|264:143,1,125,10|0,0:0|0:0,0:0:0:0:
264,143,138104,1,2,0:0:0:0:
185,228,138328,2,0,P|148:238|113:230,1,62.5,2|0,0:0|0:0,0:0:0:0:
137,143,138776,2,0,P|103:123|84:93,1,62.5,2|0,0:0|3:2,0:0:0:0:
194,242,139223,2,0,P|157:252|122:244,1,62.5,10|0,0:0|3:2,0:0:0:0:
134,153,139671,2,0,P|100:133|81:103,1,62.5,2|0,0:0|3:2,0:0:0:0:
241,31,140119,6,0,L|223:170,1,125,2|0,3:2|0:0,0:0:0:0:
307,106,140791,1,0,3:2:0:0:
438,239,141015,2,0,L|354:257,1,62.5,10|0,3:2|0:0,0:0:0:0:
310,330,141462,1,0,0:0:0:0:
310,330,141686,2,0,L|226:312,1,62.5,2|2,0:0|0:0,0:0:0:0:
410,351,142134,1,8,3:2:0:0:
313,347,142358,2,0,P|264:322|193:306,1,125,2|10,0:0|3:2,0:0:0:0:
99,370,143029,1,0,3:2:0:0:
88,372,143253,1,2,0:0:0:0:
185,309,143477,1,0,3:2:0:0:
24,247,143701,6,0,P|84:233|140:206,1,125,4|2,3:1|0:0,0:0:0:0:
206,142,144373,1,0,3:2:0:0:
201,126,144485,1,0,3:0:0:0:
195,112,144597,2,0,P|224:138|256:142,1,62.5,10|0,0:0|0:0,0:0:0:0:
329,123,145044,1,0,0:0:0:0:
391,63,145268,1,2,0:0:0:0:
330,134,145492,2,0,L|345:221,1,62.5,2|0,0:0|0:0,0:0:0:0:
357,289,145940,2,0,L|372:376,1,62.5,2|0,0:0|3:2,0:0:0:0:
247,238,146388,1,10,0:0:0:0:
206,315,146612,2,0,L|135:320,2,62.5,0|2|0,3:2|0:0|3:2,0:0:0:0:
80,254,147283,6,0,P|135:243|180:191,1,125,2|2,3:2|0:0,0:0:0:0:
153,53,148179,2,0,L|221:65,1,62.5,10|0,3:2|0:0,0:0:0:0:
306,83,148626,1,0,0:0:0:0:
383,44,148850,1,2,3:2:0:0:
391,50,148962,1,0,3:0:0:0:
396,61,149074,2,0,L|383:147,1,62.5,2|0,0:0|0:0,0:0:0:0:
309,171,149522,2,0,L|322:257,1,62.5,2|0,0:0|3:2,0:0:0:0:
296,72,149970,1,10,3:2:0:0:
234,124,150194,1,0,3:2:0:0:
155,117,150417,2,0,P|137:132|135:141,1,31.25,2|0,0:0|0:0,0:0:0:0:
99,202,150641,2,0,P|117:187|119:178,1,31.25,2|0,3:2|0:0,0:0:0:0:
106,55,150865,6,0,L|149:262,1,187.5,4|0,3:1|3:2,0:0:0:0:
57,348,151761,2,0,P|94:324|124:319,1,62.5,10|0,0:0|0:0,0:0:0:0:
204,312,152209,1,0,0:0:0:0:
284,357,152432,1,2,0:0:0:0:
348,289,152656,2,0,L|337:220,1,62.5,2|0,0:0|0:0,0:0:0:0:
432,321,153104,2,0,L|441:382,1,62.5,2|0,0:0|3:2,0:0:0:0:
334,210,153552,1,8,0:0:0:0:
359,133,153776,1,2,3:2:0:0:
387,55,154000,1,0,0:0:0:0:
370,140,154223,1,0,3:2:0:0:
203,13,154447,6,0,L|227:154,1,125,2|0,3:2|0:0,0:0:0:0:
149,247,155119,1,0,3:2:0:0:
137,256,155231,1,0,3:0:0:0:
125,256,155343,2,0,P|147:229|189:229,1,62.5,10|0,3:2|0:0,0:0:0:0:
251,260,155791,1,0,0:0:0:0:
337,249,156015,1,2,0:0:0:0:
405,189,156238,1,2,0:0:0:0:
496,342,156462,1,8,3:2:0:0:
496,342,157134,1,10,3:2:0:0:
398,179,157358,2,0,P|403:148|421:118,1,62.5,0|2,3:2|0:0,0:0:0:0:
445,261,157806,1,0,3:2:0:0:
512,75,158029,6,0,P|456:22|335:55,1,187.5,4|0,3:1|3:2,0:0:0:0:
276,97,158925,1,10,0:0:0:0:
211,30,159149,1,0,3:0:0:0:
183,34,159261,1,0,3:0:0:0:
149,39,159373,1,0,3:2:0:0:
113,120,159597,1,2,0:0:0:0:
18,15,159820,2,0,P|40:59|43:84,1,62.5,2|0,0:0|0:0,0:0:0:0:
42,168,160268,2,0,P|34:198|18:225,1,62.5,2|0,0:0|3:2,0:0:0:0:
113,120,160716,2,0,P|149:178|154:247,1,125,10|2,0:0|0:0,0:0:0:0:
103,341,161388,1,0,3:2:0:0:
152,332,161500,1,0,3:0:0:0:
201,342,161612,5,2,3:2:0:0:
248,250,161835,1,0,0:0:0:0:
355,295,162059,1,0,2:2:0:0:
361,213,162283,1,0,3:2:0:0:
499,384,162507,2,0,P|474:339|457:249,1,125,10|0,3:2|0:0,0:0:0:0:
462,256,163179,1,2,0:0:0:0:
457,80,163403,2,0,P|447:133|431:155,1,62.5,2|0,0:0|0:0,0:0:0:0:
367,107,163850,2,0,P|331:147|306:157,1,62.5,2|0,0:0|3:2,0:0:0:0:
175,74,164298,2,0,P|226:57|253:61,1,62.5,10|0,3:2|3:2,0:0:0:0:
240,140,164746,2,0,P|271:143|299:156,1,62.5,2|0,0:0|3:2,0:0:0:0:
270,344,165194,6,0,P|283:285|252:224,1,125,4|0,3:1|0:0,0:0:0:0:
257,356,165865,1,0,3:2:0:0:
299,157,166089,2,0,P|271:143|241:140,1,62.5,10|0,0:0|0:0,0:0:0:0:
172,193,166537,1,0,0:2:0:0:
42,135,166761,1,2,0:0:0:0:
149,48,166985,2,0,L|137:124,1,62.5,2|0,0:0|0:0,0:0:0:0:
181,208,167432,2,0,L|169:284,1,62.5,2|0,0:0|3:2,0:0:0:0:
32,339,167880,1,10,0:0:0:0:
84,313,168104,1,0,3:2:0:0:
71,352,168328,1,2,0:0:0:0:
45,300,168552,1,0,3:2:0:0:
217,361,168776,6,0,P|301:338|466:342,1,250,2|2,3:2|0:2,0:0:0:0:
472,351,169895,1,0,0:0:0:0:
478,362,170119,1,0,0:0:0:0:
326,298,170343,1,2,0:2:0:0:
445,201,170567,2,0,L|453:138,1,62.5,2|0,0:2|0:0,0:0:0:0:
465,132,171015,2,0,L|458:195,1,62.5,2|0,0:2|0:0,0:0:0:0:
392,258,171462,1,8,3:2:0:0:
336,24,171686,1,4,3:2:0:0:
336,24,172134,1,0,3:2:0:0:
300,106,172358,6,0,P|271:117|251:121,1,37.4999988555909,4|0,3:1|0:0,0:0:0:0:
170,103,172806,6,0,P|233:110|335:147,1,149.999995422363,2|0,0:2|0:0,0:0:0:0:
152,25,173253,2,0,B|108:27|77:42|77:42|67:97|99:179,1,200,10|0,3:2|0:0,0:0:0:0:
23,220,173701,2,0,P|45:250|74:273,1,74.9999977111817,2|0,0:2|0:0,0:0:0:0:
159,305,173925,2,0,P|197:306|233:298,1,74.9999977111817,2|0,0:0|0:0,0:0:0:0:
258,275,174149,6,0,L|196:279,1,37.4999988555909,0|0,3:2|0:0,0:0:0:0:
391,338,174597,2,0,L|329:342,1,37.4999988555909,0|0,3:2|0:0,0:0:0:0:
480,235,175044,1,10,3:2:0:0:
492,242,175156,1,0,0:0:0:0:
501,256,175268,5,2,3:2:0:0:
447,210,175380,1,0,0:0:0:0:
451,126,175492,6,0,B|446:95|465:55|465:55|439:135|366:167,1,224.999993133545,4|0,3:1|0:0,0:0:0:0:
351,177,175940,6,0,P|313:179|268:173,2,74.9999977111817,0|0|8,0:2|3:2|3:2,0:0:0:0:
353,169,177283,6,0,P|312:175|265:190,1,74.9999977111817,2|0,0:2|0:0,0:0:0:0:
185,234,177507,2,0,P|107:208|44:172,1,149.999995422363,2|2,0:0|0:2,0:0:0:0:
189,312,177955,1,8,3:2:0:0:
257,272,178179,6,0,P|278:276|302:287,1,37.4999988555909,2|0,3:2|0:0,0:0:0:0:
388,384,178626,2,0,P|386:341|398:301,1,74.9999977111817,10|0,3:2|0:0,0:0:0:0:
450,239,178850,1,0,3:2:0:0:
449,227,178962,1,0,0:0:0:0:
459,221,179074,2,0,L|446:145,1,74.9999977111817,2|0,0:2|0:2,0:0:0:0:
418,0,179298,2,0,L|430:73,1,74.9999977111817,2|0,3:2|0:2,0:0:0:0:
339,150,179522,6,0,P|315:165|290:166,1,37.4999988555909,4|0,3:1|0:0,0:0:0:0:
195,177,179970,6,0,L|41:154,1,149.999995422363,2|0,0:2|0:0,0:0:0:0:
256,272,180417,2,0,L|441:299,1,187.500007152558,10|0,3:2|0:0,0:0:0:0:
392,85,180865,1,2,0:2:0:0:
331,38,180977,1,2,0:0:0:0:
260,66,181089,1,2,0:0:0:0:
247,60,181201,1,2,0:0:0:0:
242,48,181313,6,0,L|252:8,1,37.4999988555909,0|0,3:2|0:0,0:0:0:0:
198,217,181761,2,0,L|208:177,1,37.4999988555909,0|0,3:2|0:0,0:0:0:0:
160,355,182209,6,0,P|227:307|371:352,1,224.999993133545,10|0,3:2|3:2,0:0:0:0:
367,363,182656,6,0,P|379:325|407:300,2,74.9999977111817,4|0|0,3:1|0:2|3:2,0:0:0:0:
495,302,184000,2,0,P|472:269|469:231,2,74.9999977111817,8|0|0,3:2|0:2|0:2,0:0:0:0:
502,106,185119,1,8,3:2:0:0:
429,156,185343,2,0,L|379:143,1,37.4999988555909,2|0,3:2|0:0,0:0:0:0:
238,112,185791,5,8,3:2:0:0:
179,174,185903,1,0,0:0:0:0:
103,146,186015,1,0,3:2:0:0:
84,144,186126,1,0,0:0:0:0:
76,158,186238,2,0,L|175:149,1,74.9999977111817,2|0,0:2|0:0,0:0:0:0:
372,45,186462,2,0,L|297:51,1,74.9999977111817,0|0,3:2|0:2,0:0:0:0:
35,62,186686,6,0,P|19:39|17:26,1,37.4999988555909,4|0,3:1|0:0,0:0:0:0:
145,75,187134,6,0,L|116:233,1,149.999995422363,2|0,0:2|0:0,0:0:0:0:
213,23,187582,2,0,P|322:19|425:62,1,187.500007152558,10|0,3:2|0:0,0:0:0:0:
378,195,188029,2,0,P|344:130|268:113,1,149.999995422363,2|0,0:2|0:0,0:0:0:0:
280,184,188477,6,0,P|300:193|299:214,1,37.4999988555909,0|0,3:2|0:0,0:0:0:0:
149,202,188925,2,0,P|153:219|171:224,1,37.4999988555909,0|0,3:2|0:0,0:0:0:0:
36,201,189373,6,0,P|100:230|197:222,1,149.999995422363,10|0,3:2|3:2,0:0:0:0:
247,188,189709,1,0,3:0:0:0:
291,117,189820,6,0,P|336:102|377:106,2,74.9999977111817,4|0|0,3:1|0:2|3:2,0:0:0:0:
471,286,191164,6,0,L|444:115,1,149.999995422363,10|0,3:2|0:0,0:0:0:0:
511,6,191612,2,0,P|497:40|469:63,1,74.9999977111817,2|0,3:2|0:0,0:0:0:0:
391,86,191835,2,0,P|362:109|348:143,1,74.9999977111817,2|0,0:2|0:0,0:0:0:0:
273,116,192059,2,0,P|269:152|283:187,1,62.5,2|0,0:2|0:0,0:0:0:0:
189,48,192283,2,0,P|192:72|188:97,1,50,8|0,3:2|0:0,0:0:0:0:
111,75,192507,2,0,P|98:88|82:98,1,37.4999988555909,2|0,0:2|0:0,0:0:0:0:
33,36,192731,1,0,0:0:0:0:
187,38,192955,5,10,3:2:0:0:
255,78,193067,1,2,2:0:0:0:
247,153,193179,1,2,3:2:0:0:
321,39,193403,1,2,0:2:0:0:
181,200,193626,1,0,3:2:0:0:
205,275,193850,6,0,P|219:287|237:290,1,37.4999988555909,4|0,3:1|0:0,0:0:0:0:
319,286,194298,6,0,P|245:290|158:301,1,149.999995422363,2|0,0:2|0:0,0:0:0:0:
394,379,194746,2,0,P|423:290|437:197,1,187.500007152558,10|0,3:2|0:0,0:0:0:0:
292,62,195194,2,0,P|302:131|371:145,1,149.999995422363,2|0,0:2|0:0,0:0:0:0:
447,111,195641,6,0,L|492:118,1,37.4999988555909,0|0,3:2|0:0,0:0:0:0:
372,17,196089,2,0,L|417:24,1,37.4999988555909,0|0,3:2|0:0,0:0:0:0:
214,25,196537,6,0,P|204:94|221:190,1,149.999995422363,10|0,3:2|3:2,0:0:0:0:
233,249,196873,1,0,3:0:0:0:
189,315,196985,6,0,P|150:326|103:326,2,74.9999977111817,4|0|0,3:1|0:2|3:2,0:0:0:0:
403,255,198328,2,0,L|443:261,1,37.4999988555909,8|0,3:2|0:0,0:0:0:0:
328,201,198776,1,0,0:2:0:0:
328,201,199000,2,0,L|276:193,1,37.4999988555909,0|0,0:0|0:2,0:0:0:0:
482,102,199447,1,8,3:2:0:0:
410,62,199671,2,0,L|401:13,1,37.4999988555909,0|0,3:2|0:0,0:0:0:0:
490,113,200119,6,0,P|461:152|445:202,1,74.9999977111817,8|0,3:2|0:0,0:0:0:0:
463,302,200343,1,0,3:2:0:0:
384,310,200455,1,0,3:0:0:0:
306,320,200567,2,0,P|285:283|284:231,1,74.9999977111817,0|0,3:2|0:2,0:0:0:0:
375,37,200791,2,0,P|396:74|397:126,1,74.9999977111817,0|0,3:2|0:2,0:0:0:0:
281,240,201015,5,4,3:1:0:0:
281,240,201462,2,0,P|258:234|240:234,1,37.4999988555909,2|0,0:2|0:0,0:0:0:0:
186,357,201910,2,0,P|207:332|247:310,1,74.9999977111817,10|2,3:2|0:2,0:0:0:0:
168,264,202806,2,0,P|158:247|151:230,1,37.4999988555909,2|0,3:2|0:0,0:0:0:0:
187,141,203253,2,0,P|180:123|170:107,1,37.4999988555909,2|0,3:2|0:0,0:0:0:0:
55,108,203701,2,0,P|78:113|99:111,1,37.4999988555909,10|0,3:2|3:2,0:0:0:0:
208,12,204149,2,0,P|264:64|341:78,1,149.999995422363,4|2,3:1|3:2,0:0:0:0:
497,16,205492,5,8,3:2:0:0:
497,16,205940,1,0,0:2:0:0:
469,115,206164,1,0,0:0:0:0:
463,364,206612,1,8,3:2:0:0:
491,265,206836,1,0,3:2:0:0:
292,384,207283,2,0,L|278:335,1,37.4999988555909,8|0,3:2|3:2,0:0:0:0:
192,276,207731,1,0,0:2:0:0:
184,284,207843,1,0,0:0:0:0:
187,295,207955,1,0,3:2:0:0:
266,252,208067,1,0,3:2:0:0:
265,164,208179,5,4,3:1:0:0:
144,74,208626,2,0,P|163:106|165:117,1,37.4999988555909,2|0,0:2|0:0,0:0:0:0:
18,103,209074,2,0,P|60:113|83:140,1,74.9999977111817,10|2,3:2|0:2,0:0:0:0:
27,292,209970,2,0,L|78:289,1,37.4999988555909,2|0,3:2|0:0,0:0:0:0:
152,286,210417,2,0,L|203:283,1,37.4999988555909,2|0,3:2|0:0,0:0:0:0:
345,273,210865,2,0,L|307:275,1,37.4999988555909,10|0,3:2|3:2,0:0:0:0:
417,292,211313,2,0,L|259:261,1,149.999995422363,4|0,3:1|3:2,0:0:0:0:
365,129,212656,5,10,3:2:0:0:
365,129,213104,1,0,0:2:0:0:
268,154,213328,1,0,0:0:0:0:
81,41,213776,1,8,3:2:0:0:
178,66,214000,1,0,3:2:0:0:
178,66,214447,1,10,3:2:0:0:
331,126,214671,1,0,3:0:0:0:
303,195,214783,1,0,3:0:0:0:
280,266,214895,2,0,L|360:273,1,74.9999977111817,0|0,3:0|0:0,0:0:0:0:
207,342,215119,2,0,L|132:335,1,74.9999977111817,0|0,3:0|0:2,0:0:0:0:
311,377,215343,5,4,3:1:0:0:
311,377,215791,2,0,L|390:379,2,74.9999977111817,2|10|2,0:2|3:2|0:2,0:0:0:0:
191,322,217134,1,2,3:2:0:0:
72,257,217582,1,2,3:2:0:0:
311,224,218029,2,0,L|322:198,1,18.7499994277954,10|0,3:2|0:0,0:0:0:0:
354,135,218253,1,0,3:2:0:0:
353,124,218365,1,0,3:0:0:0:
341,122,218477,2,0,L|274:266,1,149.999995422363,4|0,3:1|3:2,0:0:0:0:
201,59,219820,5,8,3:2:0:0:
201,59,220268,1,0,0:2:0:0:
82,88,220492,1,0,0:0:0:0:
362,211,220940,1,8,3:2:0:0:
243,182,221164,1,0,3:2:0:0:
428,104,221612,1,10,3:2:0:0:
373,227,221835,1,0,3:2:0:0:
390,244,221947,1,0,0:0:0:0:
412,253,222059,1,0,0:2:0:0:
436,255,222171,1,0,0:0:0:0:
369,212,222283,5,0,3:2:0:0:
381,288,222395,1,0,3:2:0:0:
324,336,222507,5,4,3:1:0:0:
324,336,222955,2,0,L|274:331,1,37.4999988555909,2|0,0:2|0:0,0:0:0:0:
156,348,223403,2,0,P|193:332|207:300,1,74.9999977111817,10|2,3:2|0:2,0:0:0:0:
170,206,224298,2,0,L|127:194,1,37.4999988555909,2|0,3:2|0:0,0:0:0:0:
56,168,224746,2,0,L|13:156,1,37.4999988555909,2|0,3:2|0:0,0:0:0:0:
244,249,225194,2,0,L|256:206,1,37.4999988555909,10|0,3:2|3:2,0:0:0:0:
275,129,225641,2,0,L|425:83,1,149.999995422363,4|0,3:1|3:2,0:0:0:0:
174,72,226985,5,8,3:2:0:0:
174,72,227432,1,0,0:2:0:0:
275,129,227656,1,0,0:0:0:0:
122,263,228104,1,8,3:2:0:0:
86,143,228328,1,0,3:2:0:0:
283,351,228776,6,0,L|378:343,1,74.9999977111817,8|0,3:2|0:0,0:0:0:0:
453,272,229000,1,0,3:2:0:0:
418,179,229112,1,0,3:0:0:0:
470,103,229223,2,0,L|481:25,1,74.9999977111817,0|0,0:2|0:0,0:0:0:0:
359,254,229447,2,0,L|312:106,1,149.999995422363,8|4,3:2|3:2,0:0:0:0:
