osu file format v14

[General]
AudioFilename: audio.mp3
AudioLeadIn: 0
PreviewTime: 50723
Countdown: 0
SampleSet: Soft
StackLeniency: 0.3
Mode: 0
LetterboxInBreaks: 0
WidescreenStoryboard: 0

[Editor]
Bookmarks: 26197,52142,107278,129980,181872
DistanceSpacing: 1
BeatDivisor: 8
GridSize: 4
TimelineZoom: 1

[Metadata]
Title:For The Kill
TitleUnicode:For The Kill
Artist:Life on Venus
ArtistUnicode:Life on Venus
Creator:aishiteiru-
Version:Under the Foggy Night
Source:
Tags:odes to the void shoegaze dream pop dreampop rock english departure florescence maruoko delette
BeatmapID:3320769
BeatmapSetID:1626611

[Difficulty]
HPDrainRate:6.5
CircleSize:4
OverallDifficulty:8
ApproachRate:7.5
SliderMultiplier:1.4
SliderTickRate:1

[Events]
//Background and Video events
0,0,"1624885282_6-phonoteka_org-p-atmosfernie-temnie-oboi-krasivo-6.jpg",0,0
//Break Periods
2,103829,106453
//Storyboard Layer 0 (Background)
//Storyboard Layer 1 (Fail)
//Storyboard Layer 2 (Pass)
//Storyboard Layer 3 (Foreground)
//Storyboard Layer 4 (Overlay)
//Storyboard Sound Samples

[TimingPoints]
251,810.810810810811,4,2,1,45,1,0
26197,-45.4545454545455,4,2,1,65,0,0
52142,-76.9230769230769,4,2,1,50,0,1
65114,-76.9230769230769,4,2,1,50,0,1
78086,-76.9230769230769,4,2,1,50,0,1
91058,-76.9230769230769,4,2,1,50,0,1
104034,-76.9230769230769,4,2,1,50,0,0
107277,-62.5,4,2,1,65,0,0
128763,-500,4,2,1,65,0,0
129980,-76.9230769230769,4,2,1,50,0,1
142952,-76.9230769230769,4,2,1,50,0,1
155924,-76.9230769230769,4,2,1,50,0,1
168896,-200,4,2,1,50,0,1
170115,-76.9230769230769,4,2,1,50,0,1
179237,-76.9230769230769,4,2,1,5,0,1
179440,-76.9230769230769,4,2,1,50,0,1
181467,-76.9230769230769,4,2,1,50,0,0

[Colours]
Combo1 : 169,163,192
Combo2 : 174,174,174

[HitObjects]
25,187,26197,6,0,B|95:168|117:231|188:215,2,154.000004699707,0|8|0,3:0|3:2|3:0,0:0:0:0:
223,282,27210,1,4,3:0:0:0:
210,148,27413,2,0,P|207:102|200:59,1,77.0000023498536,8|0,3:2|3:0,0:0:0:0:
360,208,27818,2,0,P|364:277|279:327,1,154.000004699707,0|8,3:0|3:2,0:0:0:0:
383,30,28629,5,0,3:0:0:0:
478,57,28832,1,0,3:0:0:0:
377,53,29034,1,8,3:2:0:0:
472,33,29237,1,8,3:0:0:0:
478,57,29338,1,4,3:0:0:0:
485,87,29440,6,0,P|469:178|461:274,1,154.000004699707,0|8,3:1|3:2,0:0:0:0:
496,307,30048,1,0,3:0:0:0:
396,140,30251,2,0,P|342:133|279:118,1,77.0000023498536,0|0,3:0|3:0,0:0:0:0:
214,70,30656,2,0,P|143:81|112:163,2,154.000004699707,8|0|8,3:2|3:0|3:2,0:0:0:0:
246,139,31669,1,0,3:0:0:0:
101,267,31872,5,8,3:0:0:0:
25,251,32075,1,0,3:0:0:0:
175,330,32278,1,8,3:2:0:0:
275,305,32480,1,8,3:0:0:0:
288,310,32582,1,4,3:0:0:0:
300,315,32683,6,0,P|404:307|461:308,2,154.000004699707,0|8|0,3:1|3:2|3:0,0:0:0:0:
25,251,33899,2,0,P|77:262|121:264,1,77.0000023498536,8|8,3:2|3:0,0:0:0:0:
172,229,34305,1,0,3:0:0:0:
151,327,34507,1,8,3:0:0:0:
123,153,34710,2,0,P|111:90|101:52,1,77.0000023498536,8|0,3:2|3:0,0:0:0:0:
299,197,35115,5,0,3:0:0:0:
202,232,35318,1,0,3:0:0:0:
367,288,35521,1,8,3:2:0:0:
477,236,35724,1,8,3:0:0:0:
470,222,35825,1,4,3:0:0:0:
462,207,35926,6,0,P|384:190|289:174,1,154.000004699707,0|8,3:1|3:2,0:0:0:0:
172,204,36534,1,0,3:0:0:0:
260,248,36737,2,0,P|250:303|250:346,1,77.0000023498536,0|0,3:0|3:0,0:0:0:0:
238,123,37142,2,0,P|230:58|218:26,1,77.0000023498536,8|0,3:2|3:0,0:0:0:0:
18,215,37548,2,0,P|93:207|201:203,1,154.000004699707,0|8,3:0|3:2,0:0:0:0:
320,232,38156,1,0,3:0:0:0:
453,157,38359,6,0,P|446:102|437:67,1,77.0000023498536,0|0,3:0|3:0,0:0:0:0:
411,247,38764,1,8,3:2:0:0:
449,364,38967,1,8,3:0:0:0:
451,350,39068,1,4,3:0:0:0:
453,336,39169,6,0,P|381:324|296:317,1,154.000004699707,0|8,3:1|3:2,0:0:0:0:
126,344,39778,1,0,3:0:0:0:
199,293,39980,2,0,B|221:325|221:325|211:375,1,77.0000023498536,0|0,3:0|3:0,0:0:0:0:
96,184,40386,2,0,B|88:146|88:146|110:114,1,77.0000023498536,8|0,3:2|3:0,0:0:0:0:
255,46,40791,2,0,B|326:27|334:112|396:134,2,154.000004699707,0|8|0,3:0|3:2|3:0,0:0:0:0:
194,94,41805,5,0,3:0:0:0:
418,44,42007,1,8,3:2:0:0:
499,129,42210,1,8,3:0:0:0:
494,147,42311,1,4,3:0:0:0:
490,165,42413,6,0,P|506:269|513:348,1,154.000004699707,0|8,3:1|3:2,0:0:0:0:
457,373,43021,1,0,3:0:0:0:
345,193,43224,2,0,P|402:196|437:207,1,77.0000023498536,0|0,3:0|3:0,0:0:0:0:
199,237,43629,2,0,P|236:244|275:245,1,77.0000023498536,8|0,3:2|3:0,0:0:0:0:
152,169,44034,6,0,P|67:155|-4:149,1,154.000004699707,0|8,3:0|3:2,0:0:0:0:
37,78,44642,1,0,3:0:0:0:
177,251,44845,2,0,P|169:302|166:343,1,77.0000023498536,0|0,3:0|3:0,0:0:0:0:
240,138,45251,1,8,3:2:0:0:
156,12,45453,1,8,3:0:0:0:
152,29,45555,1,4,3:0:0:0:
148,47,45656,6,0,P|264:37|334:34,2,154.000004699707,0|8|0,3:1|3:2|3:0,0:0:0:0:
107,111,46669,1,0,3:0:0:0:
352,164,46872,2,0,B|371:131|371:131|361:94,1,77.0000023498536,8|0,3:2|3:0,0:0:0:0:
146,220,47278,5,0,3:0:0:0:
186,292,47480,1,0,3:0:0:0:
259,255,47683,1,8,3:2:0:0:
218,183,47886,1,0,3:0:0:0:
60,275,48088,2,0,P|68:310|77:372,1,77.0000023498536,0|0,3:0|3:0,0:0:0:0:
329,333,48494,1,8,3:2:0:0:
194,307,48697,1,8,3:0:0:0:
198,326,48798,1,4,3:0:0:0:
204,347,48899,6,0,P|216:272|233:177,1,154.000004699707,0|8,3:1|3:2,0:0:0:0:
211,117,49507,1,0,3:0:0:0:
327,27,49710,2,0,P|374:37|428:55,1,77.0000023498536,0|0,3:0|3:0,0:0:0:0:
229,195,50115,2,0,P|186:210|137:217,1,77.0000023498536,8|0,3:2|3:0,0:0:0:0:
0,192,50521,5,4,3:0:0:0:
65,222,50724,1,4,3:0:0:0:
140,199,50926,1,4,3:0:0:0:
221,230,51129,1,4,3:0:0:0:
305,195,51332,1,4,3:0:0:0:
395,232,51534,1,4,3:0:0:0:
509,199,51737,1,4,3:0:0:0:
509,199,52142,6,0,B|439:172|416:267|356:300,1,181.999991668702,4|8,3:1|3:2,0:0:0:0:
177,359,53359,2,0,P|132:348|-10:319,1,181.999991668702,0|0,3:0|3:0,0:0:0:0:
253,218,54575,2,0,P|262:268|271:319,1,90.9999958343508,8|0,3:2|3:0,0:0:0:0:
253,218,55386,6,0,P|263:135|267:27,1,181.999991668702,4|8,3:1|3:2,0:0:0:0:
62,162,56602,2,0,P|111:167|176:179,1,90.9999958343508,0|0,3:0|3:0,0:0:0:0:
274,299,57210,1,8,3:0:0:0:
197,329,57413,1,4,3:0:0:0:
298,27,57818,5,8,3:0:0:0:
380,48,58021,1,4,3:0:0:0:
101,213,58426,1,8,3:0:0:0:
242,157,58629,6,0,P|151:144|61:134,1,181.999991668702,4|8,3:1|3:2,0:0:0:0:
489,225,59845,2,0,P|429:235|418:357,1,181.999991668702,0|0,3:0|3:0,0:0:0:0:
410,142,61061,2,0,P|396:98|384:45,1,90.9999958343508,8|0,3:2|3:0,0:0:0:0:
404,340,61872,6,0,P|341:323|276:311,1,90.9999958343508,4|0,3:1|3:0,0:0:0:0:
88,255,62683,1,8,3:0:0:0:
44,326,62886,1,4,3:0:0:0:
186,250,63088,6,0,P|170:187|160:133,1,90.9999958343508,4|0,3:1|3:0,0:0:0:0:
100,27,63697,1,8,3:0:0:0:
40,78,63899,1,8,3:0:0:0:
165,162,64102,1,0,3:0:0:0:
262,86,64305,5,8,3:0:0:0:
369,127,64507,1,8,3:0:0:0:
442,89,64710,1,4,3:0:0:0:
483,112,64913,1,4,3:0:0:0:
509,94,65115,6,0,P|501:151|486:307,1,181.999991668702,4|8,3:1|3:2,0:0:0:0:
242,353,66332,2,0,P|254:262|262:172,1,181.999991668702,0|0,3:0|3:0,0:0:0:0:
53,56,67548,2,0,P|106:66|151:73,1,90.9999958343508,8|0,3:2|3:0,0:0:0:0:
491,138,68359,6,0,B|423:157|423:157|399:193|399:193|318:219,1,181.999991668702,4|8,3:1|3:2,0:0:0:0:
111,340,69575,2,0,P|103:292|87:231,1,90.9999958343508,0|0,3:0|3:0,0:0:0:0:
37,193,70183,1,8,3:0:0:0:
114,170,70386,1,4,3:0:0:0:
269,283,70791,5,8,3:0:0:0:
344,308,70994,1,4,3:0:0:0:
460,30,71399,1,8,3:0:0:0:
413,176,71602,6,0,P|394:86|369:0,1,181.999991668702,4|8,3:1|3:2,0:0:0:0:
133,334,72818,2,0,P|195:345|242:365,1,90.9999958343508,0|0,3:0|3:0,0:0:0:0:
386,304,73629,1,0,3:0:0:0:
253,38,74034,2,0,B|291:64|291:64|281:121,1,90.9999958343508,8|0,3:2|3:0,0:0:0:0:
186,282,74845,6,0,P|118:268|-17:250,1,181.999991668702,4|8,3:1|3:0,0:0:0:0:
70,302,75859,1,4,3:0:0:0:
249,232,76061,2,0,P|300:251|343:260,1,90.9999958343508,4|0,3:1|3:0,0:0:0:0:
508,233,76669,1,8,3:0:0:0:
447,282,76872,1,8,3:0:0:0:
370,252,77075,1,0,3:0:0:0:
267,131,77278,5,8,3:0:0:0:
168,154,77480,1,8,3:0:0:0:
120,297,77683,1,4,3:0:0:0:
9,259,77886,1,4,3:0:0:0:
20,81,78088,6,0,P|95:68|230:52,1,181.999991668702,4|8,3:1|3:2,0:0:0:0:
484,26,79305,2,0,P|474:78|469:122,1,90.9999958343508,0|0,3:0|3:0,0:0:0:0:
476,334,80115,5,0,3:0:0:0:
490,341,80521,5,8,3:2:0:0:
479,346,80926,5,0,3:0:0:0:
490,331,81332,6,0,P|411:308|287:279,1,181.999991668702,4|8,3:1|3:2,0:0:0:0:
167,225,82548,2,0,P|123:258|89:272,1,90.9999958343508,0|0,3:0|3:0,0:0:0:0:
227,164,83156,2,0,P|218:131|214:99,1,45.4999979171754,8|4,3:0|3:0,0:0:0:0:
300,340,83764,5,8,3:0:0:0:
219,353,83967,1,4,3:0:0:0:
310,42,84372,1,8,3:0:0:0:
383,94,84575,6,0,P|376:162|374:293,1,181.999991668702,4|8,3:1|3:2,0:0:0:0:
221,100,85791,2,0,P|213:48|201:9,2,90.9999958343508,0|0|0,3:0|3:0|3:0,0:0:0:0:
136,265,87007,2,0,P|129:314|127:366,1,90.9999958343508,8|0,3:2|3:0,0:0:0:0:
126,355,87818,6,0,P|122:277|107:202,1,136.499993751526,4|0,3:1|3:0,0:0:0:0:
178,108,88629,1,8,3:0:0:0:
90,139,88832,1,4,3:0:0:0:
195,199,89034,2,0,P|253:208|319:209,1,90.9999958343508,4|0,3:1|3:0,0:0:0:0:
377,180,89642,1,8,3:0:0:0:
454,204,89845,1,8,3:0:0:0:
506,142,90048,1,0,3:0:0:0:
365,195,90251,5,8,3:0:0:0:
351,276,90453,1,8,3:0:0:0:
303,126,90656,5,4,3:0:0:0:
279,26,90859,1,4,3:0:0:0:
194,200,91061,6,0,P|202:258|215:392,1,181.999991668702,4|8,3:1|3:2,0:0:0:0:
53,116,92278,2,0,B|126:74|153:176|198:202,1,181.999991668702,0|0,3:0|3:0,0:0:0:0:
326,25,93494,2,0,P|261:12|226:9,1,90.9999958343508,8|0,3:2|3:0,0:0:0:0:
377,254,94305,6,0,P|394:188|505:174,1,181.999991668702,4|8,3:1|3:2,0:0:0:0:
258,334,95521,2,0,P|199:316|155:306,1,90.9999958343508,0|0,3:0|3:0,0:0:0:0:
29,334,96129,1,8,3:0:0:0:
101,374,96332,1,4,3:0:0:0:
135,90,96737,5,8,3:0:0:0:
56,104,96940,1,4,3:0:0:0:
69,183,97142,1,0,3:1:0:0:
153,173,97345,1,8,3:0:0:0:
39,95,97548,6,0,P|28:51|20:3,1,90.9999958343508,4|0,3:1|3:0,0:0:0:0:
218,229,98359,2,0,P|207:290|202:341,2,90.9999958343508,8|0|0,3:2|3:0|3:0,0:0:0:0:
297,337,99575,2,0,L|354:353,1,45.4999979171754,0|0,3:0|3:0,0:0:0:0:
285,177,99980,2,0,P|275:108|271:58,1,90.9999958343508,8|0,3:2|3:0,0:0:0:0:
469,304,100791,6,0,P|423:312|282:338,1,181.999991668702,4|8,3:1|3:0,0:0:0:0:
361,367,101805,1,4,3:0:0:0:
455,236,102007,2,0,P|444:190|439:139,1,90.9999958343508,4|0,3:1|3:0,0:0:0:0:
481,21,102615,5,8,3:0:0:0:
404,52,102818,1,8,3:0:0:0:
304,42,103021,1,8,3:0:0:0:
207,80,103224,1,8,3:0:0:0:
94,49,103426,1,8,3:0:0:0:
0,99,103629,1,4,3:0:0:0:
431,340,107278,6,0,P|376:333|306:323,2,112,0|8|0,3:0|3:2|3:0,0:0:0:0:
254,358,108291,1,4,3:0:0:0:
407,258,108494,2,0,P|394:196|416:144,1,112,8|0,3:2|3:0,0:0:0:0:
477,117,109102,1,0,3:0:0:0:
312,228,109305,2,0,P|235:209|215:207,1,56,8|0,3:2|3:0,0:0:0:0:
128,141,109710,1,0,3:0:0:0:
153,217,109913,1,0,3:0:0:0:
125,292,110115,1,8,3:2:0:0:
184,351,110318,1,8,3:0:0:0:
196,346,110419,1,4,3:0:0:0:
207,341,110521,6,0,P|266:346|339:356,1,112,0|8,3:1|3:2,0:0:0:0:
96,173,111332,2,0,P|57:183|32:187,1,56,0|0,3:0|3:0,0:0:0:0:
231,121,111737,2,0,P|274:132|294:142,1,56,8|0,3:2|3:0,0:0:0:0:
178,315,112142,2,0,P|181:235|183:189,1,112,0|8,3:0|3:2,0:0:0:0:
143,100,112751,1,0,3:0:0:0:
259,243,112953,2,0,P|321:254|377:234,1,112,0|8,3:0|3:2,0:0:0:0:
434,139,113561,1,8,3:0:0:0:
429,125,113663,1,4,3:0:0:0:
423,114,113764,6,0,P|429:60|441:-4,1,112,0|8,3:1|3:2,0:0:0:0:
359,32,114372,1,0,3:0:0:0:
504,178,114575,2,0,P|512:225|514:248,1,56,0|0,3:0|3:0,0:0:0:0:
343,321,114980,2,0,B|389:291|389:291|462:332,2,112,8|0|8,3:2|3:0|3:2,0:0:0:0:
284,370,115994,1,0,3:0:0:0:
71,303,116196,1,0,3:0:0:0:
157,274,116399,1,0,3:0:0:0:
41,220,116602,1,8,3:2:0:0:
127,191,116804,1,8,3:0:0:0:
122,179,116906,1,4,3:0:0:0:
118,169,117007,6,0,P|123:114|132:50,1,112,0|8,3:1|3:2,0:0:0:0:
184,2,117615,1,0,3:0:0:0:
262,171,117818,2,0,P|221:177|194:183,1,56,0|0,3:0|3:0,0:0:0:0:
363,112,118224,2,0,P|317:99|258:72,2,112,8|0|8,3:2|3:0|3:2,0:0:0:0:
167,300,119440,2,0,P|141:308|106:325,1,56,0|0,3:0|3:0,0:0:0:0:
214,228,119845,2,0,P|206:192|204:156,1,56,8|8,3:2|3:0,0:0:0:0:
209,161,120149,1,4,3:0:0:0:
214,151,120251,6,0,P|261:156|329:168,1,112,0|8,3:1|3:2,0:0:0:0:
376,225,120859,1,0,3:0:0:0:
295,86,121061,2,0,P|287:43|295:13,1,56,0|0,3:0|3:0,0:0:0:0:
458,209,121467,2,0,P|459:236|451:263,1,56,8|0,3:2|3:0,0:0:0:0:
381,114,121872,5,0,3:0:0:0:
462,98,122075,1,0,3:0:0:0:
336,191,122278,1,8,3:2:0:0:
241,167,122480,1,0,3:1:0:0:
119,215,122683,2,0,P|61:207|-7:199,1,112,0|8,3:0|3:2,0:0:0:0:
153,293,123291,1,8,3:0:0:0:
165,288,123392,1,4,3:0:0:0:
175,283,123494,6,0,P|254:275|302:272,1,112,0|8,3:1|3:2,0:0:0:0:
356,305,124102,1,0,3:0:0:0:
203,191,124305,2,0,P|212:148|215:126,1,56,0|0,3:0|3:0,0:0:0:0:
385,175,124710,2,0,P|389:202|395:229,1,56,8|0,3:2|3:0,0:0:0:0:
271,79,125115,6,0,P|329:69|412:62,1,112,0|8,3:0|3:2,0:0:0:0:
446,101,125724,1,0,3:0:0:0:
229,9,125926,2,0,P|203:18|168:24,1,56,0|0,3:0|3:0,0:0:0:0:
14,6,126332,1,8,3:2:0:0:
118,77,126534,1,8,3:0:0:0:
115,90,126636,1,4,3:0:0:0:
112,102,126737,6,0,P|127:164|139:226,1,112,0|8,3:1|3:2,0:0:0:0:
89,270,127345,1,0,3:0:0:0:
200,156,127548,2,0,B|246:126|246:126|303:151,2,112,0|8|0,3:0|3:2|3:0,0:0:0:0:
499,339,128764,6,0,L|517:334,2,14,12|12|12,3:2|3:2|3:2,0:0:0:0:
499,339,129980,6,0,B|430:324|430:324|391:339|391:339|307:320,1,181.999991668702,4|8,3:1|3:2,0:0:0:0:
38,269,131197,2,0,P|116:254|227:234,1,181.999991668702,0|0,3:0|3:0,0:0:0:0:
103,125,132413,2,0,P|96:172|84:217,1,90.9999958343508,8|0,3:2|3:0,0:0:0:0:
11,364,133224,6,0,P|59:314|179:326,1,181.999991668702,4|8,3:1|3:2,0:0:0:0:
366,367,134440,1,0,3:0:0:0:
366,367,135048,5,8,3:0:0:0:
442,347,135251,1,4,3:0:0:0:
479,117,135656,5,8,3:0:0:0:
406,87,135859,1,4,3:0:0:0:
235,243,136264,1,8,3:0:0:0:
307,205,136467,6,0,P|295:148|283:9,1,181.999991668702,4|8,3:1|3:2,0:0:0:0:
371,315,137683,2,0,P|304:308|256:303,1,90.9999958343508,0|0,3:0|3:0,0:0:0:0:
99,240,138494,2,0,B|67:275|67:275|90:329,2,90.9999958343508,0|8|0,3:0|3:2|3:0,0:0:0:0:
164,60,139710,6,0,P|113:71|70:88,1,90.9999958343508,4|0,3:1|3:0,0:0:0:0:
295,121,140521,1,8,3:0:0:0:
369,87,140724,1,4,3:0:0:0:
205,115,140926,2,0,P|195:167|187:219,1,90.9999958343508,4|0,3:1|3:0,0:0:0:0:
241,342,141534,5,8,3:0:0:0:
269,259,141737,1,8,3:0:0:0:
267,246,141940,1,0,3:0:0:0:
205,115,142142,5,8,3:0:0:0:
114,149,142345,1,8,3:0:0:0:
312,166,142548,5,4,3:0:0:0:
395,201,142751,1,4,3:0:0:0:
512,21,142953,6,0,B|431:-9|428:86|345:114,1,181.999991668702,4|8,3:1|3:2,0:0:0:0:
32,77,144169,2,0,P|106:50|241:33,1,181.999991668702,0|0,3:0|3:0,0:0:0:0:
181,277,145386,2,0,P|160:225|140:185,1,90.9999958343508,8|0,3:2|3:0,0:0:0:0:
386,188,146197,6,0,P|351:272|335:362,1,181.999991668702,4|8,3:1|3:2,0:0:0:0:
249,96,147413,2,0,P|250:51|256:6,1,90.9999958343508,0|0,3:0|3:0,0:0:0:0:
279,192,148021,1,8,3:0:0:0:
255,287,148224,1,4,3:0:0:0:
255,287,148629,5,8,3:0:0:0:
196,159,148832,1,4,3:0:0:0:
512,262,149237,1,8,3:0:0:0:
477,341,149440,6,0,P|394:350|280:367,1,181.999991668702,4|8,3:1|3:2,0:0:0:0:
30,257,150656,2,0,P|74:297|73:333,1,90.9999958343508,0|0,3:0|3:0,0:0:0:0:
76,113,151467,2,0,P|89:58|100:16,2,90.9999958343508,0|8|0,3:0|3:2|3:0,0:0:0:0:
136,203,152683,6,0,P|200:185|239:181,1,90.9999958343508,4|0,3:1|3:0,0:0:0:0:
423,237,153494,1,8,3:0:0:0:
494,200,153697,1,4,3:0:0:0:
344,206,153899,2,0,P|356:163|363:112,1,90.9999958343508,4|0,3:1|3:0,0:0:0:0:
264,228,154507,5,8,3:0:0:0:
176,210,154710,1,8,3:0:0:0:
98,235,154913,1,0,3:0:0:0:
18,200,155115,5,8,3:0:0:0:
150,183,155318,1,8,3:0:0:0:
264,228,155521,1,4,3:0:0:0:
391,195,155724,1,4,3:0:0:0:
512,222,155926,6,0,P|502:144|490:18,1,181.999991668702,4|8,3:1|3:2,0:0:0:0:
462,288,157142,2,0,P|477:340|484:390,1,90.9999958343508,0|0,3:0|3:0,0:0:0:0:
182,240,157953,2,0,B|218:215|218:215|266:228,2,90.9999958343508,0|8|0,3:0|3:2|3:0,0:0:0:0:
182,240,159169,6,0,P|83:222|-2:213,1,181.999991668702,4|8,3:1|3:2,0:0:0:0:
264,343,160386,2,0,P|272:290|282:234,1,90.9999958343508,0|0,3:0|3:0,0:0:0:0:
418,247,160994,1,8,3:0:0:0:
360,312,161197,1,4,3:0:0:0:
304,0,161602,5,8,3:0:0:0:
386,47,161805,1,4,3:0:0:0:
150,214,162210,1,8,3:0:0:0:
286,169,162413,6,0,P|197:147|107:132,1,181.999991668702,4|8,3:1|3:2,0:0:0:0:
370,42,163629,2,0,P|453:60|468:145,1,181.999991668702,0|0,3:0|3:0,0:0:0:0:
259,265,164845,2,0,P|247:318|241:359,1,90.9999958343508,8|0,3:2|3:0,0:0:0:0:
65,71,165656,6,0,P|141:54|265:41,1,181.999991668702,4|8,3:1|3:0,0:0:0:0:
343,73,166669,1,4,3:0:0:0:
438,50,166872,2,0,P|491:68|491:150,1,136.499993751526,4|8,3:1|3:0,0:0:0:0:
438,183,167683,1,8,3:0:0:0:
409,253,167886,1,0,3:0:0:0:
441,324,168088,5,8,3:0:0:0:
322,296,168291,1,8,3:0:0:0:
180,343,168494,1,4,3:0:0:0:
48,313,168697,1,4,3:0:0:0:
253,234,168899,6,0,P|249:174|247:153,1,70,4|8,3:1|3:2,0:0:0:0:
248,164,170115,2,0,P|244:223|108:252,1,181.999991668702,0|0,3:0|3:0,0:0:0:0:
333,37,171332,2,0,P|408:47|451:53,2,90.9999958343508,8|0|4,3:2|3:0|3:1,0:0:0:0:
19,274,172953,2,0,P|75:284|140:310,1,90.9999958343508,8|0,3:2|3:0,0:0:0:0:
236,358,173561,1,0,3:0:0:0:
155,360,173764,1,0,3:0:0:0:
244,343,173967,5,8,3:0:0:0:
336,363,174169,1,4,3:0:0:0:
190,61,174575,5,8,3:0:0:0:
171,151,174778,1,4,3:0:0:0:
493,127,175183,1,8,3:0:0:0:
512,217,175386,6,0,P|399:196|317:184,1,181.999991668702,4|8,3:1|3:2,0:0:0:0:
210,152,176602,2,0,P|222:201|234:259,1,90.9999958343508,0|0,3:0|3:0,0:0:0:0:
15,230,177413,2,0,P|66:216|124:207,2,90.9999958343508,0|8|0,3:0|3:2|3:0,0:0:0:0:
258,367,178629,2,0,P|266:294|270:221,1,136.499993751526,4|0,3:1|0:0,0:0:0:0:
293,111,179440,1,8,3:0:0:0:
264,13,179642,1,4,3:0:0:0:
269,231,179845,6,0,P|282:285|289:352,1,90.9999958343508,4|0,3:1|3:0,0:0:0:0:
228,154,180453,1,8,3:0:0:0:
305,89,180656,1,8,3:0:0:0:
329,193,180859,1,0,3:0:0:0:
263,372,181061,5,4,3:0:0:0:
198,181,181264,1,4,3:0:0:0:
263,0,181467,1,4,3:0:0:0:
