osu file format v14

[General]
AudioFilename: audio.mp3
AudioLeadIn: 0
PreviewTime: 50723
Countdown: 0
SampleSet: Soft
StackLeniency: 0.3
Mode: 0
LetterboxInBreaks: 0
WidescreenStoryboard: 1

[Editor]
Bookmarks: 26197,52142,107278,129980,181872
DistanceSpacing: 1
BeatDivisor: 8
GridSize: 4
TimelineZoom: 1

[Metadata]
Title:For The Kill
TitleUnicode:For The Kill
Artist:Life on Venus
ArtistUnicode:Life on Venus
Creator:aishiteiru-
Version:Florescence's Hard
Source:
Tags:odes to the void shoegaze dream pop dreampop rock english departure florescence maruoko delette
BeatmapID:3586330
BeatmapSetID:1626611

[Difficulty]
HPDrainRate:4
CircleSize:3
OverallDifficulty:6
ApproachRate:7
SliderMultiplier:1.4
SliderTickRate:1

[Events]
//Background and Video events
0,0,"1624885282_6-phonoteka_org-p-atmosfernie-temnie-oboi-krasivo-6.jpg",0,0
//Break Periods
2,103829,106228
//Storyboard Layer 0 (Background)
//Storyboard Layer 1 (Fail)
//Storyboard Layer 2 (Pass)
//Storyboard Layer 3 (Foreground)
//Storyboard Layer 4 (Overlay)
//Storyboard Sound Samples

[TimingPoints]
251,810.810810810811,4,2,1,45,1,0
26196,-100,4,2,1,65,0,0
52142,-100,4,2,1,50,0,1
103629,-100,4,2,1,50,0,0
107278,-100,4,2,1,65,0,0
129980,-100,4,2,1,50,0,1
181467,-100,4,2,1,50,0,0

[Colours]
Combo1 : 169,163,192
Combo2 : 174,174,174

[HitObjects]
502,289,26197,5,0,3:0:0:0:
505,295,26602,2,0,P|500:332|498:371,2,70,8|0|8,3:2|3:0|3:2,0:0:0:0:
406,330,27615,2,0,L|365:337,1,35,0|0,3:0|3:0,0:0:0:0:
287,295,28021,1,0,3:0:0:0:
218,356,28224,6,0,L|135:369,2,70,8|0|8,3:2|3:0|3:2,0:0:0:0:
287,295,29237,1,8,3:0:0:0:
294,288,29338,1,4,3:0:0:0:
301,280,29440,2,0,P|344:270|374:265,1,70,0|8,3:1|3:2,0:0:0:0:
430,206,30048,2,0,P|416:173|373:157,1,70,0|0,3:0|3:0,0:0:0:0:
311,121,30656,2,0,P|278:112|232:105,2,70,8|0|8,3:2|3:0|3:2,0:0:0:0:
268,196,31669,5,0,3:0:0:0:
386,163,31872,2,0,P|435:161|468:153,1,70,8|8,3:0|3:2,0:0:0:0:
500,66,32480,1,8,3:0:0:0:
502,76,32582,1,4,3:0:0:0:
504,86,32683,1,0,3:1:0:0:
386,76,33088,2,0,L|394:-7,1,70,8|0,3:2|3:0,0:0:0:0:
248,24,33899,6,0,P|221:25|178:33,2,70,8|0|8,3:2|3:0|3:2,0:0:0:0:
308,79,34913,1,0,3:0:0:0:
276,154,35115,2,0,L|272:200,1,35,0|0,3:0|3:0,0:0:0:0:
188,240,35521,2,0,L|193:202,1,35,8|8,3:2|3:0,0:0:0:0:
191,197,35825,1,4,3:0:0:0:
187,190,35926,2,0,P|148:183|113:182,1,70,0|8,3:1|3:2,0:0:0:0:
58,80,36737,5,0,3:0:0:0:
104,179,37142,2,0,L|101:253,2,70,8|0|8,3:2|3:0|3:2,0:0:0:0:
7,285,38359,2,0,L|10:332,1,35,0|0,3:0|3:0,0:0:0:0:
96,384,38764,2,0,L|91:342,1,35,8|8,3:2|3:0,0:0:0:0:
97,343,39068,1,4,3:0:0:0:
105,338,39169,2,0,P|139:330|176:330,1,70,0|8,3:1|3:2,0:0:0:0:
287,372,39778,5,0,3:0:0:0:
284,288,39980,2,0,P|261:275|211:259,2,70,0|8|0,3:0|3:2|3:0,0:0:0:0:
366,267,40994,1,0,3:0:0:0:
412,342,41196,1,8,3:2:0:0:
489,300,41399,1,0,3:0:0:0:
444,221,41602,6,0,L|463:191,2,35,0|0|8,3:0|3:0|3:2,0:0:0:0:
360,170,42210,1,8,3:0:0:0:
355,164,42311,1,4,3:0:0:0:
350,158,42413,2,0,P|338:126|333:76,1,70,0|8,3:1|3:2,0:0:0:0:
420,23,43021,1,0,3:0:0:0:
420,23,43224,2,0,L|406:67,1,35,0|0,3:0|3:0,0:0:0:0:
332,89,43629,2,0,L|320:126,1,35,8|0,3:2|3:0,0:0:0:0:
256,53,44034,2,0,P|220:48|176:49,1,70,0|8,3:0|3:2,0:0:0:0:
179,53,44642,5,0,3:0:0:0:
99,28,44845,1,0,3:0:0:0:
38,90,45048,1,0,3:0:0:0:
87,163,45251,1,8,3:2:0:0:
174,144,45453,1,8,3:0:0:0:
174,144,45555,1,4,3:0:0:0:
174,144,45656,2,0,P|180:176|180:214,1,70,0|8,3:1|3:2,0:0:0:0:
160,304,46264,5,0,3:0:0:0:
249,276,46467,2,0,L|320:288,1,70,0|8,3:0|3:2,0:0:0:0:
418,247,47075,2,0,L|466:238,2,35,0|0|0,3:0|3:0|3:0,0:0:0:0:
396,329,47683,5,8,3:2:0:0:
352,194,48088,2,0,P|351:159|352:122,1,70,0|8,3:0|3:2,0:0:0:0:
319,5,48697,1,8,3:0:0:0:
313,8,48798,1,4,3:0:0:0:
308,12,48899,2,0,L|263:7,1,35,0|0,3:1|3:0,0:0:0:0:
223,88,49305,2,0,L|257:91,1,35,8|0,3:2|3:0,0:0:0:0:
370,99,49710,1,0,3:0:0:0:
449,75,49913,1,0,3:0:0:0:
497,191,50115,6,0,L|420:176,1,70,8|4,3:2|3:0,0:0:0:0:
305,195,50724,1,4,3:0:0:0:
362,325,50926,5,4,3:0:0:0:
366,307,51129,1,4,3:0:0:0:
375,293,51332,1,4,3:0:0:0:
390,280,51534,2,0,L|438:274,2,35,4|4|0,3:0|3:0|3:0,0:0:0:0:
255,275,52142,6,0,P|196:295|108:288,1,140,4|8,3:1|3:2,0:0:0:0:
15,156,53359,1,0,3:0:0:0:
191,141,53764,2,0,L|184:181,1,35,0|0,3:0|3:0,0:0:0:0:
107,223,54169,2,0,P|107:260|112:308,1,70,0|8,3:0|3:2,0:0:0:0:
93,196,54980,2,0,L|99:161,1,35,0|0,3:0|3:0,0:0:0:0:
112,62,55386,6,0,P|181:57|247:78,1,140,4|8,3:1|3:2,0:0:0:0:
334,28,56399,2,0,L|375:32,2,35,0|0|0,3:0|3:0|3:0,0:0:0:0:
305,166,57210,1,8,3:0:0:0:
249,87,57413,2,0,L|214:93,1,35,4|0,3:0|3:0,0:0:0:0:
160,163,57818,2,0,L|116:159,1,35,8|4,3:0|3:0,0:0:0:0:
4,153,58224,1,0,3:0:0:0:
67,93,58426,1,8,3:0:0:0:
63,222,58629,6,0,P|55:274|53:369,1,140,4|8,3:1|3:2,0:0:0:0:
226,330,59845,1,0,3:0:0:0:
309,299,60048,1,0,3:0:0:0:
387,346,60251,1,0,3:0:0:0:
310,313,60453,1,0,3:0:0:0:
438,281,60656,2,0,L|480:291,1,35,0|0,3:0|3:0,0:0:0:0:
509,215,61061,2,0,L|507:165,1,35,8|0,3:2|3:0,0:0:0:0:
452,119,61467,2,0,L|450:79,1,35,0|0,3:0|3:0,0:0:0:0:
368,1,61872,6,0,L|356:117,1,105,4|0,3:1|3:0,0:0:0:0:
280,137,62683,1,8,3:0:0:0:
370,186,62886,1,4,3:0:0:0:
291,227,63088,2,0,L|285:309,1,70,4|0,3:1|3:0,0:0:0:0:
282,305,63697,2,0,P|253:308|236:308,1,35,8|8,3:0|3:0,0:0:0:0:
139,243,64102,1,0,3:0:0:0:
154,323,64305,1,8,3:0:0:0:
72,343,64507,1,8,3:0:0:0:
49,260,64710,1,4,3:0:0:0:
145,236,64913,1,4,3:0:0:0:
247,308,65115,6,0,L|398:302,1,140,4|8,3:1|3:2,0:0:0:0:
503,315,66332,2,0,P|505:350|502:384,1,70,0|0,3:0|3:0,0:0:0:0:
389,282,67142,2,0,P|392:247|401:214,1,70,0|8,3:0|3:2,0:0:0:0:
511,194,67953,1,0,3:0:0:0:
383,207,68359,6,0,P|306:214|240:221,1,140,4|8,3:1|3:2,0:0:0:0:
161,172,69372,2,0,L|121:176,2,35,0|0|0,3:0|3:0|3:0,0:0:0:0:
257,138,69980,1,0,3:0:0:0:
238,224,70183,1,8,3:0:0:0:
159,164,70386,2,0,P|153:119|141:80,1,70,4|8,3:0|3:0,0:0:0:0:
243,6,71196,1,0,3:0:0:0:
233,87,71399,1,8,3:0:0:0:
236,2,71602,6,0,P|336:12|386:25,1,140,4|8,3:1|3:2,0:0:0:0:
509,85,72818,2,0,P|473:95|440:97,1,70,0|0,3:0|3:0,0:0:0:0:
441,98,73629,2,0,L|408:121,1,35,0|0,3:0|3:0,0:0:0:0:
413,252,74034,2,0,P|429:242|446:229,1,35,8|0,3:2|3:0,0:0:0:0:
506,174,74440,1,0,3:0:0:0:
345,189,74845,6,0,P|296:178|230:170,1,105,4|0,3:1|3:0,0:0:0:0:
198,99,75656,1,8,3:0:0:0:
235,175,75859,1,4,3:0:0:0:
184,244,76061,2,0,P|129:236|102:233,1,70,4|0,3:1|3:0,0:0:0:0:
0,204,76669,1,8,3:0:0:0:
10,286,76872,1,8,3:0:0:0:
19,370,77075,1,0,3:0:0:0:
22,281,77278,1,8,3:0:0:0:
27,185,77480,1,8,3:0:0:0:
114,234,77683,2,0,L|122:275,1,35,4|4,3:0|3:0,0:0:0:0:
16,177,78088,6,0,P|23:101|27:31,1,140,4|8,3:1|3:2,0:0:0:0:
223,43,79305,2,0,P|291:38|337:51,1,105,0|0,3:0|3:0,0:0:0:0:
409,34,80115,2,0,L|417:114,1,70,0|8,3:0|3:2,0:0:0:0:
238,68,80926,1,0,3:0:0:0:
397,108,81332,6,0,L|412:252,1,140,4|8,3:1|3:2,0:0:0:0:
512,300,82548,1,0,3:0:0:0:
348,300,82953,1,0,3:0:0:0:
294,231,83156,1,8,3:0:0:0:
229,286,83359,2,0,P|197:286|154:298,1,70,4|8,3:0|3:0,0:0:0:0:
153,301,83967,2,0,L|151:347,1,35,4|0,3:0|3:0,0:0:0:0:
120,223,84372,1,8,3:0:0:0:
0,222,84575,6,0,P|39:208|144:200,1,140,4|8,3:1|3:2,0:0:0:0:
220,137,85791,2,0,L|151:116,2,70,0|0|0,3:0|3:0|3:0,0:0:0:0:
403,110,87007,1,8,3:2:0:0:
293,62,87413,1,0,3:0:0:0:
347,197,87818,6,0,P|294:215|245:219,1,105,4|0,3:1|3:0,0:0:0:0:
171,175,88629,1,8,3:0:0:0:
122,250,88832,1,4,3:0:0:0:
70,176,89034,2,0,P|66:153|37:66,1,105,4|8,3:1|3:0,0:0:0:0:
49,60,89845,2,0,L|94:53,1,35,8|0,3:0|3:0,0:0:0:0:
160,9,90251,2,0,L|204:18,1,35,8|8,3:0|3:0,0:0:0:0:
221,102,90656,1,4,3:0:0:0:
221,102,90859,1,4,3:0:0:0:
327,45,91061,6,0,P|310:115|304:190,1,140,4|8,3:1|3:2,0:0:0:0:
244,265,92278,2,0,L|356:279,1,105,0|0,3:0|3:0,0:0:0:0:
460,203,93088,2,0,L|384:192,1,70,0|8,3:0|3:2,0:0:0:0:
234,110,93899,1,0,3:0:0:0:
244,260,94305,6,0,P|180:247|92:239,1,140,4|8,3:1|3:2,0:0:0:0:
0,305,95521,2,0,L|10:259,1,35,0|0,3:0|3:0,0:0:0:0:
89,219,95926,1,0,3:0:0:0:
63,139,96129,1,8,3:0:0:0:
164,92,96332,2,0,L|154:139,1,35,4|0,3:0|3:0,0:0:0:0:
233,170,96737,1,8,3:0:0:0:
273,76,96940,1,4,3:0:0:0:
365,119,97142,1,0,3:1:0:0:
324,221,97345,1,8,3:0:0:0:
271,65,97548,6,0,P|321:48|410:37,1,140,4|8,3:1|3:2,0:0:0:0:
512,138,98764,2,0,L|495:281,1,140,0|0,3:0|3:0,0:0:0:0:
413,359,99980,2,0,L|404:312,1,35,8|0,3:2|3:0,0:0:0:0:
304,269,100386,2,0,L|315:220,1,35,0|0,3:0|3:0,0:0:0:0:
378,129,100791,6,0,P|394:176|401:236,1,105,4|0,3:1|3:0,0:0:0:0:
487,277,101602,1,8,3:0:0:0:
400,318,101805,1,4,3:0:0:0:
311,273,102007,2,0,L|232:281,1,70,4|0,3:1|3:0,0:0:0:0:
164,243,102615,2,0,L|123:248,1,35,8|8,3:0|3:0,0:0:0:0:
82,384,103021,1,0,3:0:0:0:
158,343,103224,1,8,3:0:0:0:
41,290,103426,1,8,3:0:0:0:
15,280,103629,1,4,3:0:0:0:
38,149,107278,6,0,P|75:147|112:138,1,70,0|8,3:0|3:2,0:0:0:0:
197,39,108088,2,0,P|162:31|127:29,1,70,0|8,3:0|3:2,0:0:0:0:
13,50,108899,1,0,3:0:0:0:
38,149,109305,1,8,3:2:0:0:
9,262,109710,6,0,L|51:249,1,35,0|0,3:0|3:0,0:0:0:0:
88,323,110115,1,8,3:2:0:0:
163,277,110318,1,8,3:0:0:0:
163,277,110419,1,4,3:0:0:0:
163,277,110521,2,0,L|210:291,2,35,0|0|8,3:1|3:0|3:2,0:0:0:0:
112,198,111129,1,0,3:0:0:0:
159,129,111332,2,0,P|187:138|238:146,1,70,0|8,3:0|3:2,0:0:0:0:
303,108,111940,5,0,3:0:0:0:
344,184,112142,2,0,P|332:216|325:257,1,70,0|8,3:0|3:2,0:0:0:0:
427,179,112953,2,0,L|470:180,2,35,0|0|8,3:0|3:0|3:2,0:0:0:0:
391,100,113561,1,8,3:0:0:0:
395,94,113663,1,4,3:0:0:0:
399,89,113764,2,0,L|475:84,2,70,0|8|0,3:1|3:2|3:0,0:0:0:0:
253,36,114980,2,0,L|174:38,1,70,8|0,3:2|3:0,0:0:0:0:
53,93,115791,1,8,3:2:0:0:
178,42,116197,5,0,3:0:0:0:
143,116,116399,1,0,3:0:0:0:
189,185,116602,1,8,3:2:0:0:
144,254,116805,1,8,3:0:0:0:
144,254,116906,1,4,3:0:0:0:
144,254,117007,2,0,L|98:263,1,35,0|0,3:1|3:0,0:0:0:0:
26,306,117413,5,8,3:2:0:0:
86,371,117615,1,0,3:0:0:0:
168,337,117818,2,0,L|215:328,1,35,0|0,3:0|3:0,0:0:0:0:
261,268,118224,2,0,P|298:277|334:284,2,70,8|0|8,3:2|3:0|3:2,0:0:0:0:
221,128,119440,5,0,3:0:0:0:
194,209,119642,1,0,3:0:0:0:
279,187,119845,2,0,L|326:196,1,35,8|8,3:2|3:0,0:0:0:0:
322,192,120149,1,4,3:0:0:0:
331,190,120251,2,0,L|400:205,1,70,0|8,3:1|3:2,0:0:0:0:
481,163,120859,2,0,P|487:143|493:119,1,35,0|0,3:0|3:0,0:0:0:0:
380,114,121264,2,0,P|374:94|368:70,1,35,0|8,3:0|3:2,0:0:0:0:
408,5,121669,1,0,3:0:0:0:
293,47,121872,2,0,P|254:38|211:41,1,70,0|8,3:0|3:2,0:0:0:0:
216,40,122480,5,0,3:1:0:0:
165,104,122683,1,0,3:0:0:0:
229,163,122886,1,0,3:0:0:0:
284,97,123088,1,8,3:2:0:0:
165,104,123291,1,8,3:0:0:0:
157,110,123392,1,4,3:0:0:0:
150,115,123494,2,0,L|68:135,1,70,0|8,3:1|3:2,0:0:0:0:
42,228,124102,1,0,3:0:0:0:
42,228,124305,2,0,L|84:217,1,35,0|0,3:0|3:0,0:0:0:0:
129,285,124710,2,0,P|176:284|215:287,1,70,8|0,3:2|3:0,0:0:0:0:
299,375,125521,5,8,3:2:0:0:
347,303,125724,1,0,3:0:0:0:
404,366,125926,2,0,P|448:362|482:361,1,70,0|8,3:0|3:2,0:0:0:0:
510,266,126534,1,8,3:0:0:0:
504,269,126636,1,4,3:0:0:0:
498,274,126737,2,0,L|452:272,1,35,0|0,3:1|3:0,0:0:0:0:
411,200,127142,2,0,L|374:196,2,35,8|0|0,3:2|3:0|3:0,0:0:0:0:
347,303,127953,2,0,P|307:301|265:302,1,70,8|0,3:2|3:0,0:0:0:0:
226,196,128764,6,0,L|215:375,1,175,12|0,3:2|3:0,0:0:0:0:
173,278,129980,6,0,P|135:272|19:266,1,140,4|8,3:1|3:2,0:0:0:0:
182,184,131196,2,0,P|150:184|112:181,2,70,0|0|0,3:0|3:0|3:0,0:0:0:0:
229,69,132413,1,8,3:2:0:0:
122,29,132818,2,0,L|83:40,1,35,0|0,3:0|3:0,0:0:0:0:
157,102,133224,6,0,P|231:105|312:110,1,140,4|8,3:1|3:2,0:0:0:0:
380,40,134440,2,0,L|426:37,2,35,0|0|0,3:0|3:0|3:0,0:0:0:0:
307,102,135048,1,8,3:0:0:0:
360,173,135251,2,0,P|397:175|438:178,1,70,4|8,3:0|3:0,0:0:0:0:
482,109,135859,1,4,3:0:0:0:
510,195,136061,1,0,3:0:0:0:
470,272,136264,1,8,3:0:0:0:
375,262,136467,6,0,P|303:263|228:267,1,140,4|8,3:1|3:2,0:0:0:0:
112,314,137683,2,0,P|146:317|179:329,2,70,0|0|0,3:0|3:0|3:0,0:0:0:0:
3,252,138899,1,8,3:2:0:0:
33,383,139305,2,0,P|37:357|40:338,1,35,0|0,3:0|3:0,0:0:0:0:
120,304,139710,6,0,P|114:267|114:187,1,105,4|0,3:1|3:0,0:0:0:0:
138,93,140521,1,8,3:0:0:0:
65,133,140724,1,4,3:0:0:0:
187,159,140926,2,0,P|253:144|291:145,1,105,4|8,3:1|3:0,0:0:0:0:
295,148,141737,2,0,L|290:189,1,35,8|0,3:0|3:0,0:0:0:0:
375,143,142142,2,0,L|379:108,1,35,8|8,3:0|3:0,0:0:0:0:
325,42,142548,1,4,3:0:0:0:
417,24,142751,1,4,3:0:0:0:
473,117,142953,6,0,P|462:192|452:270,1,140,4|8,3:1|3:2,0:0:0:0:
493,335,144169,2,0,L|486:378,2,35,0|0|0,3:0|3:0|3:0,0:0:0:0:
331,383,144980,2,0,P|323:363|314:344,1,35,0|0,3:0|3:0,0:0:0:0:
380,299,145386,2,0,L|351:223,1,70,8|0,3:2|3:0,0:0:0:0:
248,233,146197,6,0,P|181:230|98:234,1,140,4|8,3:1|3:2,0:0:0:0:
83,152,147413,2,0,P|41:100|-3:96,1,105,0|8,3:0|3:0,0:0:0:0:
83,0,148224,2,0,L|98:43,1,35,4|0,3:0|3:0,0:0:0:0:
176,56,148629,2,0,L|161:99,1,35,8|4,3:0|3:0,0:0:0:0:
97,161,149034,1,0,3:0:0:0:
10,113,149237,1,8,3:0:0:0:
164,89,149440,6,0,P|241:92|312:101,1,140,4|8,3:1|3:2,0:0:0:0:
386,5,150656,2,0,L|412:40,1,35,0|0,3:0|3:0,0:0:0:0:
488,63,151061,2,0,P|477:86|462:142,1,70,0|0,3:0|3:0,0:0:0:0:
501,242,151872,1,8,3:2:0:0:
452,353,152278,1,0,3:0:0:0:
412,196,152683,6,0,P|392:197|299:185,1,105,4|0,3:1|3:0,0:0:0:0:
223,141,153494,1,8,3:0:0:0:
260,58,153697,1,4,3:0:0:0:
307,187,153899,2,0,L|292:300,1,105,4|8,3:1|3:0,0:0:0:0:
185,368,154710,1,8,3:0:0:0:
159,284,154913,1,0,3:0:0:0:
284,297,155115,1,8,3:0:0:0:
308,209,155318,1,8,3:0:0:0:
213,170,155521,2,0,L|216:211,1,35,4|4,3:0|3:0,0:0:0:0:
317,208,155926,6,0,P|326:136|336:65,1,140,4|8,3:1|3:2,0:0:0:0:
192,31,157142,2,0,P|225:30|273:19,2,70,0|0|0,3:0|3:0|3:0,0:0:0:0:
56,32,158359,2,0,L|51:74,1,35,8|0,3:2|3:0,0:0:0:0:
96,136,158764,2,0,L|91:178,1,35,0|0,3:0|3:0,0:0:0:0:
30,274,159169,6,0,P|51:271|169:305,1,140,4|8,3:1|3:2,0:0:0:0:
276,352,160386,2,0,P|242:357|202:388,1,70,0|0,3:0|3:0,0:0:0:0:
163,301,160994,1,8,3:0:0:0:
249,255,161197,2,0,L|325:266,1,70,4|8,3:0|3:0,0:0:0:0:
482,278,161805,1,4,3:0:0:0:
399,332,162007,1,0,3:0:0:0:
327,261,162210,1,8,3:0:0:0:
410,199,162413,6,0,P|394:147|386:60,1,140,4|8,3:1|3:2,0:0:0:0:
478,140,163629,2,0,L|512:145,2,35,0|0|0,3:0|3:0|0:0,0:0:0:0:
307,132,164440,2,0,P|267:137|226:139,1,70,0|8,3:0|3:2,0:0:0:0:
133,61,165251,2,0,P|153:75|164:91,1,35,0|0,3:0|3:0,0:0:0:0:
147,171,165656,6,0,P|137:215|138:285,1,105,4|0,3:1|3:0,0:0:0:0:
188,348,166467,1,8,3:0:0:0:
249,278,166669,1,4,3:0:0:0:
330,354,166872,2,0,P|340:302|340:250,1,105,4|8,3:1|3:0,0:0:0:0:
393,189,167683,2,0,L|404:156,1,35,8|0,3:0|3:0,0:0:0:0:
345,94,168088,1,8,3:0:0:0:
363,15,168291,1,8,3:0:0:0:
448,0,168494,1,4,3:0:0:0:
498,75,168697,1,4,3:0:0:0:
354,18,168899,6,0,P|283:30|203:37,1,140,4|8,3:1|3:2,0:0:0:0:
144,160,170115,2,0,L|155:308,1,140,0|0,3:0|3:0,0:0:0:0:
235,347,171332,2,0,L|238:307,1,35,8|0,3:2|3:0,0:0:0:0:
79,339,171737,2,0,L|88:373,1,35,0|0,3:0|3:0,0:0:0:0:
139,213,172142,6,0,P|172:201|273:224,1,140,4|8,3:1|3:2,0:0:0:0:
392,209,173359,2,0,L|412:246,1,35,0|0,3:0|3:0,0:0:0:0:
439,321,173764,1,0,3:0:0:0:
508,264,173967,1,8,3:0:0:0:
475,183,174169,2,0,L|491:139,1,35,4|0,3:0|3:0,0:0:0:0:
469,37,174575,2,0,L|452:78,1,35,8|4,3:0|3:0,0:0:0:0:
395,126,174980,1,0,3:0:0:0:
317,88,175183,1,8,3:0:0:0:
240,126,175386,6,0,P|171:166|102:158,1,140,4|8,3:1|3:2,0:0:0:0:
8,127,176602,2,0,L|39:109,2,35,0|0|0,3:0|3:0|3:0,0:0:0:0:
47,232,177413,2,0,L|92:247,1,35,0|0,3:0|3:0,0:0:0:0:
164,277,177818,2,0,P|135:330|128:352,1,70,8|0,3:2|3:0,0:0:0:0:
245,341,178629,6,0,P|304:340|359:332,1,105,4|0,3:1|3:0,0:0:0:0:
447,342,179440,1,8,3:0:0:0:
508,284,179642,1,4,3:0:0:0:
460,216,179845,2,0,P|462:173|467:138,1,70,4|0,3:1|3:0,0:0:0:0:
408,52,180453,2,0,L|398:98,1,35,8|8,3:0|3:0,0:0:0:0:
318,119,180859,1,0,3:0:0:0:
363,195,181061,1,4,3:0:0:0:
273,242,181264,1,4,3:0:0:0:
233,158,181467,1,4,3:0:0:0:
