osu file format v14

[General]
AudioFilename: audio.mp3
AudioLeadIn: 0
PreviewTime: 57728
Countdown: 0
SampleSet: Soft
StackLeniency: 0.2
Mode: 0
LetterboxInBreaks: 0
WidescreenStoryboard: 1

[Editor]
DistanceSpacing: 0.7
BeatDivisor: 16
GridSize: 8
TimelineZoom: 1

[Metadata]
Title:What Lies Beneath
TitleUnicode:What Lies Beneath
Artist:Life on Venus
ArtistUnicode:Life on Venus
Creator:nine19
Version:Maruoko's Insane
Source:
Tags:gazpriest odes to the void piroshki maruoko delette aishiteiru- shoegaze dream pop dreampop rock english departure
BeatmapID:3188716
BeatmapSetID:1380546

[Difficulty]
HPDrainRate:4.5
CircleSize:3.5
OverallDifficulty:6.5
ApproachRate:7.2
SliderMultiplier:2.5
SliderTickRate:1

[Events]
//Background and Video events
0,0,"bg.jpg",0,0
//Break Periods
//Storyboard Layer 0 (Background)
//Storyboard Layer 1 (Fail)
//Storyboard Layer 2 (Pass)
//Storyboard Layer 3 (Foreground)
//Storyboard Layer 4 (Overlay)
//Storyboard Sound Samples

[TimingPoints]
418,895.522388059701,4,2,1,45,1,0
418,-100,4,2,1,45,0,0
1313,-133.333333333333,4,2,1,45,0,0
4000,-100,4,2,1,45,0,0
4895,-133.333333333333,4,2,1,45,0,0
7582,-100,4,2,1,45,0,0
8477,-133.333333333333,4,2,1,45,0,0
11164,-100,4,2,1,45,0,0
12059,-133.333333333333,4,2,1,45,0,0
14746,-100,4,2,1,45,0,0
15641,-133.333333333333,4,2,1,45,0,0
18328,-100,4,2,1,45,0,0
19223,-133.333333333333,4,2,1,45,0,0
21910,-100,4,2,1,45,0,0
22806,-133.333333333333,4,2,1,45,0,0
25492,-100,4,2,1,45,0,0
26388,-133.333333333333,4,2,1,45,0,0
29074,-86.9565217391304,4,2,1,55,0,0
54149,-100,4,2,1,40,0,0
57731,-133.333333333333,4,2,1,75,0,1
58179,-80,4,2,1,75,0,1
58626,-57.1428571428571,4,2,1,75,0,1
59074,-80,4,2,1,75,0,1
60865,-57.1428571428571,4,2,1,75,0,1
62209,-80,4,2,1,75,0,1
65343,-80,4,2,1,75,0,1
65791,-57.1428571428571,4,2,1,75,0,1
66238,-80,4,2,1,75,0,1
68029,-57.1428571428571,4,2,1,75,0,1
69373,-80,4,2,1,75,0,1
72059,-133.333333333333,4,2,1,75,0,1
72507,-80,4,2,1,75,0,1
72955,-57.1428571428571,4,2,1,75,0,1
73403,-80,4,2,1,75,0,1
75194,-57.1428571428571,4,2,1,75,0,1
76537,-80,4,2,1,75,0,1
80119,-57.1428571428571,4,2,1,75,0,1
80567,-80,4,2,1,75,0,1
82358,-57.1428571428571,4,2,1,75,0,1
83701,-80,4,2,1,75,0,1
86388,-100,4,2,1,65,0,0
89522,-83.3333333333333,4,2,1,65,0,0
90865,-100,4,2,1,65,0,0
96686,-83.3333333333333,4,2,1,65,0,0
98029,-100,4,2,1,65,0,0
103850,-83.3333333333333,4,2,1,65,0,0
105194,-100,4,2,1,65,0,0
111015,-83.3333333333333,4,2,1,65,0,0
112358,-100,4,2,1,65,0,0
115044,-86.9565217391304,4,2,1,55,0,0
150529,-86.9565217391304,4,2,1,5,0,0
150641,-86.9565217391304,4,2,1,55,0,0
150753,-86.9565217391304,4,2,1,5,0,0
150865,-86.9565217391304,4,2,1,55,0,0
168776,-100,4,2,1,55,0,0
172358,-133.333333333333,4,2,1,75,0,1
172806,-80,4,2,1,75,0,1
173253,-57.1428571428571,4,2,1,75,0,1
173701,-80,4,2,1,75,0,1
175492,-57.1428571428571,4,2,1,75,0,1
175828,-57.1428571428571,4,2,1,5,0,1
175940,-57.1428571428571,4,2,1,75,0,1
176835,-80,4,2,1,75,0,1
180417,-57.1428571428571,4,2,1,75,0,1
180865,-80,4,2,1,75,0,1
182544,-80,4,2,1,5,0,1
182656,-57.1428571428571,4,2,1,75,0,1
184000,-80,4,2,1,75,0,1
186686,-133.333333333333,4,2,1,75,0,1
187134,-80,4,2,1,75,0,1
187582,-57.1428571428571,4,2,1,75,0,1
188029,-80,4,2,1,75,0,1
189820,-57.1428571428571,4,2,1,75,0,1
191164,-80,4,2,1,75,0,1
194746,-57.1428571428571,4,2,1,75,0,1
195194,-80,4,2,1,75,0,1
196985,-57.1428571428571,4,2,1,75,0,1
198328,-80,4,2,1,75,0,1
201015,-83.3333333333333,4,2,1,65,0,0
208179,-66.6666666666667,4,2,1,65,0,0
208626,-83.3333333333333,4,2,1,65,0,0
222507,-66.6666666666667,4,2,1,65,0,0
222955,-83.3333333333333,4,2,1,65,0,0
229223,-74.0740740740741,4,2,1,65,0,0
229447,-66.6666666666667,4,2,1,65,0,0

[Colours]
Combo1 : 169,163,192
Combo2 : 153,165,219
Combo3 : 174,174,174
Combo4 : 168,206,200

[HitObjects]
181,30,418,6,0,B|221:67|221:67|191:157,1,125,4|0,3:1|0:0,0:0:0:0:
242,198,1089,1,0,3:2:0:0:
127,89,1313,2,0,P|81:98|37:115,1,93.7500035762788,10|2,0:0|0:0,0:0:0:0:
60,145,1985,2,0,P|78:102|105:63,1,93.7500035762788,2|0,0:0|0:0,0:0:0:0:
0,202,2656,6,0,P|10:226|25:249,1,46.8750017881394,0|0,0:0|3:2,0:0:0:0:
22,327,3104,1,10,0:0:0:0:
104,251,3328,2,0,P|147:261|200:278,1,93.7500035762788,2|0,3:2|3:2,0:0:0:0:
394,375,4000,6,0,P|437:320|428:265,1,125,0|0,3:2|0:0,0:0:0:0:
348,301,4671,1,0,3:2:0:0:
405,181,4895,2,0,B|452:172|452:172|495:204,1,93.7500035762788,10|2,3:2|0:0,0:0:0:0:
500,157,5567,2,0,B|453:166|453:166|410:134,1,93.7500035762788,2|2,0:0|0:0,0:0:0:0:
294,231,6238,6,0,L|285:175,1,46.8750017881394,0|0,0:0|3:2,0:0:0:0:
207,157,6686,1,10,3:2:0:0:
327,106,6910,2,0,P|337:60|353:10,1,93.7500035762788,0|2,3:2|3:2,0:0:0:0:
207,157,7582,6,0,P|142:171|79:190,1,125,4|2,3:1|0:0,0:0:0:0:
16,141,8253,1,0,3:2:0:0:
0,350,8477,2,0,P|57:362|113:379,1,93.75,10|2,0:0|0:0,0:0:0:0:
113,281,9149,2,0,P|62:270|11:255,1,93.7500035762788,2|0,0:0|0:0,0:0:0:0:
183,345,9820,6,0,P|196:320|212:297,1,46.8750017881394,0|0,0:0|3:2,0:0:0:0:
292,304,10268,1,10,0:0:0:0:
174,229,10492,2,0,P|162:195|151:131,1,93.7500035762788,2|0,3:2|3:2,0:0:0:0:
404,0,11164,6,0,B|447:47|447:47|420:109,1,125,2|0,3:2|0:0,0:0:0:0:
347,67,11835,1,0,3:2:0:0:
512,114,12059,2,0,B|509:162|509:162|462:181,1,93.7500035762788,10|2,3:2|0:0,0:0:0:0:
430,298,12731,2,0,P|425:271|412:234,1,46.8750017881394,2|0,0:0|0:0,0:0:0:0:
232,37,13179,5,8,3:2:0:0:
339,73,13403,1,0,0:0:0:0:
139,245,13850,5,10,3:2:0:0:
241,210,14074,2,0,P|212:198|179:191,1,46.8750017881394,0|0,3:2|0:0,0:0:0:0:
70,72,14522,1,0,3:2:0:0:
88,66,14634,1,0,3:0:0:0:
97,52,14746,6,0,P|85:96|69:183,1,125,4|2,3:1|0:0,0:0:0:0:
1,229,15417,1,0,3:2:0:0:
168,324,15641,2,0,B|217:314|217:314|250:344,1,93.7500035762788,10|2,0:0|0:0,0:0:0:0:
357,360,16313,2,0,P|348:327|336:263,1,93.7500035762788,2|0,0:0|0:0,0:0:0:0:
257,166,16985,6,0,P|261:188|267:211,1,46.8750017881394,0|0,0:0|3:2,0:0:0:0:
336,268,17432,1,10,0:0:0:0:
129,247,17656,2,0,P|135:224|139:201,1,46.8750017881394,0|2,3:2|0:0,0:0:0:0:
139,202,18104,1,2,3:2:0:0:
11,84,18328,6,0,B|60:124|60:124|139:95,1,125,0|0,3:2|0:0,0:0:0:0:
76,26,19000,1,0,3:2:0:0:
257,166,19223,2,0,P|296:141|339:121,1,93.7500035762788,10|2,3:2|0:0,0:0:0:0:
239,0,19895,2,0,P|223:29|198:93,1,93.7500035762788,2|0,0:0|0:0,0:0:0:0:
394,45,20567,6,0,P|373:35|351:28,1,46.8750017881394,0|0,0:0|3:2,0:0:0:0:
469,21,21015,1,10,3:2:0:0:
422,183,21238,2,0,P|400:192|378:200,1,46.8750017881394,2|0,3:2|0:0,0:0:0:0:
379,200,21686,1,0,3:2:0:0:
512,368,21910,6,0,P|487:333|402:323,1,125,4|0,3:1|0:0,0:0:0:0:
333,363,22582,1,0,3:2:0:0:
128,302,22806,2,0,B|110:257|110:257|140:219,1,93.7500035762788,10|2,0:0|0:0,0:0:0:0:
227,327,23477,2,0,B|263:299|263:299|258:251,1,93.7500035762788,2|0,0:0|0:0,0:0:0:0:
139,221,24149,6,0,P|134:197|133:166,1,46.8750017881394,0|0,0:0|3:2,0:0:0:0:
233,151,24597,1,10,0:0:0:0:
114,320,24820,2,0,P|70:301|7:283,1,93.7500035762788,2|0,3:2|3:2,0:0:0:0:
0,83,25492,6,0,B|56:103|56:103|120:58,1,125,2|0,3:2|0:0,0:0:0:0:
190,5,26164,1,0,3:2:0:0:
266,125,26388,2,0,P|305:134|358:158,1,93.7500035762788,10|2,3:2|0:0,0:0:0:0:
309,39,27059,2,0,P|331:34|353:25,1,46.8750017881394,2|0,0:0|0:0,0:0:0:0:
408,247,27507,5,8,3:2:0:0:
454,130,27731,1,0,0:0:0:0:
242,220,28179,5,10,3:2:0:0:
278,310,28403,2,0,P|289:341|295:372,1,46.8750017881394,0|0,3:2|0:0,0:0:0:0:
39,288,28850,1,0,3:2:0:0:
22,299,28962,1,0,3:0:0:0:
7,300,29074,6,0,P|65:308|146:344,1,143.750002741814,4|2,3:1|0:0,0:0:0:0:
0,293,29746,1,0,3:2:0:0:
200,255,29970,2,0,B|229:211|229:211|165:124,1,143.750002741814,10|0,0:0|0:0,0:0:0:0:
299,338,30641,1,2,0:0:0:0:
306,343,30865,6,0,P|363:316|426:305,1,107.81250205636,2|0,0:0|0:0,0:0:0:0:
406,307,31313,2,0,P|415:257|417:227,1,71.8750013709069,2|0,0:0|3:2,0:0:0:0:
350,56,31761,2,0,P|359:106|361:136,1,71.8750013709069,10|0,0:0|3:2,0:0:0:0:
435,156,32209,2,0,P|485:147|515:145,1,71.8750013709069,2|0,0:0|3:2,0:0:0:0:
278,18,32656,6,0,P|216:43|119:31,1,143.750002741814,2|0,3:2|0:0,0:0:0:0:
284,7,33328,1,0,3:2:0:0:
57,0,33552,2,0,B|28:44|28:44|83:132,1,143.750002741814,10|0,3:2|0:0,0:0:0:0:
113,268,34223,1,2,0:0:0:0:
121,276,34447,6,0,P|135:227|165:153,1,107.81250205636,2|0,0:0|0:0,0:0:0:0:
155,173,34895,2,0,P|188:184|223:194,1,71.8750013709069,2|0,0:0|3:2,0:0:0:0:
402,275,35343,2,0,P|367:265|333:253,1,71.8750013709069,10|0,3:2|3:2,0:0:0:0:
253,275,35791,2,0,P|241:309|232:344,1,71.8750013709069,2|0,0:0|3:2,0:0:0:0:
477,229,36238,6,0,B|509:169|509:169|454:95,1,143.750002741814,4|0,3:1|0:0,0:0:0:0:
482,241,36910,1,0,3:2:0:0:
382,70,37134,2,0,P|390:40|399:-18,1,71.8750013709069,10|0,0:0|0:0,0:0:0:0:
246,186,37582,1,0,0:0:0:0:
250,195,37806,1,2,0:0:0:0:
310,115,38029,6,0,P|233:105|179:103,1,107.81250205636,2|0,0:0|0:0,0:0:0:0:
202,103,38477,2,0,B|181:74|181:74|194:31,1,71.8750013709069,2|0,0:0|3:2,0:0:0:0:
306,28,38925,1,10,0:0:0:0:
143,162,39149,1,0,3:2:0:0:
87,117,39373,1,2,0:0:0:0:
23,152,39597,1,0,3:2:0:0:
102,307,39820,6,0,B|159:261|159:261|233:283,1,143.750002741814,2|2,3:2|0:0,0:0:0:0:
92,302,40492,1,0,3:2:0:0:
286,349,40716,2,0,P|329:336|377:334,1,71.8750013709069,10|0,3:2|0:0,0:0:0:0:
382,204,41165,1,0,0:0:0:0:
379,213,41388,1,2,0:0:0:0:
303,252,41612,5,2,0:0:0:0:
454,304,41835,1,8,3:2:0:0:
503,244,42059,2,0,P|490:201|488:153,1,71.8750013709069,2|0,0:0|3:2,0:0:0:0:
327,0,42507,5,10,3:2:0:0:
425,61,42731,1,0,3:2:0:0:
413,135,42955,1,0,0:0:0:0:
512,22,43179,1,0,3:2:0:0:
310,92,43403,6,0,P|225:105|142:136,1,143.750002741814,4|0,3:1|0:0,0:0:0:0:
320,85,44074,1,0,3:2:0:0:
126,206,44298,2,0,B|71:154|71:154|89:88,1,143.750002741814,10|0,0:0|0:0,0:0:0:0:
34,312,44970,1,2,0:0:0:0:
45,318,45194,6,0,P|95:300|149:292,1,107.81250205636,2|0,0:0|0:0,0:0:0:0:
148,292,45641,2,0,P|153:327|165:361,1,71.8750013709069,2|0,0:0|3:2,0:0:0:0:
353,331,46089,2,0,P|341:298|336:263,1,71.8750013709069,10|0,0:0|3:2,0:0:0:0:
240,279,46537,2,0,P|246:315|258:349,1,71.8750013709069,2|0,0:0|3:2,0:0:0:0:
435,234,46985,6,0,P|461:159|472:80,1,143.750002741814,2|0,3:2|0:0,0:0:0:0:
440,245,47656,1,0,3:2:0:0:
390,48,47880,2,0,B|438:-1|438:-1|512:12,1,143.750002741814,10|0,3:2|0:0,0:0:0:0:
365,141,48552,1,2,0:0:0:0:
357,149,48776,6,0,P|305:132|252:122,1,107.81250205636,2|0,0:0|0:0,0:0:0:0:
252,122,49223,2,0,P|239:161|231:202,1,71.8750013709069,2|0,0:0|3:2,0:0:0:0:
9,120,49671,2,0,P|16:84|28:50,1,71.8750013709069,10|0,3:2|3:2,0:0:0:0:
119,89,50119,2,0,P|129:123|137:158,1,71.8750013709069,0|0,0:0|3:2,0:0:0:0:
135,365,50567,6,0,B|193:324|193:324|277:354,1,143.750002741814,4|0,3:1|0:0,0:0:0:0:
122,360,51238,1,0,3:2:0:0:
349,333,51462,2,0,P|346:303|335:252,1,71.8750013709069,10|0,0:0|0:0,0:0:0:0:
512,157,51910,1,0,0:0:0:0:
507,166,52134,1,2,0:0:0:0:
413,204,52358,6,0,P|417:158|435:77,1,107.81250205636,2|0,0:0|0:0,0:0:0:0:
430,97,52806,2,0,P|394:93|331:79,1,71.8750013709069,2|0,0:0|3:2,0:0:0:0:
280,13,53253,1,10,0:0:0:0:
198,135,53477,1,0,3:2:0:0:
124,120,53701,1,2,0:0:0:0:
50,105,53925,1,0,3:2:0:0:
245,212,54149,6,0,P|275:259|255:336,1,125,2|0,3:2|0:0,0:0:0:0:
263,324,55044,6,0,P|199:326|126:333,1,125,2|0,0:2|0:0,0:0:0:0:
245,212,55716,2,0,P|307:219|437:220,1,187.5,2|2,0:2|0:2,0:0:0:0:
276,56,56835,5,8,3:2:0:0:
96,120,57059,1,4,3:2:0:0:
96,120,57507,1,0,3:2:0:0:
46,56,57731,6,0,P|68:64|99:89,1,46.8750017881394,4|0,3:1|0:0,0:0:0:0:
169,66,58179,2,0,P|196:89|227:139,1,78.125,2|0,0:2|0:0,0:0:0:0:
343,236,58626,2,0,P|330:183|303:135,1,109.375001043081,10|0,3:2|0:0,0:0:0:0:
416,364,59074,2,0,P|417:318|406:274,1,78.125,2|0,0:2|0:0,0:0:0:0:
217,130,59522,5,0,3:2:0:0:
217,130,59970,1,0,3:2:0:0:
315,317,60417,6,0,P|331:274|336:229,1,78.125,8|0,3:2|3:2,0:0:0:0:
95,314,60865,6,0,P|178:219|232:107,2,218.750002086163,4|0|0,3:1|0:2|3:2,0:0:0:0:
112,151,62209,2,0,P|70:186|22:212,1,78.125,10|0,3:2|0:0,0:0:0:0:
243,279,62656,2,0,P|155:312|63:325,1,156.25,2|0,0:2|0:2,0:0:0:0:
18,276,63328,1,8,3:2:0:0:
181,343,63552,1,0,3:2:0:0:
181,343,64000,6,0,P|134:343|88:333,1,78.125,10|0,3:2|3:2,0:0:0:0:
18,276,64447,1,2,0:2:0:0:
191,205,64671,1,0,3:2:0:0:
270,37,64895,1,4,3:1:0:0:
270,37,65343,6,0,P|285:77|308:113,1,78.125,2|0,0:2|0:0,0:0:0:0:
407,207,65791,2,0,P|395:146|395:85,1,109.375001043081,10|0,3:2|0:0,0:0:0:0:
475,310,66238,2,0,P|482:264|497:220,1,78.125,2|0,0:2|0:0,0:0:0:0:
256,376,66686,5,0,3:2:0:0:
256,376,67134,1,0,3:2:0:0:
303,118,67582,6,0,P|279:149|261:183,1,78.125,10|0,3:2|3:2,0:0:0:0:
188,1,68029,6,0,P|87:66|-1:147,2,218.750002086163,4|0|0,3:1|0:2|3:2,0:0:0:0:
464,76,69373,2,0,P|380:96|301:128,1,156.25,8|0,3:2|0:2,0:0:0:0:
240,80,70044,1,0,0:0:0:0:
242,65,70268,1,0,0:2:0:0:
297,210,70492,5,8,3:2:0:0:
197,215,70716,2,0,P|235:217|274:222,1,78.125,0|0,3:2|0:0,0:0:0:0:
148,282,71164,5,10,3:2:0:0:
56,203,71388,1,2,0:2:0:0:
91,126,71612,1,0,3:0:0:0:
153,291,71835,1,0,3:2:0:0:
277,326,72059,6,0,P|257:313|235:305,1,46.8750017881394,4|0,3:1|0:0,0:0:0:0:
360,294,72507,2,0,P|389:319|413:350,1,78.125,2|0,0:2|0:0,0:0:0:0:
505,244,72955,2,0,P|487:186|457:134,1,109.375001043081,10|0,3:2|0:0,0:0:0:0:
386,23,73403,2,0,P|389:61|386:100,1,78.125,2|0,0:2|0:0,0:0:0:0:
189,207,73850,5,0,3:2:0:0:
189,207,74298,1,0,3:2:0:0:
302,0,74746,6,0,P|292:37|276:73,1,78.125,10|0,3:2|3:2,0:0:0:0:
59,179,75194,6,0,P|129:94|189:2,2,218.750002086163,4|0|2,3:1|0:2|3:2,0:0:0:0:
189,218,76537,2,0,P|150:243|109:266,1,78.125,10|0,3:2|0:0,0:0:0:0:
272,332,76985,2,0,P|187:352|101:366,1,156.25,2|0,0:2|0:2,0:0:0:0:
55,298,77656,1,8,3:2:0:0:
189,218,77880,1,2,3:2:0:0:
189,218,78328,6,0,P|230:225|273:230,1,78.125,10|0,3:2|3:2,0:0:0:0:
136,116,78776,1,2,3:2:0:0:
275,235,79000,1,0,3:2:0:0:
465,212,79223,1,4,3:1:0:0:
465,212,79671,6,0,P|449:176|436:139,1,78.125,2|0,0:2|0:0,0:0:0:0:
296,0,80119,2,0,P|297:54|300:109,1,109.375001043081,10|0,3:2|0:0,0:0:0:0:
189,218,80567,2,0,P|199:180|214:144,1,78.125,2|0,0:2|0:0,0:0:0:0:
46,93,81015,1,0,3:2:0:0:
46,93,81462,1,0,3:2:0:0:
0,280,81910,6,0,P|22:248|49:219,1,78.125,10|2,3:2|3:2,0:0:0:0:
176,361,82358,6,0,P|271:294|375:241,2,218.750002086163,4|0|0,3:1|0:2|3:2,0:0:0:0:
512,134,83701,2,0,P|425:138|339:153,1,156.25,8|0,3:2|0:2,0:0:0:0:
270,147,84373,1,0,0:0:0:0:
260,160,84597,1,0,0:2:0:0:
97,101,84820,5,8,3:2:0:0:
3,93,85044,2,0,P|41:101|78:113,1,78.125,0|0,3:2|0:0,0:0:0:0:
234,25,85492,5,8,3:2:0:0:
166,160,85716,1,2,0:2:0:0:
212,234,85940,1,0,3:2:0:0:
62,196,86164,1,0,3:2:0:0:
254,310,86388,1,4,3:1:0:0:
254,310,86835,6,0,B|316:327|316:327|361:285,2,125,2|10|2,0:2|3:2|0:2,0:0:0:0:
512,182,88179,2,0,B|450:199|450:199|405:157,1,125,2|0,3:2|3:2,0:0:0:0:
473,99,89074,1,8,3:2:0:0:
286,216,89522,6,0,P|215:232|9:338,1,299.999990844727,4|2,3:1|3:2,0:0:0:0:
13,334,90865,1,8,3:2:0:0:
116,247,91313,5,2,0:2:0:0:
124,242,91537,2,0,P|142:201|131:167,1,62.5,0|0,0:0|0:2,0:0:0:0:
29,89,91985,1,8,3:2:0:0:
29,99,92209,2,0,P|55:135|90:142,1,62.5,0|0,3:2|0:0,0:0:0:0:
200,88,92656,2,0,P|155:92|131:119,2,62.5,8|0|0,3:2|0:0|0:2,0:0:0:0:
70,141,93328,1,0,3:2:0:0:
271,147,93552,1,4,3:1:0:0:
271,147,94000,6,0,B|307:116|307:116|281:18,2,125,2|10|2,0:2|3:2|0:2,0:0:0:0:
441,0,95343,2,0,B|477:31|477:31|451:129,1,125,2|2,3:2|3:2,0:0:0:0:
432,191,96238,1,10,3:2:0:0:
512,384,96686,6,0,P|445:365|195:322,1,299.999990844727,4|0,3:1|3:2,0:0:0:0:
218,324,98029,1,8,3:2:0:0:
105,308,98477,5,0,0:2:0:0:
97,303,98701,2,0,P|79:262|90:228,1,62.5,0|0,0:0|0:2,0:0:0:0:
192,150,99149,1,8,3:2:0:0:
192,160,99373,2,0,P|166:196|131:203,1,62.5,0|0,3:2|0:0,0:0:0:0:
21,149,99820,2,0,P|66:153|90:180,2,62.5,10|0|0,3:2|3:2|0:2,0:0:0:0:
132,82,100492,1,0,3:2:0:0:
297,153,100716,1,4,3:1:0:0:
297,153,101164,6,0,P|354:116|424:130,2,125,2|10|2,0:2|3:2|0:2,0:0:0:0:
512,306,102507,2,0,P|455:269|385:283,1,125,2|2,3:2|3:2,0:0:0:0:
437,358,103403,1,10,3:2:0:0:
259,232,103850,6,0,B|154:336|154:336|7:270,1,299.999990844727,4|2,3:1|3:2,0:0:0:0:
15,273,105194,1,10,3:2:0:0:
94,64,105641,5,0,0:2:0:0:
105,68,105865,2,0,P|128:105|127:129,1,62.5,0|0,0:0|0:2,0:0:0:0:
252,94,106313,1,8,3:2:0:0:
253,106,106537,2,0,P|232:145|210:156,1,62.5,0|0,3:2|0:0,0:0:0:0:
0,176,106985,2,0,P|30:170|59:182,2,62.5,8|0|0,3:2|0:0|0:2,0:0:0:0:
147,222,107656,1,0,3:2:0:0:
285,359,107880,1,4,3:1:0:0:
285,359,108328,6,0,P|280:313|336:248,2,125,2|10|2,0:2|3:2|0:2,0:0:0:0:
512,189,109671,2,0,P|517:235|461:300,1,125,2|2,3:2|3:2,0:0:0:0:
388,319,110567,1,10,3:2:0:0:
292,148,111015,6,0,B|152:197|152:197|47:75,1,299.999990844727,4|0,3:1|3:2,0:0:0:0:
53,82,112359,1,8,3:2:0:0:
105,347,112806,5,0,0:2:0:0:
116,343,113030,2,0,P|139:305|138:281,1,62.5,0|0,0:0|0:2,0:0:0:0:
263,317,113478,1,8,3:2:0:0:
264,305,113702,2,0,P|243:265|221:254,1,62.5,0|0,3:2|0:0,0:0:0:0:
11,234,114150,2,0,P|41:239|70:227,2,62.5,8|0|0,3:2|3:2|0:2,0:0:0:0:
158,189,114821,1,0,3:2:0:0:
273,316,115044,6,0,P|324:281|408:303,1,143.750002741814,4|0,3:1|0:0,0:0:0:0:
345,365,115716,1,0,3:2:0:0:
482,269,115940,2,0,B|511:230|511:230|467:119,1,143.750002741814,10|0,0:0|0:0,0:0:0:0:
362,36,116612,1,2,0:0:0:0:
365,48,116835,6,0,P|357:92|335:134,1,71.8750013709069,2|0,0:0|0:0,0:0:0:0:
229,4,117283,2,0,P|254:40|268:86,1,71.8750013709069,2|0,0:0|3:2,0:0:0:0:
56,205,117731,2,0,P|92:179|138:165,1,71.8750013709069,10|0,0:0|0:0,0:0:0:0:
101,69,118179,2,0,P|144:77|186:99,1,71.8750013709069,2|0,0:0|3:2,0:0:0:0:
340,257,118626,6,0,B|282:211|282:211|194:245,1,143.750002741814,0|0,3:2|0:0,0:0:0:0:
154,290,119298,1,0,3:2:0:0:
362,344,119522,2,0,P|406:332|520:317,1,143.750002741814,10|0,3:2|0:0,0:0:0:0:
262,324,120194,1,2,0:0:0:0:
250,332,120417,6,0,P|223:324|155:315,1,71.8750013709069,2|0,0:0|0:0,0:0:0:0:
94,358,120865,2,0,P|67:350|-1:341,1,71.8750013709069,2|0,0:0|3:2,0:0:0:0:
203,162,121313,2,0,P|167:168|133:178,1,71.8750013709069,8|2,3:2|3:2,0:0:0:0:
70,238,121761,2,0,P|34:244|0:254,1,71.8750013709069,0|0,0:0|3:2,0:0:0:0:
293,174,122209,6,0,P|308:114|246:48,1,143.750002741814,4|0,3:1|0:0,0:0:0:0:
216,131,122880,1,0,3:2:0:0:
397,88,123104,2,0,P|434:102|476:111,1,71.8750013709069,10|0,0:0|0:0,0:0:0:0:
412,262,123552,1,0,0:0:0:0:
388,182,123776,1,2,0:0:0:0:
416,274,124000,6,0,P|380:287|341:295,1,71.8750013709069,2|0,0:0|0:0,0:0:0:0:
278,360,124447,2,0,P|244:344|210:322,1,71.8750013709069,2|0,0:0|3:2,0:0:0:0:
65,120,124895,2,0,P|46:151|32:184,1,71.8750013709069,10|0,0:0|3:2,0:0:0:0:
98,254,125343,2,0,P|106:289|118:323,1,71.8750013709069,2|0,0:0|3:2,0:0:0:0:
293,174,125791,6,0,B|318:110|318:110|255:43,1,143.750002741814,2|0,3:2|0:0,0:0:0:0:
215,130,126462,1,0,3:2:0:0:
108,10,126686,2,0,P|47:30|8:36,1,71.8750013709069,10|0,3:2|0:0,0:0:0:0:
266,55,127134,1,0,0:0:0:0:
195,9,127358,1,2,0:0:0:0:
276,63,127582,5,2,0:0:0:0:
402,0,127806,1,8,3:2:0:0:
413,9,128029,1,2,0:0:0:0:
512,221,128477,5,10,3:2:0:0:
432,189,128701,1,0,3:2:0:0:
383,262,128925,1,2,0:0:0:0:
502,122,129149,1,0,3:2:0:0:
512,370,129373,6,0,P|459:358|339:343,1,143.750002741814,4|0,3:1|0:0,0:0:0:0:
291,372,130044,1,0,3:2:0:0:
180,269,130268,2,0,P|127:281|7:296,1,143.750002741814,10|0,0:0|0:0,0:0:0:0:
119,103,130940,1,2,0:0:0:0:
129,108,131164,6,0,B|149:138|149:138|137:177,1,71.8750013709069,2|0,0:0|0:0,0:0:0:0:
44,185,131612,2,0,B|23:154|23:154|35:115,1,71.8750013709069,2|0,0:0|3:2,0:0:0:0:
246,66,132059,2,0,B|252:102|252:102|224:132,1,71.8750013709069,10|0,0:0|3:2,0:0:0:0:
136,99,132507,2,0,B|129:62|129:62|157:32,1,71.8750013709069,2|0,0:0|3:2,0:0:0:0:
350,132,132955,6,0,B|405:89|405:89|485:119,1,143.750002741814,2|0,3:2|0:0,0:0:0:0:
512,187,133626,1,0,3:2:0:0:
417,309,133850,2,0,P|358:293|269:281,1,143.750002741814,10|0,3:2|0:0,0:0:0:0:
138,353,134522,1,2,0:0:0:0:
148,346,134746,6,0,B|185:335|185:335|231:361,1,71.8750013709069,2|0,0:0|0:0,0:0:0:0:
72,300,135194,2,0,B|44:317|44:317|7:306,1,71.8750013709069,2|0,0:0|3:2,0:0:0:0:
222,212,135641,2,0,B|194:196|194:196|157:207,1,71.8750013709069,10|0,3:2|3:2,0:0:0:0:
15,166,136089,2,0,B|52:177|52:177|81:161,1,71.8750013709069,2|0,0:0|3:2,0:0:0:0:
276,28,136537,6,0,P|198:34|159:97,1,143.750002741814,4|0,3:1|0:0,0:0:0:0:
247,112,137209,1,0,3:2:0:0:
402,81,137432,2,0,P|410:38|421:2,1,71.8750013709069,10|0,0:0|0:0,0:0:0:0:
354,234,137880,1,0,0:0:0:0:
322,155,138104,1,2,0:0:0:0:
359,249,138328,6,0,P|351:292|340:328,1,71.8750013709069,2|0,0:0|0:0,0:0:0:0:
451,272,138776,2,0,P|443:315|432:351,1,71.8750013709069,2|0,0:0|3:2,0:0:0:0:
165,374,139223,2,0,P|157:331|146:295,1,71.8750013709069,10|0,0:0|3:2,0:0:0:0:
257,351,139671,2,0,P|249:308|238:272,1,71.8750013709069,2|0,0:0|3:2,0:0:0:0:
27,253,140119,6,0,B|-26:204|-26:204|10:111,1,143.750002741814,2|0,3:2|0:0,0:0:0:0:
79,180,140791,1,0,3:2:0:0:
119,64,141015,2,0,P|173:84|215:93,1,71.8750013709069,10|0,3:2|0:0,0:0:0:0:
330,77,141462,1,0,0:0:0:0:
368,0,141686,1,2,0:0:0:0:
325,91,141910,5,2,0:0:0:0:
437,189,142134,1,8,3:2:0:0:
442,203,142358,1,2,0:0:0:0:
307,356,142806,5,10,3:2:0:0:
241,300,143029,1,0,3:2:0:0:
163,339,143253,1,2,0:0:0:0:
62,251,143477,1,0,3:2:0:0:
251,292,143701,6,0,P|278:244|274:148,1,143.750002741814,4|2,3:1|0:0,0:0:0:0:
370,238,144373,1,0,3:2:0:0:
188,147,144597,2,0,B|150:176|150:176|30:154,1,143.750002741814,10|0,0:0|0:0,0:0:0:0:
86,0,145268,1,2,0:0:0:0:
98,10,145492,6,0,P|121:59|124:95,1,71.8750013709069,2|0,0:0|0:0,0:0:0:0:
188,147,145940,2,0,P|206:116|216:82,1,71.8750013709069,2|0,0:0|3:2,0:0:0:0:
308,34,146388,2,0,P|338:52|372:62,1,71.8750013709069,10|0,0:0|3:2,0:0:0:0:
450,130,146836,2,0,P|418:147|383:155,1,71.8750013709069,2|0,0:0|3:2,0:0:0:0:
499,296,147283,6,0,B|444:275|444:275|358:335,1,143.750002741814,2|2,3:2|0:0,0:0:0:0:
506,203,147955,1,0,0:0:0:0:
293,289,148179,2,0,P|255:262|232:154,1,143.750002741814,10|0,3:2|0:0,0:0:0:0:
199,343,148850,1,2,3:2:0:0:
184,337,149074,6,0,P|124:353|96:368,1,71.8750013709069,2|0,0:0|0:0,0:0:0:0:
32,315,149522,2,0,P|18:282|12:247,1,71.8750013709069,2|0,0:0|3:2,0:0:0:0:
81,110,149970,2,0,P|140:126|168:141,1,71.8750013709069,10|0,3:2|3:2,0:0:0:0:
232,88,150418,2,0,P|245:54|252:19,1,71.8750013709069,2|2,0:0|3:2,0:0:0:0:
411,143,150865,6,0,B|354:190|354:190|281:161,1,143.750002741814,4|0,3:1|0:0,0:0:0:0:
448,228,151537,1,0,3:2:0:0:
272,286,151761,2,0,P|218:315|196:335,1,71.8750013709069,10|0,0:0|0:0,0:0:0:0:
399,369,152209,1,0,0:0:0:0:
351,304,152432,1,2,0:0:0:0:
148,376,152656,6,0,P|94:347|72:327,1,71.8750013709069,2|0,0:0|0:0,0:0:0:0:
18,286,153104,2,0,P|0:227|-1:197,1,71.8750013709069,2|0,0:0|3:2,0:0:0:0:
44,120,153552,1,8,0:0:0:0:
169,172,153776,1,2,3:2:0:0:
222,114,153999,1,0,0:0:0:0:
198,40,154223,1,0,3:2:0:0:
326,179,154447,6,0,B|382:135|382:135|465:155,1,143.750002741814,2|0,3:2|0:0,0:0:0:0:
365,50,155119,1,0,3:2:0:0:
404,236,155343,2,0,P|412:272|414:307,1,71.8750013709069,10|0,3:2|0:0,0:0:0:0:
315,182,155791,1,0,0:0:0:0:
232,213,156015,1,2,0:0:0:0:
156,334,156238,5,2,0:0:0:0:
47,241,156462,1,8,3:2:0:0:
42,230,156686,1,0,0:0:0:0:
250,84,157134,5,10,3:2:0:0:
255,73,157358,1,0,3:2:0:0:
184,24,157582,1,2,0:0:0:0:
265,167,157806,1,0,3:2:0:0:
461,85,158029,6,0,B|391:68|391:68|324:120,1,143.750002741814,4|0,3:1|0:0,0:0:0:0:
474,89,158701,1,0,3:2:0:0:
366,196,158925,2,0,P|355:244|365:350,1,143.750002741814,10|0,0:0|3:2,0:0:0:0:
240,309,159597,1,2,0:0:0:0:
250,298,159820,6,0,P|256:271|250:213,1,71.8750013709069,2|0,0:0|0:0,0:0:0:0:
157,220,160268,2,0,P|151:247|157:305,1,71.8750013709069,2|0,0:0|3:2,0:0:0:0:
3,157,160716,2,0,P|-3:130|3:72,1,71.8750013709069,10|0,0:0|0:0,0:0:0:0:
96,79,161164,2,0,P|102:106|96:164,1,71.8750013709069,2|0,0:0|3:2,0:0:0:0:
12,346,161612,6,0,P|50:305|145:312,1,143.750002741814,2|0,3:2|2:2,0:0:0:0:
197,361,162283,1,0,3:2:0:0:
394,294,162507,2,0,B|343:348|343:348|255:316,1,143.750002741814,10|0,3:2|0:0,0:0:0:0:
204,180,163179,1,2,0:0:0:0:
214,192,163403,6,0,P|217:236|211:273,1,71.8750013709069,2|0,0:0|0:0,0:0:0:0:
142,131,163850,2,0,P|106:134|70:130,1,71.8750013709069,2|0,0:0|3:2,0:0:0:0:
285,81,164298,2,0,P|282:125|288:162,1,71.8750013709069,10|0,3:2|3:2,0:0:0:0:
356,20,164746,2,0,P|391:23|427:19,1,71.8750013709069,2|0,0:0|3:2,0:0:0:0:
512,249,165194,6,0,B|464:217|464:217|361:246,1,143.750002741814,4|0,3:1|0:0,0:0:0:0:
450,312,165865,1,0,3:2:0:0:
229,298,166089,2,0,P|187:308|142:325,1,71.8750013709069,10|0,0:0|0:0,0:0:0:0:
292,238,166537,1,0,0:2:0:0:
312,317,166761,1,2,0:0:0:0:
162,227,166985,6,0,P|120:216|75:199,1,71.8750013709069,2|0,0:0|0:0,0:0:0:0:
68,295,167432,2,0,P|26:284|-18:267,1,71.8750013709069,2|0,0:0|3:2,0:0:0:0:
0,106,167880,1,10,0:0:0:0:
121,38,168104,1,0,3:2:0:0:
105,118,168328,1,2,0:0:0:0:
89,198,168552,1,0,3:2:0:0:
300,180,168776,6,0,B|325:146|325:146|298:59,1,125,2|0,3:2|0:0,0:0:0:0:
300,180,169671,6,0,B|362:168|362:168|418:212,1,125,2|0,0:2|0:0,0:0:0:0:
300,66,170343,2,0,B|251:104|251:104|123:77,1,187.5,2|2,0:2|0:2,0:0:0:0:
371,13,171462,5,8,3:2:0:0:
410,206,171686,1,4,3:2:0:0:
410,206,172134,1,0,3:2:0:0:
483,164,172358,6,0,P|445:177|427:180,1,46.8750017881394,4|0,3:1|0:0,0:0:0:0:
331,221,172806,2,0,P|280:202|254:198,1,78.125,2|0,0:2|0:0,0:0:0:0:
15,188,173253,2,0,P|78:175|137:150,1,109.375001043081,10|0,3:2|0:0,0:0:0:0:
6,197,173701,2,0,P|48:205|87:222,1,78.125,2|2,0:2|0:0,0:0:0:0:
256,224,174149,5,0,3:2:0:0:
256,224,174597,1,0,3:2:0:0:
499,170,175044,6,0,P|442:191|413:195,1,78.125,10|2,3:2|3:2,0:0:0:0:
211,0,175492,6,0,P|264:143|275:216,2,218.750002086163,4|0|0,3:1|0:2|3:2,0:0:0:0:
235,143,176835,2,0,P|244:94|263:49,1,78.125,8|0,3:2|0:0,0:0:0:0:
238,228,177283,2,0,P|264:302|279:379,1,156.25,2|2,0:2|0:2,0:0:0:0:
264,68,177955,1,8,3:2:0:0:
231,229,178179,1,2,3:2:0:0:
231,229,178626,6,0,P|240:180|259:135,1,78.125,10|0,3:2|3:2,0:0:0:0:
256,56,179074,1,2,0:2:0:0:
240,240,179298,1,2,3:2:0:0:
56,224,179522,1,4,3:1:0:0:
56,224,179970,6,0,P|94:216|130:201,1,78.125,2|0,0:2|0:0,0:0:0:0:
448,216,180417,2,0,P|396:198|342:188,1,109.375001043081,10|0,3:2|0:0,0:0:0:0:
456,208,180865,2,0,P|417:221|377:228,1,78.125,2|2,0:2|0:0,0:0:0:0:
256,128,181313,5,0,3:2:0:0:
256,128,181761,1,0,3:2:0:0:
16,176,182209,6,0,P|54:184|90:199,1,78.125,10|0,3:2|0:0,0:0:0:0:
224,360,182656,6,0,P|263:258|285:151,2,218.750002086163,4|0|0,3:1|0:2|3:2,0:0:0:0:
272,152,184000,6,0,P|242:75|225:-5,1,156.25,8|0,3:2|0:2,0:0:0:0:
257,232,184671,1,0,0:0:0:0:
253,246,184895,1,0,0:2:0:0:
226,85,185119,5,8,3:2:0:0:
262,5,185343,2,0,P|252:48|235:90,1,78.125,2|0,3:2|0:0,0:0:0:0:
312,172,185791,5,8,3:2:0:0:
250,352,186015,1,0,3:2:0:0:
190,295,186238,1,2,0:2:0:0:
428,148,186462,1,0,3:2:0:0:
503,216,186686,6,0,P|472:223|443:235,1,46.8750017881394,4|0,3:1|0:0,0:0:0:0:
300,192,187134,2,0,P|336:205|374:213,1,78.125,2|0,0:2|0:0,0:0:0:0:
104,183,187582,2,0,P|46:203|-12:216,1,109.375001043081,10|0,3:2|0:0,0:0:0:0:
12,188,188029,2,0,P|49:197|86:211,1,78.125,2|0,0:2|0:0,0:0:0:0:
256,256,188477,5,0,3:2:0:0:
256,256,188925,1,0,3:2:0:0:
16,216,189373,6,0,P|53:207|90:193,1,78.125,10|0,3:2|3:2,0:0:0:0:
221,5,189820,6,0,P|247:118|290:231,2,218.750002086163,4|0|0,3:1|0:2|3:2,0:0:0:0:
232,152,191164,2,0,P|246:111|256:69,1,78.125,10|0,3:2|0:0,0:0:0:0:
240,232,191612,2,0,P|259:312|288:390,1,156.25,2|2,3:2|0:2,0:0:0:0:
248,64,192283,1,8,3:2:0:0:
232,224,192507,1,2,0:2:0:0:
232,224,192955,6,0,P|246:183|256:141,1,78.125,10|2,3:2|3:2,0:0:0:0:
232,56,193403,1,2,0:2:0:0:
248,240,193627,1,0,3:2:0:0:
432,224,193851,1,4,3:1:0:0:
432,224,194298,6,0,P|471:210|513:202,1,78.125,2|0,0:2|0:0,0:0:0:0:
144,200,194746,2,0,P|81:186|21:165,1,109.375001043081,10|0,3:2|0:0,0:0:0:0:
50,199,195194,2,0,P|96:184|144:174,1,78.125,2|0,0:2|0:0,0:0:0:0:
256,96,195641,5,0,3:2:0:0:
256,96,196089,1,0,3:2:0:0:
48,176,196537,6,0,P|94:191|142:201,1,78.125,10|0,3:2|3:2,0:0:0:0:
224,384,196985,6,0,P|260:270|285:152,2,218.750002086163,4|0|0,3:1|0:2|3:2,0:0:0:0:
272,168,198328,2,0,P|247:92|229:14,1,156.25,8|0,3:2|0:2,0:0:0:0:
178,195,199000,1,0,0:0:0:0:
192,200,199223,1,0,0:2:0:0:
302,290,199447,5,8,3:2:0:0:
249,372,199671,2,0,P|265:321|277:270,1,78.125,0|0,3:2|0:0,0:0:0:0:
294,135,200119,5,8,3:2:0:0:
205,49,200343,1,0,3:2:0:0:
269,0,200567,1,0,3:2:0:0:
386,169,200791,1,0,3:2:0:0:
145,104,201015,5,4,3:1:0:0:
145,104,201462,2,0,P|112:86|69:89,1,74.9999977111817,2|0,0:2|0:0,0:0:0:0:
55,175,201910,2,0,P|88:193|131:190,1,74.9999977111817,10|0,3:2|0:0,0:0:0:0:
148,96,202358,2,0,P|115:78|72:81,1,74.9999977111817,2|0,0:2|0:0,0:0:0:0:
285,223,202806,2,0,B|344:178|344:178|429:209,1,149.999995422363,2|2,3:2|3:2,0:0:0:0:
415,203,203701,2,0,P|445:168|437:118,1,74.9999977111817,10|0,3:2|3:2,0:0:0:0:
272,0,204149,6,0,P|262:74|247:147,2,149.999995422363,4|0|2,3:1|0:0|3:2,0:0:0:0:
237,304,205492,1,8,3:2:0:0:
237,304,205940,5,0,0:2:0:0:
243,310,206164,2,0,P|236:346|232:384,1,74.9999977111817
147,302,206612,1,8,3:2:0:0:
278,206,206835,1,0,3:2:0:0:
131,34,207283,5,8,3:2:0:0:
131,34,207731,6,0,P|122:48|114:71,1,37.4999988555909,0|0,0:2|0:0,0:0:0:0:
137,38,207955,2,0,P|128:52|120:75,1,37.4999988555909,0|0,3:2|3:2,0:0:0:0:
80,156,208179,6,0,P|108:120|204:128,1,140.625005364418,4|0,3:1|0:0,0:0:0:0:
196,121,208626,2,0,P|186:166|197:198,1,74.9999977111817,2|0,0:2|0:0,0:0:0:0:
289,194,209074,2,0,P|299:149|288:117,1,74.9999977111817,10|0,3:2|0:0,0:0:0:0:
187,121,209522,2,0,P|176:165|187:197,1,74.9999977111817,2|0,0:2|0:0,0:0:0:0:
452,260,209970,2,0,B|383:237|383:237|311:301,1,149.999995422363,2|2,3:2|3:2,0:0:0:0:
326,289,210865,2,0,P|340:328|366:346,1,74.9999977111817,10|0,3:2|3:2,0:0:0:0:
185,360,211313,6,0,P|117:338|26:327,1,149.999995422363,4|0,3:1|0:0,0:0:0:0:
39,327,212209,2,0,P|52:286|58:232,1,74.9999977111817,0|0,3:2|0:0,0:0:0:0:
72,34,212656,6,0,P|78:70|90:106,1,74.9999977111817,10|0,3:2|0:0,0:0:0:0:
155,153,213104,1,0,0:2:0:0:
167,159,213328,2,0,P|202:147|239:140,1,74.9999977111817
343,71,213776,5,8,3:2:0:0:
279,253,214000,1,0,3:2:0:0:
506,357,214447,5,10,3:2:0:0:
468,250,214671,1,0,3:2:0:0:
327,350,214895,6,0,P|313:341|290:333,1,37.4999988555909,0|0,0:2|0:0,0:0:0:0:
323,356,215119,2,0,P|309:347|286:339,1,37.4999988555909,0|0,3:2|0:2,0:0:0:0:
203,340,215343,5,4,3:1:0:0:
203,340,215791,2,0,B|212:302|212:302|187:270,1,74.9999977111817,2|0,0:2|0:0,0:0:0:0:
97,255,216238,2,0,B|74:226|74:226|83:188,1,74.9999977111817,10|0,3:2|0:0,0:0:0:0:
152,124,216686,2,0,B|161:86|161:86|136:54,1,74.9999977111817,2|0,0:2|0:0,0:0:0:0:
264,181,217134,2,0,P|315:151|399:178,1,149.999995422363,2|2,3:2|3:2,0:0:0:0:
397,176,218029,2,0,B|360:187|360:187|320:161,1,74.9999977111817,10|0,3:2|3:2,0:0:0:0:
512,0,218477,6,0,P|494:52|472:154,2,149.999995422363,4|0|0,3:1|0:0|3:2,0:0:0:0:
512,334,219820,1,8,3:2:0:0:
512,334,220268,5,0,0:2:0:0:
504,339,220492,2,0,P|478:330|427:319,1,74.9999977111817
302,375,220940,1,8,3:2:0:0:
227,252,221164,1,0,3:2:0:0:
0,367,221612,5,10,3:2:0:0:
0,367,222059,6,0,P|19:360|57:352,1,37.4999988555909,0|0,0:2|0:0,0:0:0:0:
66,275,222283,2,0,P|84:283|117:304,1,37.4999988555909,0|0,3:2|3:2,0:0:0:0:
236,258,222507,6,0,P|264:191|220:119,1,140.625005364418,4|0,3:1|0:0,0:0:0:0:
237,132,222955,2,0,B|202:155|202:155|155:142,1,74.9999977111817,2|0,0:2|0:0,0:0:0:0:
348,21,223403,2,0,B|316:12|316:12|281:35,1,74.9999977111817,10|0,3:2|0:0,0:0:0:0:
495,69,223850,2,0,B|459:91|459:91|412:78,1,74.9999977111817,2|0,0:2|0:0,0:0:0:0:
347,252,224298,2,0,P|412:229|492:276,1,149.999995422363,2|2,3:2|3:2,0:0:0:0:
481,262,225194,2,0,B|490:302|490:302|465:330,1,74.9999977111817,10|0,3:2|3:2,0:0:0:0:
203,353,225641,6,0,P|141:331|50:321,1,149.999995422363,4|0,3:1|0:0,0:0:0:0:
57,320,226537,2,0,P|61:282|73:247,1,74.9999977111817,0|0,3:2|0:0,0:0:0:0:
304,75,226985,6,0,P|291:110|287:147,1,74.9999977111817,8|0,3:2|0:0,0:0:0:0:
207,177,227432,1,0,0:2:0:0:
194,185,227656,2,0,P|158:172|121:168,1,74.9999977111817
198,68,228104,5,8,3:2:0:0:
353,203,228328,1,0,3:2:0:0:
512,34,228776,5,8,3:2:0:0:
421,77,229000,1,0,3:2:0:0:
492,219,229223,6,0,P|504:247|510:274,1,42.1875001609325,0|0,0:2|0:0,0:0:0:0:
380,350,229447,2,0,P|402:304|420:255,1,93.7500035762788,8|4,3:2|3:2,0:0:0:0:
