osu file format v14

[General]
AudioFilename: audio.ogg
AudioLeadIn: 0
PreviewTime: 56593
Countdown: 0
SampleSet: Normal
StackLeniency: 0.7
Mode: 1
LetterboxInBreaks: 0
WidescreenStoryboard: 1

[Editor]
DistanceSpacing: 1.1
BeatDivisor: 4
GridSize: 32
TimelineZoom: 0.9999999

[Metadata]
Title:Vitamin SUMMER!
TitleUnicode:ビタミンSUMMER!
Artist:Liella!
ArtistUnicode:Liella!
Creator:Sammu
Version:arc's Futsuu
Source:ラブライブ!スーパースター!!
Tags:arcpotato -Maruko- raynald pop jpop j-pop anime japanese LACM-24313 LACM24313 love live! superstar!! 2期 Ni-ki 2-ki S2 season 2 lovelive! school idol project insert song ヒゲドライバー hige driver 澁谷かのん shibuya kanon 伊達さゆり date sayuri 唐可可 唐 可可 táng kěkě tang keke tan kuukuu タン クゥクゥ Liyuu 嵐千砂都 嵐 千砂都 arashi chisato 岬なこ misaki nako 平安名すみれ heanna sumire ペイトン尚未 payton naomi 葉月恋 葉月 恋 hazuki ren 青山なぎさ aoyama nagisa 桜小路きな子 sakurakouji kinako 鈴原希実 suzuhara nozomi 米女メイ yoneme mei 薮島朱音 yabushima akane 若菜四季 wakana shiki 大熊和奏 okuma ohkuma wakana 鬼塚夏美 onitsuka natsumi 絵森彩 絵森 彩 emori aya
BeatmapID:3850786
BeatmapSetID:1865964

[Difficulty]
HPDrainRate:7
CircleSize:2
OverallDifficulty:4
ApproachRate:10
SliderMultiplier:1.4
SliderTickRate:1

[Events]
//Background and Video events
0,0,"coconut.jpg",0,-130
//Break Periods
//Storyboard Layer 0 (Background)
//Storyboard Layer 1 (Fail)
//Storyboard Layer 2 (Pass)
//Storyboard Layer 3 (Foreground)
//Storyboard Layer 4 (Overlay)
//Storyboard Sound Samples

[TimingPoints]
456,352.941176470588,4,1,0,100,1,0
456,-117.647058823529,4,1,0,100,0,0
11750,-111.111111111111,4,1,0,100,0,0
23044,-117.647058823529,4,1,0,100,0,0
34338,-111.111111111111,4,1,0,100,0,0
45632,-125,4,1,0,100,0,0
51452,-124.354005167959,4,1,0,100,0,0
51629,-123.076475973205,4,1,0,100,0,0
51805,-122.139385986416,4,1,0,100,0,0
51982,-121.211253899654,4,1,0,100,0,0
52511,-118.519555026936,4,1,0,100,0,0
52688,-117.645424745819,4,1,0,100,0,0
52864,-116.788925045502,4,1,0,100,0,0
53217,-115.108109210008,4,1,0,100,0,0
53394,-114.283401246728,4,1,0,100,0,0
53747,-112.673433280566,4,1,0,100,0,0
54100,-111.108196033162,4,1,0,100,0,0
54276,-110.343929129755,4,1,0,100,0,0
54452,-109.590104544043,4,1,0,100,0,0
54629,-108.842313573806,4,1,0,100,0,0
54805,-108.108798039491,4,1,0,100,0,0
54982,-107.381018788509,4,1,0,100,0,0
55158,-106.667002493514,4,1,0,100,0,0
55511,-105.263157894737,4,1,0,100,0,0
56220,-105.263157894737,4,1,0,100,0,0
56926,-100,4,1,0,100,0,1
79514,-111.111111111111,4,1,0,100,0,0
90808,-125,4,1,0,100,0,0
102103,-117.647058823529,4,1,0,100,0,0
113397,-125,4,1,0,100,0,0
119394,-123.076475973205,4,1,0,100,0,0
119570,-122.139385986416,4,1,0,100,0,0
119747,-121.211253899654,4,1,0,100,0,0
120276,-118.519555026936,4,1,0,100,0,0
120452,-117.650327115136,4,1,0,100,0,0
120629,-116.788925045502,4,1,0,100,0,0
120982,-115.108109210008,4,1,0,100,0,0
121158,-114.288027418332,4,1,0,100,0,0
121511,-112.677930025276,4,1,0,100,0,0
121864,-111.112568707447,4,1,0,100,0,0
122041,-110.343929129755,4,1,0,100,0,0
122217,-109.590104544043,4,1,0,100,0,0
122394,-108.842313573806,4,1,0,100,0,0
122570,-108.108798039491,4,1,0,100,0,0
122747,-107.381018788509,4,1,0,100,0,0
122923,-106.667002493514,4,1,0,100,0,0
123276,-105.263157894737,4,1,0,100,0,0
124691,-100,4,1,0,100,0,1
147279,-100,4,1,0,100,0,0
149394,-101.351610062411,4,1,0,100,0,0
150100,-102.740257723956,4,1,0,100,0,0
150805,-104.165436908486,4,1,0,100,0,0
151511,-105.632819203065,4,1,0,100,0,0
152217,-107.142134342555,4,1,0,100,0,0
152923,-108.695205831024,4,1,0,100,0,0
153629,-110.293964457593,4,1,0,100,0,0
153982,-111.111111111111,4,1,0,100,0,0
154335,-111.940456304316,4,1,0,100,0,0
155041,-113.636851482173,4,1,0,100,0,0
155747,-115.385453673634,4,1,0,100,0,0
156452,-117.186116522047,4,1,0,100,0,0
157158,-119.046548234765,4,1,0,100,0,0
157864,-120.967004844164,4,1,0,100,0,0
158570,-122.950438942821,4,1,0,100,0,0
159276,-125,4,1,0,100,0,0
159629,-124.513532881319,4,1,0,100,0,0
159805,-124.272400171653,4,1,0,100,0,0
159982,-124.030837488194,4,1,0,100,0,0
160158,-123.791568932635,4,1,0,100,0,0
160511,-123.314444189678,4,1,0,100,0,0
160688,-123.076587768624,4,1,0,100,0,0
160864,-122.840983249946,4,1,0,100,0,0
161217,-122.371144073765,4,1,0,100,0,0
161394,-122.136909267871,4,1,0,100,0,0
161570,-121.904885262181,4,1,0,100,0,0
161923,-121.442166044796,4,1,0,100,0,0
162100,-121.211470765004,4,1,0,100,0,0
162805,-120.301232411244,4,1,0,100,0,0
162982,-120.074847434562,4,1,0,100,0,0
163335,-119.625891050831,4,1,0,100,0,0
163511,-119.403300664996,4,1,0,100,0,0
163688,-119.180279431008,4,1,0,100,0,0
164041,-118.737975335639,4,1,0,100,0,0
164217,-118.518673984448,4,1,0,100,0,0
164394,-118.298942076045,4,1,0,100,0,0
164747,-117.863143504169,4,1,0,100,0,0
164923,-117.647058823529,4,1,0,100,0,0
165629,-116.788170208366,4,1,0,100,0,0
165805,-116.576005615136,4,1,0,100,0,0
166158,-116.152786062488,4,1,0,100,0,0
166335,-115.941731426636,4,1,0,100,0,0
166511,-115.732628321395,4,1,0,100,0,0
166864,-115.315499285277,4,1,0,100,0,0
167041,-115.107473730342,4,1,0,100,0,0
167217,-114.901366323136,4,1,0,100,0,0
167570,-114.49019727105,4,1,0,100,0,0
167747,-114.285136051324,4,1,0,100,0,0
168452,-113.475604854915,4,1,0,100,0,0
168629,-113.274158768367,4,1,0,100,0,0
168982,-112.874532770993,4,1,0,100,0,0
169158,-112.676337370553,4,1,0,100,0,0
169335,-112.477716584836,4,1,0,100,0,0
169688,-112.083680679608,4,1,0,100,0,0
169864,-111.888250445809,4,1,0,100,0,0
170041,-111.692395937379,4,1,0,100,0,0
170394,-111.303833645412,4,1,0,100,0,0
170570,-111.111111111111,4,1,0,100,0,0
171985,352.941176470588,4,1,0,70,1,0
171985,-111.111111111111,4,1,0,70,0,0
172161,-117.647058823529,4,1,0,100,0,0
182573,-105.263157894737,4,1,0,100,0,0
183279,-100,4,1,0,100,0,1
194573,-111.111111111111,4,1,0,100,0,0
202688,-109.886689079816,4,1,0,100,0,0
203041,-107.523606457508,4,1,0,100,0,0
203394,-105.260019083969,4,1,0,100,0,0
203747,-103.089772793645,4,1,0,100,0,0
203923,-102.040816326531,4,1,0,100,0,0
204100,-101.007210713059,4,1,0,100,0,0
204276,-100,4,1,0,100,0,0

[HitObjects]
256,192,456,5,0,0:0:0:0:
256,192,808,1,8,0:0:0:0:
256,192,1338,1,0,0:0:0:0:
256,192,1514,1,8,0:0:0:0:
256,192,1867,1,0,0:0:0:0:
256,192,2220,1,8,0:0:0:0:
256,192,2926,1,8,0:0:0:0:
256,192,3279,1,0,0:0:0:0:
256,192,3632,1,8,0:0:0:0:
256,192,4161,1,0,0:0:0:0:
256,192,4338,1,8,0:0:0:0:
256,192,4691,1,0,0:0:0:0:
256,192,5044,1,8,0:0:0:0:
256,192,5750,1,8,0:0:0:0:
256,192,6103,1,0,0:0:0:0:
256,192,6455,1,8,0:0:0:0:
256,192,6985,1,0,0:0:0:0:
256,192,7161,1,8,0:0:0:0:
256,192,7514,1,0,0:0:0:0:
256,192,7867,1,8,0:0:0:0:
256,192,8573,1,8,0:0:0:0:
256,192,8926,1,0,0:0:0:0:
256,192,9279,1,8,0:0:0:0:
256,192,9808,1,0,0:0:0:0:
256,192,9985,1,8,0:0:0:0:
256,192,11044,1,8,0:0:0:0:
256,192,11220,1,0,0:0:0:0:
256,192,11397,1,8,0:0:0:0:
256,192,11573,1,0,0:0:0:0:
256,192,11750,1,12,0:0:0:0:
256,192,12103,1,0,0:0:0:0:
256,192,12455,1,8,0:0:0:0:
256,192,12808,1,0,0:0:0:0:
256,192,12985,1,8,0:0:0:0:
256,192,13338,1,0,0:0:0:0:
256,192,14044,1,0,0:0:0:0:
256,192,14220,1,8,0:0:0:0:
256,192,14397,1,8,0:0:0:0:
256,192,14573,1,0,0:0:0:0:
256,192,14926,1,8,0:0:0:0:
256,192,15279,1,0,0:0:0:0:
256,192,15632,1,8,0:0:0:0:
256,192,15808,1,0,0:0:0:0:
256,192,16161,1,8,0:0:0:0:
256,192,17397,1,8,0:0:0:0:
256,192,17750,1,0,0:0:0:0:
256,192,18103,1,0,0:0:0:0:
256,192,18279,1,0,0:0:0:0:
256,192,18455,1,8,0:0:0:0:
256,192,18632,1,0,0:0:0:0:
256,192,18985,1,8,0:0:0:0:
224,192,19691,1,0,0:0:0:0:
256,192,19867,1,8,0:0:0:0:
256,192,20044,1,0,0:0:0:0:
288,192,20220,1,8,0:0:0:0:
256,192,20573,1,0,0:0:0:0:
256,192,20926,1,8,0:0:0:0:
256,192,21103,1,8,0:0:0:0:
256,192,21455,1,0,0:0:0:0:
256,192,21808,1,8,0:0:0:0:
224,192,23220,1,0,0:0:0:0:
256,192,23397,1,8,0:0:0:0:
256,192,23573,1,8,0:0:0:0:
256,192,23750,1,0,0:0:0:0:
256,192,24103,1,0,0:0:0:0:
256,192,24279,1,8,0:0:0:0:
256,192,24632,1,8,0:0:0:0:
256,192,24985,1,0,0:0:0:0:
256,192,25691,1,8,0:0:0:0:
256,192,25867,1,0,0:0:0:0:
256,192,26220,1,8,0:0:0:0:
256,192,26397,1,0,0:0:0:0:
256,192,26573,1,8,0:0:0:0:
256,192,26926,1,8,0:0:0:0:
256,192,27103,1,0,0:0:0:0:
256,192,27455,1,8,0:0:0:0:
256,192,27808,1,0,0:0:0:0:
224,192,28867,1,8,0:0:0:0:
256,192,29044,1,0,0:0:0:0:
224,192,29220,1,0,0:0:0:0:
224,192,29397,1,8,0:0:0:0:
224,192,29750,1,8,0:0:0:0:
224,192,29926,1,0,0:0:0:0:
224,192,30279,1,0,0:0:0:0:
224,192,30632,1,8,0:0:0:0:
224,192,31338,1,8,0:0:0:0:
224,192,31514,1,8,0:0:0:0:
224,192,31867,1,0,0:0:0:0:
224,192,32044,1,0,0:0:0:0:
224,192,32220,1,8,0:0:0:0:
224,192,32573,1,0,0:0:0:0:
224,192,32750,1,8,0:0:0:0:
224,160,34514,1,0,0:0:0:0:
224,192,34691,1,8,0:0:0:0:
224,192,34867,1,0,0:0:0:0:
192,192,35044,1,8,0:0:0:0:
192,192,35308,1,8,0:0:0:0:
192,192,35573,1,0,0:0:0:0:
192,192,35926,1,0,0:0:0:0:
192,192,36103,1,0,0:0:0:0:
192,192,36279,1,8,0:0:0:0:
192,192,36455,1,0,0:0:0:0:
192,192,36808,1,8,0:0:0:0:
192,192,37338,1,8,0:0:0:0:
192,192,37691,1,0,0:0:0:0:
192,192,37867,1,8,0:0:0:0:
192,192,38132,1,8,0:0:0:0:
192,192,38397,1,0,0:0:0:0:
192,192,38750,1,0,0:0:0:0:
224,192,38926,1,8,0:0:0:0:
224,192,39985,1,0,0:0:0:0:
224,192,40250,1,0,0:0:0:0:
224,192,40514,1,0,0:0:0:0:
192,192,40691,1,8,0:0:0:0:
192,192,40955,1,8,0:0:0:0:
192,192,41220,1,8,0:0:0:0:
192,192,41397,1,0,0:0:0:0:
192,192,41661,1,0,0:0:0:0:
192,192,41926,1,0,0:0:0:0:
192,192,42103,1,8,0:0:0:0:
192,192,42455,1,0,0:0:0:0:
224,192,42808,1,8,0:0:0:0:
224,192,43161,1,8,0:0:0:0:
224,192,43338,1,0,0:0:0:0:
224,192,43867,1,0,0:0:0:0:
224,192,44044,1,8,0:0:0:0:
224,192,45632,1,0,0:0:0:0:
256,192,46161,1,0,0:0:0:0:
256,192,46338,1,8,0:0:0:0:
256,192,46867,1,0,0:0:0:0:
256,192,47220,1,0,0:0:0:0:
256,192,47573,1,0,0:0:0:0:
256,192,47750,1,8,0:0:0:0:
256,192,48455,1,0,0:0:0:0:
256,192,48985,1,8,0:0:0:0:
256,192,49161,1,8,0:0:0:0:
256,192,49691,1,0,0:0:0:0:
256,192,50044,1,8,0:0:0:0:
256,192,50397,1,8,0:0:0:0:
256,192,50573,1,0,0:0:0:0:
256,192,51279,1,0,0:0:0:0:
256,192,51632,1,8,0:0:0:0:
256,192,51808,1,0,0:0:0:0:
256,192,51985,1,8,0:0:0:0:
256,192,52514,1,8,0:0:0:0:
256,192,52691,1,0,0:0:0:0:
256,192,52867,1,0,0:0:0:0:
256,192,53220,1,8,0:0:0:0:
256,192,53397,1,0,0:0:0:0:
256,192,53750,1,8,0:0:0:0:
256,192,54103,1,0,0:0:0:0:
256,192,54279,1,0,0:0:0:0:
256,192,54455,1,8,0:0:0:0:
256,192,54632,1,8,0:0:0:0:
256,192,54808,1,0,0:0:0:0:
256,192,54985,1,0,0:0:0:0:
256,192,55161,1,8,0:0:0:0:
256,192,55514,1,0,0:0:0:0:
256,192,56220,1,8,0:0:0:0:
256,192,56397,1,0,0:0:0:0:
256,192,56573,1,8,0:0:0:0:
256,192,56750,1,0,0:0:0:0:
256,192,56926,1,12,0:0:0:0:
256,192,57279,1,0,0:0:0:0:
256,192,57632,1,8,0:0:0:0:
256,192,57897,1,8,0:0:0:0:
256,192,58161,1,0,0:0:0:0:
256,192,58514,1,8,0:0:0:0:
256,192,58691,1,8,0:0:0:0:
256,192,58867,1,0,0:0:0:0:
256,192,59044,1,0,0:0:0:0:
256,192,59926,1,8,0:0:0:0:
256,192,60103,1,0,0:0:0:0:
256,192,60279,1,8,0:0:0:0:
256,192,60455,1,8,0:0:0:0:
256,192,60720,1,0,0:0:0:0:
256,192,60985,1,8,0:0:0:0:
256,192,61338,1,8,0:0:0:0:
256,192,61514,1,0,0:0:0:0:
256,192,61691,1,0,0:0:0:0:
256,192,61867,1,8,0:0:0:0:
256,192,62220,1,0,0:0:0:0:
256,192,62397,1,0,0:0:0:0:
256,192,62573,1,8,0:0:0:0:
256,192,62926,1,0,0:0:0:0:
256,192,63279,1,8,0:0:0:0:
256,192,63632,1,0,0:0:0:0:
256,192,63808,1,8,0:0:0:0:
256,192,64161,1,0,0:0:0:0:
256,192,64514,1,8,0:0:0:0:
256,192,65044,1,8,0:0:0:0:
256,192,65220,1,0,0:0:0:0:
256,192,65750,1,0,0:0:0:0:
256,192,65926,1,0,0:0:0:0:
256,192,66455,1,0,0:0:0:0:
256,192,66632,1,8,0:0:0:0:
256,192,68044,1,0,0:0:0:0:
256,192,68220,1,12,0:0:0:0:
256,160,68573,1,0,0:0:0:0:
256,160,68926,1,8,0:0:0:0:
256,160,69191,1,8,0:0:0:0:
256,160,69455,1,0,0:0:0:0:
256,160,69808,1,0,0:0:0:0:
256,192,69985,1,8,0:0:0:0:
256,192,70161,1,8,0:0:0:0:
256,192,70338,1,0,0:0:0:0:
256,192,71220,1,0,0:0:0:0:
256,192,71397,1,8,0:0:0:0:
256,192,71573,1,0,0:0:0:0:
256,192,71750,1,8,0:0:0:0:
256,192,72014,1,0,0:0:0:0:
256,192,72279,1,8,0:0:0:0:
256,192,72632,1,8,0:0:0:0:
256,192,72808,1,8,0:0:0:0:
256,192,72985,1,0,0:0:0:0:
256,192,73161,1,8,0:0:0:0:
256,192,73514,1,0,0:0:0:0:
256,192,73691,1,0,0:0:0:0:
256,192,73867,1,8,0:0:0:0:
256,192,74220,1,8,0:0:0:0:
256,192,74573,1,0,0:0:0:0:
256,192,74926,1,8,0:0:0:0:
256,192,75103,1,0,0:0:0:0:
256,192,75455,1,0,0:0:0:0:
256,192,75808,1,8,0:0:0:0:
256,192,76338,1,0,0:0:0:0:
256,192,76514,1,8,0:0:0:0:
256,192,77044,1,8,0:0:0:0:
256,192,77220,1,8,0:0:0:0:
256,192,77750,1,8,0:0:0:0:
256,192,77926,1,0,0:0:0:0:
256,192,79514,1,12,0:0:0:0:
256,192,79867,1,8,0:0:0:0:
256,192,80220,1,8,0:0:0:0:
256,192,80397,1,0,0:0:0:0:
256,192,80573,1,0,0:0:0:0:
256,192,80750,1,8,0:0:0:0:
262,187,81103,1,0,0:0:0:0:
256,192,81808,1,0,0:0:0:0:
256,192,81985,1,8,0:0:0:0:
256,192,82338,1,0,0:0:0:0:
256,192,82691,1,0,0:0:0:0:
256,192,83044,1,8,0:0:0:0:
256,160,83220,1,0,0:0:0:0:
256,160,83397,1,8,0:0:0:0:
256,160,83573,1,8,0:0:0:0:
262,187,83926,1,8,0:0:0:0:
256,192,85161,1,8,0:0:0:0:
256,192,85514,1,0,0:0:0:0:
256,192,85867,1,8,0:0:0:0:
256,160,86044,1,0,0:0:0:0:
256,160,86220,1,0,0:0:0:0:
256,160,86397,1,8,0:0:0:0:
262,187,86750,1,0,0:0:0:0:
256,160,87455,1,0,0:0:0:0:
256,160,87632,1,8,0:0:0:0:
256,192,87985,1,0,0:0:0:0:
256,192,88338,1,8,0:0:0:0:
256,192,88691,1,0,0:0:0:0:
256,192,88867,1,8,0:0:0:0:
256,192,89044,1,0,0:0:0:0:
256,192,89220,1,8,0:0:0:0:
262,187,89573,1,8,0:0:0:0:
256,192,90985,1,0,0:0:0:0:
256,192,91161,1,0,0:0:0:0:
256,192,91338,1,8,0:0:0:0:
256,192,91514,1,0,0:0:0:0:
256,192,91867,1,8,0:0:0:0:
256,192,92044,1,0,0:0:0:0:
256,192,92397,1,8,0:0:0:0:
256,192,92750,1,0,0:0:0:0:
256,192,93808,1,8,0:0:0:0:
256,192,94161,1,0,0:0:0:0:
256,192,94338,1,8,0:0:0:0:
256,192,94691,1,0,0:0:0:0:
256,192,94867,1,0,0:0:0:0:
256,192,95220,1,8,0:0:0:0:
256,192,95573,1,8,0:0:0:0:
256,192,96632,1,0,0:0:0:0:
256,192,96808,1,0,0:0:0:0:
256,192,96985,1,8,0:0:0:0:
256,192,97161,1,0,0:0:0:0:
256,192,97514,1,8,0:0:0:0:
256,192,97691,1,8,0:0:0:0:
256,192,98044,1,0,0:0:0:0:
256,192,98397,1,8,0:0:0:0:
256,192,98926,1,0,0:0:0:0:
256,192,99103,1,8,0:0:0:0:
224,192,99632,1,8,0:0:0:0:
224,192,99808,1,8,0:0:0:0:
224,192,100338,1,8,0:0:0:0:
256,192,100514,1,0,0:0:0:0:
256,192,102279,1,0,0:0:0:0:
256,192,102455,1,8,0:0:0:0:
256,192,102632,1,0,0:0:0:0:
256,192,102808,1,8,0:0:0:0:
256,160,103073,1,8,0:0:0:0:
256,160,103338,1,0,0:0:0:0:
256,192,103691,1,8,0:0:0:0:
256,192,103867,1,0,0:0:0:0:
256,192,104044,1,0,0:0:0:0:
256,192,104220,1,8,0:0:0:0:
256,192,104573,1,0,0:0:0:0:
256,192,105103,1,8,0:0:0:0:
256,192,105279,1,0,0:0:0:0:
256,192,105632,1,8,0:0:0:0:
256,192,105897,1,0,0:0:0:0:
256,192,106161,1,8,0:0:0:0:
224,192,106514,1,0,0:0:0:0:
256,192,106691,1,8,0:0:0:0:
256,192,107750,1,0,0:0:0:0:
256,192,108014,1,0,0:0:0:0:
256,192,108279,1,0,0:0:0:0:
256,192,108455,1,8,0:0:0:0:
256,192,108720,1,8,0:0:0:0:
256,192,108985,1,8,0:0:0:0:
256,192,109161,1,0,0:0:0:0:
256,192,109426,1,0,0:0:0:0:
256,192,109691,1,0,0:0:0:0:
256,192,109867,1,8,0:0:0:0:
256,192,110220,1,0,0:0:0:0:
256,192,110573,1,8,0:0:0:0:
256,192,110926,1,0,0:0:0:0:
256,192,111103,1,8,0:0:0:0:
256,192,111632,1,8,0:0:0:0:
256,192,111808,1,0,0:0:0:0:
256,192,113397,1,8,0:0:0:0:
256,192,113926,1,0,0:0:0:0:
256,192,114103,1,8,0:0:0:0:
256,192,114632,1,0,0:0:0:0:
256,192,114985,1,0,0:0:0:0:
256,192,115338,1,8,0:0:0:0:
256,192,115514,1,0,0:0:0:0:
256,192,116220,1,8,0:0:0:0:
256,192,116750,1,0,0:0:0:0:
256,192,116926,1,8,0:0:0:0:
256,192,117455,1,0,0:0:0:0:
256,192,117808,1,8,0:0:0:0:
256,192,118161,1,8,0:0:0:0:
256,192,118338,1,0,0:0:0:0:
256,192,119044,1,0,0:0:0:0:
256,192,119397,1,8,0:0:0:0:
256,192,119573,1,0,0:0:0:0:
256,192,119750,1,8,0:0:0:0:
256,192,120279,1,0,0:0:0:0:
288,192,120455,1,0,0:0:0:0:
256,192,120632,1,8,0:0:0:0:
256,192,120985,1,8,0:0:0:0:
256,192,121161,1,0,0:0:0:0:
256,192,121514,1,8,0:0:0:0:
256,192,121867,1,0,0:0:0:0:
256,192,122044,1,8,0:0:0:0:
256,192,122220,1,0,0:0:0:0:
256,192,122397,1,0,0:0:0:0:
256,192,122573,1,8,0:0:0:0:
256,192,122750,1,0,0:0:0:0:
256,192,122926,1,8,0:0:0:0:
256,192,123279,1,0,0:0:0:0:
256,192,123985,1,0,0:0:0:0:
256,192,124161,1,8,0:0:0:0:
256,192,124338,1,0,0:0:0:0:
256,192,124514,1,0,0:0:0:0:
256,192,124691,1,12,0:0:0:0:
256,192,125044,1,0,0:0:0:0:
256,192,125397,1,8,0:0:0:0:
256,192,125661,1,0,0:0:0:0:
256,192,125926,1,8,0:0:0:0:
256,192,126279,1,0,0:0:0:0:
256,192,126455,1,8,0:0:0:0:
256,192,126632,1,8,0:0:0:0:
256,192,126808,1,0,0:0:0:0:
256,192,127691,1,8,0:0:0:0:
256,192,127867,1,0,0:0:0:0:
256,192,128044,1,0,0:0:0:0:
256,192,128220,1,8,0:0:0:0:
256,192,128485,1,8,0:0:0:0:
256,192,128750,1,0,0:0:0:0:
256,192,129103,1,0,0:0:0:0:
256,192,129279,1,8,0:0:0:0:
256,192,129455,1,8,0:0:0:0:
256,192,129632,1,8,0:0:0:0:
256,192,129985,1,0,0:0:0:0:
256,192,130161,1,8,0:0:0:0:
256,192,130338,1,0,0:0:0:0:
256,192,130691,1,0,0:0:0:0:
256,192,131044,1,8,0:0:0:0:
256,192,131397,1,8,0:0:0:0:
256,192,131573,1,0,0:0:0:0:
256,192,131926,1,0,0:0:0:0:
256,192,132279,1,8,0:0:0:0:
256,192,132808,1,8,0:0:0:0:
256,192,132985,1,0,0:0:0:0:
256,192,133514,1,0,0:0:0:0:
256,192,133691,1,0,0:0:0:0:
256,192,134220,1,0,0:0:0:0:
256,192,134397,1,8,0:0:0:0:
256,192,135808,1,0,0:0:0:0:
256,192,135985,1,12,0:0:0:0:
256,160,136338,1,8,0:0:0:0:
256,160,136691,1,0,0:0:0:0:
256,160,136867,1,8,0:0:0:0:
256,160,137044,1,0,0:0:0:0:
256,160,137397,1,0,0:0:0:0:
256,192,137750,1,8,0:0:0:0:
256,192,137926,1,8,0:0:0:0:
256,192,138103,1,0,0:0:0:0:
256,192,138808,1,8,0:0:0:0:
256,192,138985,1,8,0:0:0:0:
256,192,139161,1,0,0:0:0:0:
256,192,139338,1,0,0:0:0:0:
256,192,139514,1,8,0:0:0:0:
256,192,139867,1,0,0:0:0:0:
256,192,140220,1,8,0:0:0:0:
256,192,140397,1,8,0:0:0:0:
256,192,140573,1,0,0:0:0:0:
256,192,140926,1,8,0:0:0:0:
256,192,141632,1,0,0:0:0:0:
256,192,141985,1,8,0:0:0:0:
256,192,142338,1,0,0:0:0:0:
256,192,142691,1,8,0:0:0:0:
256,192,142867,1,0,0:0:0:0:
256,192,143044,1,8,0:0:0:0:
256,192,143397,1,0,0:0:0:0:
256,192,143750,1,8,0:0:0:0:
256,192,144103,1,0,0:0:0:0:
256,192,144279,1,8,0:0:0:0:
256,192,144808,1,8,0:0:0:0:
256,192,144985,1,8,0:0:0:0:
256,192,145514,1,8,0:0:0:0:
256,192,145691,1,0,0:0:0:0:
256,192,145867,1,8,0:0:0:0:
256,192,146220,1,8,0:0:0:0:
256,192,146573,1,8,0:0:0:0:
256,192,146926,1,8,0:0:0:0:
224,192,147279,1,0,0:0:0:0:
224,192,147455,1,0,0:0:0:0:
224,192,147632,1,8,0:0:0:0:
256,192,147808,1,8,0:0:0:0:
224,192,147985,1,0,0:0:0:0:
224,192,148161,1,0,0:0:0:0:
224,192,148338,1,8,0:0:0:0:
256,192,148691,1,0,0:0:0:0:
256,192,149397,1,8,0:0:0:0:
256,192,150103,1,0,0:0:0:0:
256,160,150808,1,8,0:0:0:0:
256,160,151514,1,0,0:0:0:0:
256,160,152220,1,8,0:0:0:0:
256,160,152926,1,0,0:0:0:0:
256,160,153632,1,8,0:0:0:0:
256,160,153985,1,8,0:0:0:0:
256,160,154338,1,0,0:0:0:0:
256,160,155044,1,8,0:0:0:0:
256,160,155750,1,0,0:0:0:0:
256,160,156455,1,8,0:0:0:0:
256,160,157161,1,0,0:0:0:0:
256,160,157867,1,8,0:0:0:0:
256,160,158573,1,0,0:0:0:0:
256,160,159279,1,8,0:0:0:0:
256,160,159632,1,0,0:0:0:0:
256,160,159808,1,0,0:0:0:0:
256,160,159985,1,8,0:0:0:0:
256,160,160161,1,0,0:0:0:0:
256,160,160514,1,8,0:0:0:0:
256,160,160691,1,0,0:0:0:0:
256,160,160867,1,8,0:0:0:0:
256,160,161220,1,0,0:0:0:0:
256,160,161573,1,8,0:0:0:0:
256,160,161926,1,0,0:0:0:0:
256,160,162103,1,0,0:0:0:0:
256,160,162808,1,8,0:0:0:0:
256,160,162985,1,0,0:0:0:0:
256,160,163338,1,8,0:0:0:0:
256,160,163514,1,8,0:0:0:0:
256,160,163691,1,0,0:0:0:0:
256,160,164044,1,0,0:0:0:0:
256,160,164397,1,8,0:0:0:0:
256,160,164750,1,0,0:0:0:0:
256,160,164926,1,0,0:0:0:0:
256,160,165632,1,8,0:0:0:0:
256,160,165808,1,0,0:0:0:0:
256,160,166161,1,8,0:0:0:0:
256,160,166338,1,0,0:0:0:0:
256,160,166514,1,8,0:0:0:0:
256,160,166867,1,0,0:0:0:0:
256,160,167220,1,8,0:0:0:0:
256,160,167573,1,8,0:0:0:0:
256,160,167750,1,0,0:0:0:0:
256,160,168455,1,0,0:0:0:0:
256,160,168632,1,0,0:0:0:0:
256,160,168985,1,8,0:0:0:0:
256,160,169161,1,8,0:0:0:0:
256,160,169338,1,0,0:0:0:0:
256,160,169691,1,8,0:0:0:0:
256,160,170044,1,0,0:0:0:0:
256,160,170397,1,8,0:0:0:0:
256,160,170573,1,0,0:0:0:0:
256,192,171279,1,8,0:0:0:0:
256,192,171455,1,0,0:0:0:0:
256,192,171632,1,8,0:0:0:0:
256,192,171808,1,0,0:0:0:0:
256,192,171985,1,12,0:0:0:0:
256,192,172337,1,8,0:0:0:0:
256,192,172690,1,0,0:0:0:0:
256,192,173220,1,8,0:0:0:0:
256,192,173573,1,0,0:0:0:0:
256,192,173749,1,8,0:0:0:0:
256,192,174102,1,0,0:0:0:0:
256,192,174985,1,0,0:0:0:0:
288,192,175161,1,0,0:0:0:0:
256,192,175514,1,8,0:0:0:0:
256,192,176043,1,0,0:0:0:0:
256,192,176396,1,8,0:0:0:0:
256,192,176573,1,0,0:0:0:0:
256,192,176926,1,8,0:0:0:0:
256,192,177632,1,0,0:0:0:0:
256,192,177985,1,0,0:0:0:0:
256,192,178337,1,8,0:0:0:0:
256,160,178690,1,0,0:0:0:0:
256,192,178867,1,0,0:0:0:0:
256,192,179220,1,8,0:0:0:0:
256,192,179573,1,0,0:0:0:0:
256,192,180102,1,8,0:0:0:0:
256,192,180279,1,0,0:0:0:0:
288,192,180808,1,0,0:0:0:0:
256,192,180985,1,0,0:0:0:0:
256,192,181514,1,0,0:0:0:0:
256,192,181690,1,8,0:0:0:0:
256,192,182573,1,0,0:0:0:0:
256,192,182749,1,0,0:0:0:0:
256,192,182926,1,8,0:0:0:0:
256,192,183102,1,0,0:0:0:0:
256,192,183279,1,12,0:0:0:0:
256,192,183632,1,0,0:0:0:0:
256,192,183985,1,8,0:0:0:0:
256,192,184249,1,0,0:0:0:0:
256,192,184514,1,8,0:0:0:0:
256,192,184867,1,0,0:0:0:0:
256,192,185043,1,8,0:0:0:0:
256,192,185220,1,8,0:0:0:0:
256,192,185396,1,0,0:0:0:0:
256,192,186279,1,8,0:0:0:0:
256,192,186455,1,0,0:0:0:0:
256,192,186632,1,0,0:0:0:0:
256,192,186808,1,8,0:0:0:0:
256,192,187073,1,8,0:0:0:0:
256,192,187337,1,0,0:0:0:0:
256,192,187690,1,0,0:0:0:0:
256,192,187867,1,8,0:0:0:0:
256,192,188043,1,8,0:0:0:0:
256,192,188220,1,8,0:0:0:0:
256,192,188573,1,0,0:0:0:0:
256,192,188749,1,8,0:0:0:0:
256,192,188926,1,0,0:0:0:0:
256,192,189279,1,0,0:0:0:0:
256,192,189632,1,8,0:0:0:0:
256,192,189985,1,8,0:0:0:0:
256,192,190161,1,0,0:0:0:0:
256,192,190514,1,0,0:0:0:0:
256,192,190867,1,8,0:0:0:0:
256,192,191396,1,8,0:0:0:0:
256,192,191573,1,0,0:0:0:0:
256,192,192102,1,0,0:0:0:0:
256,192,192279,1,0,0:0:0:0:
256,192,192808,1,0,0:0:0:0:
256,192,192985,1,8,0:0:0:0:
256,192,194573,1,12,0:0:0:0:
256,160,194926,1,8,0:0:0:0:
256,160,195279,1,8,0:0:0:0:
256,160,195455,1,0,0:0:0:0:
256,160,195632,1,8,0:0:0:0:
256,160,195808,1,0,0:0:0:0:
256,160,196161,1,8,0:0:0:0:
256,160,196867,1,0,0:0:0:0:
256,160,197043,1,0,0:0:0:0:
256,160,197396,1,8,0:0:0:0:
256,160,197749,1,0,0:0:0:0:
256,160,198102,1,8,0:0:0:0:
256,160,198279,1,0,0:0:0:0:
256,160,198455,1,0,0:0:0:0:
256,160,198632,1,8,0:0:0:0:
256,160,198984,1,0,0:0:0:0:
256,160,200220,1,8,0:0:0:0:
256,160,200573,1,8,0:0:0:0:
256,160,200926,1,8,0:0:0:0:
256,160,201102,1,8,0:0:0:0:
256,160,201279,1,0,0:0:0:0:
256,160,201455,1,0,0:0:0:0:
224,160,201808,1,8,0:0:0:0:
256,160,202514,1,0,0:0:0:0:
256,160,202690,1,0,0:0:0:0:
256,160,203043,1,8,0:0:0:0:
256,160,203396,1,0,0:0:0:0:
256,160,203749,1,8,0:0:0:0:
256,160,203926,1,8,0:0:0:0:
256,160,204102,1,8,0:0:0:0:
256,160,204279,1,8,0:0:0:0:
