osu file format v14

[General]
AudioFilename: audio.ogg
AudioLeadIn: 0
PreviewTime: 56593
Countdown: 0
SampleSet: Normal
StackLeniency: 0.7
Mode: 1
LetterboxInBreaks: 0
WidescreenStoryboard: 1

[Editor]
Bookmarks: 23064,35505,38240,45652,68240
DistanceSpacing: 1.1
BeatDivisor: 4
GridSize: 8
TimelineZoom: 2.2

[Metadata]
Title:Vitamin SUMMER!
TitleUnicode:ビタミンSUMMER!
Artist:Liella!
ArtistUnicode:Liella!
Creator:Sammu
Version:Maruko's Muzukashii
Source:ラブライブ!スーパースター!!
Tags:arcpotato -Maruko- raynald pop jpop j-pop anime japanese LACM-24313 LACM24313 love live! superstar!! 2期 Ni-ki 2-ki S2 season 2 lovelive! school idol project insert song ヒゲドライバー hige driver 澁谷かのん shibuya kanon 伊達さゆり date sayuri 唐可可 唐 可可 táng kěkě tang keke tan kuukuu タン クゥクゥ Liyuu 嵐千砂都 嵐 千砂都 arashi chisato 岬なこ misaki nako 平安名すみれ heanna sumire ペイトン尚未 payton naomi 葉月恋 葉月 恋 hazuki ren 青山なぎさ aoyama nagisa 桜小路きな子 sakurakouji kinako 鈴原希実 suzuhara nozomi 米女メイ yoneme mei 薮島朱音 yabushima akane 若菜四季 wakana shiki 大熊和奏 okuma ohkuma wakana 鬼塚夏美 onitsuka natsumi 絵森彩 絵森 彩 emori aya
BeatmapID:3840905
BeatmapSetID:1865964

[Difficulty]
HPDrainRate:6
CircleSize:5
OverallDifficulty:5
ApproachRate:5
SliderMultiplier:1.4
SliderTickRate:1

[Events]
//Background and Video events
0,0,"coconut.jpg",0,-130
//Break Periods
//Storyboard Layer 0 (Background)
//Storyboard Layer 1 (Fail)
//Storyboard Layer 2 (Pass)
//Storyboard Layer 3 (Foreground)
//Storyboard Layer 4 (Overlay)
//Storyboard Sound Samples

[TimingPoints]
456,352.941176470588,4,1,0,100,1,0
56926,-100,4,1,0,100,0,1
79514,-100,4,1,0,100,0,0
124691,-100,4,1,0,100,0,1
147279,-100,4,1,0,100,0,0
171985,352.941176470588,4,1,0,100,1,0
183279,-100,4,1,0,100,0,1
194573,-100,4,1,0,100,0,0

[HitObjects]
259,193,456,5,0,0:0:0:0:
259,193,808,1,8,0:0:0:0:
259,193,1338,1,0,0:0:0:0:
259,193,1514,1,8,0:0:0:0:
259,193,1867,1,0,0:0:0:0:
259,193,2220,1,8,0:0:0:0:
259,193,2750,1,0,0:0:0:0:
259,193,2926,1,8,0:0:0:0:
259,193,3279,1,0,0:0:0:0:
259,193,3632,1,8,0:0:0:0:
259,193,4161,1,0,0:0:0:0:
259,193,4338,1,8,0:0:0:0:
259,193,4691,1,0,0:0:0:0:
259,193,5044,1,8,0:0:0:0:
259,193,5573,1,0,0:0:0:0:
259,193,5750,1,8,0:0:0:0:
259,193,6103,1,0,0:0:0:0:
259,193,6455,1,8,0:0:0:0:
259,193,6985,1,0,0:0:0:0:
259,193,7161,1,8,0:0:0:0:
259,193,7514,1,0,0:0:0:0:
259,193,7867,1,8,0:0:0:0:
259,193,8397,1,0,0:0:0:0:
259,193,8573,1,8,0:0:0:0:
259,193,8926,1,0,0:0:0:0:
259,193,9279,1,8,0:0:0:0:
259,193,9808,1,0,0:0:0:0:
259,193,9985,1,8,0:0:0:0:
259,193,11044,1,8,0:0:0:0:
259,193,11132,1,8,0:0:0:0:
259,193,11220,1,8,0:0:0:0:
259,193,11397,1,0,0:0:0:0:
259,193,11485,1,0,0:0:0:0:
259,193,11573,1,0,0:0:0:0:
259,193,11750,1,12,0:0:0:0:
259,193,12103,1,0,0:0:0:0:
259,193,12279,1,8,0:0:0:0:
259,193,12455,1,8,0:0:0:0:
259,193,12632,1,0,0:0:0:0:
259,193,12985,1,8,0:0:0:0:
259,193,13161,1,0,0:0:0:0:
259,193,13338,1,0,0:0:0:0:
259,193,13514,1,8,0:0:0:0:
259,193,13867,1,0,0:0:0:0:
259,193,14044,1,0,0:0:0:0:
259,193,14220,1,8,0:0:0:0:
259,193,14397,1,8,0:0:0:0:
259,193,14573,1,0,0:0:0:0:
259,193,14926,1,8,0:0:0:0:
259,193,15103,1,0,0:0:0:0:
259,193,15279,1,0,0:0:0:0:
259,193,15455,1,0,0:0:0:0:
259,193,15808,1,12,0:0:0:0:
259,193,15985,1,0,0:0:0:0:
259,193,16338,1,8,0:0:0:0:
259,193,16867,1,12,0:0:0:0:
259,193,17132,1,12,0:0:0:0:
259,193,17397,1,12,0:0:0:0:
89,287,17750,1,0,0:0:0:0:
259,193,18279,1,0,0:0:0:0:
259,193,18455,1,8,0:0:0:0:
259,193,18632,1,8,0:0:0:0:
259,193,18808,1,0,0:0:0:0:
259,193,18985,1,0,0:0:0:0:
259,193,19161,1,8,0:0:0:0:
259,193,19514,1,0,0:0:0:0:
259,193,19691,1,0,0:0:0:0:
259,193,19867,1,8,0:0:0:0:
259,193,20220,1,4,0:0:0:0:
259,193,20573,1,8,0:0:0:0:
259,193,20750,1,0,0:0:0:0:
259,193,20926,1,0,0:0:0:0:
259,193,21103,1,0,0:0:0:0:
259,193,21279,1,8,0:0:0:0:
259,193,21455,1,0,0:0:0:0:
259,193,22514,1,12,0:0:0:0:
259,193,22779,1,12,0:0:0:0:
259,193,23044,1,4,0:0:0:0:
259,193,23397,1,8,0:0:0:0:
259,193,23926,1,0,0:0:0:0:
259,193,24103,1,8,0:0:0:0:
259,193,24279,1,0,0:0:0:0:
259,193,24455,1,0,0:0:0:0:
259,193,24808,1,8,0:0:0:0:
259,193,25338,1,8,0:0:0:0:
259,193,25514,1,8,0:0:0:0:
259,193,25867,1,0,0:0:0:0:
259,193,26220,1,8,0:0:0:0:
259,193,26750,1,0,0:0:0:0:
259,193,26926,1,8,0:0:0:0:
259,193,27103,1,0,0:0:0:0:
259,193,27279,1,0,0:0:0:0:
259,193,28161,1,12,0:0:0:0:
259,193,28426,1,12,0:0:0:0:
259,193,28691,1,12,0:0:0:0:
259,193,29044,1,8,0:0:0:0:
259,193,29573,1,0,0:0:0:0:
259,193,29750,1,8,0:0:0:0:
259,193,29926,1,0,0:0:0:0:
259,193,30103,1,0,0:0:0:0:
259,193,30985,1,8,0:0:0:0:
259,193,31161,1,8,0:0:0:0:
259,193,31514,1,0,0:0:0:0:
259,193,31867,1,8,0:0:0:0:
259,193,32397,1,0,0:0:0:0:
259,193,32573,1,8,0:0:0:0:
259,193,32750,1,0,0:0:0:0:
259,193,33808,1,12,0:0:0:0:
259,193,34073,1,12,0:0:0:0:
259,193,34338,1,4,0:0:0:0:
259,193,34691,1,8,0:0:0:0:
259,193,35220,1,0,0:0:0:0:
259,193,35397,1,8,0:0:0:0:
259,193,35573,1,8,0:0:0:0:
259,193,35750,1,0,0:0:0:0:
259,193,35926,1,8,0:0:0:0:
259,193,36103,1,8,0:0:0:0:
259,193,36455,1,0,0:0:0:0:
259,193,36632,1,0,0:0:0:0:
259,193,36808,1,8,0:0:0:0:
259,193,37161,1,0,0:0:0:0:
259,193,37514,1,8,0:0:0:0:
259,193,37691,1,0,0:0:0:0:
259,193,38044,1,0,0:0:0:0:
259,193,38220,1,8,0:0:0:0:
259,193,38397,1,0,0:0:0:0:
259,193,38573,1,0,0:0:0:0:
259,193,38750,1,8,0:0:0:0:
259,193,38926,1,0,0:0:0:0:
259,193,39455,1,12,0:0:0:0:
259,193,39720,1,12,0:0:0:0:
259,193,39985,1,4,0:0:0:0:
259,193,40338,1,8,0:0:0:0:
259,193,40867,1,0,0:0:0:0:
259,193,41044,1,8,0:0:0:0:
259,193,41397,1,0,0:0:0:0:
259,193,41573,1,0,0:0:0:0:
259,193,41750,1,8,0:0:0:0:
259,193,42103,1,8,0:0:0:0:
259,193,42279,1,0,0:0:0:0:
259,193,42455,1,12,0:0:0:0:
259,193,42808,1,4,0:0:0:0:
259,193,43161,1,12,0:0:0:0:
259,193,43691,1,0,0:0:0:0:
259,193,43867,1,8,0:0:0:0:
259,193,44044,1,8,0:0:0:0:
259,193,44220,1,0,0:0:0:0:
259,193,44573,1,8,0:0:0:0:
259,193,44926,1,0,0:0:0:0:
259,193,45103,1,12,0:0:0:0:
259,193,45367,1,12,0:0:0:0:
259,193,45632,1,0,0:0:0:0:
259,193,45985,1,0,0:0:0:0:
259,193,46338,1,0,0:0:0:0:
259,193,46691,1,0,0:0:0:0:
259,193,47044,1,0,0:0:0:0:
259,193,47397,1,0,0:0:0:0:
259,193,47750,1,0,0:0:0:0:
259,193,48103,1,0,0:0:0:0:
259,193,48455,1,8,0:0:0:0:
259,193,48808,1,8,0:0:0:0:
259,193,49161,1,8,0:0:0:0:
259,193,49514,1,8,0:0:0:0:
259,193,49867,1,8,0:0:0:0:
259,193,50220,1,8,0:0:0:0:
259,193,50573,1,8,0:0:0:0:
259,193,50926,1,8,0:0:0:0:
259,193,51279,1,0,0:0:0:0:
259,193,51455,1,0,0:0:0:0:
259,193,51632,1,8,0:0:0:0:
259,193,51985,1,0,0:0:0:0:
259,193,52161,1,0,0:0:0:0:
259,193,52338,1,8,0:0:0:0:
259,193,52514,1,8,0:0:0:0:
259,193,52691,1,0,0:0:0:0:
259,193,53044,1,0,0:0:0:0:
259,193,53397,1,8,0:0:0:0:
259,193,53573,1,0,0:0:0:0:
259,193,53750,1,8,0:0:0:0:
259,193,54103,1,8,0:0:0:0:
259,193,54191,1,8,0:0:0:0:
259,193,54279,1,8,0:0:0:0:
259,193,54455,1,0,0:0:0:0:
259,193,54632,1,0,0:0:0:0:
259,193,54808,1,8,0:0:0:0:
259,193,54897,1,8,0:0:0:0:
259,193,54985,1,8,0:0:0:0:
259,193,55161,1,0,0:0:0:0:
259,193,55338,1,0,0:0:0:0:
259,193,55514,1,8,0:0:0:0:
259,193,56220,1,8,0:0:0:0:
259,193,56308,1,8,0:0:0:0:
259,193,56397,1,8,0:0:0:0:
259,193,56573,1,0,0:0:0:0:
259,193,56661,1,0,0:0:0:0:
259,193,56750,1,0,0:0:0:0:
259,193,56926,1,12,0:0:0:0:
259,193,57279,1,8,0:0:0:0:
259,193,57632,1,8,0:0:0:0:
259,193,57897,1,8,0:0:0:0:
259,193,58161,1,8,0:0:0:0:
203,165,58338,1,0,0:0:0:0:
259,193,58514,1,8,0:0:0:0:
259,193,58691,1,8,0:0:0:0:
259,193,59044,1,0,0:0:0:0:
259,193,59132,1,0,0:0:0:0:
259,193,59220,1,0,0:0:0:0:
259,193,59397,1,8,0:0:0:0:
259,193,59750,1,0,0:0:0:0:
259,193,60103,1,8,0:0:0:0:
259,193,60455,1,8,0:0:0:0:
259,193,60632,1,0,0:0:0:0:
291,197,60720,1,0,0:0:0:0:
250,187,60808,1,0,0:0:0:0:
259,193,60985,1,8,0:0:0:0:
259,193,61161,1,0,0:0:0:0:
259,193,61338,1,0,0:0:0:0:
259,193,61514,1,8,0:0:0:0:
259,193,61691,1,0,0:0:0:0:
250,187,62044,1,12,0:0:0:0:
250,187,62308,1,12,0:0:0:0:
259,193,62573,1,4,0:0:0:0:
250,187,62926,1,8,0:0:0:0:
250,187,63103,1,8,0:0:0:0:
250,187,63191,1,8,0:0:0:0:
250,187,63279,1,8,0:0:0:0:
259,193,63455,1,0,0:0:0:0:
250,187,63632,1,8,0:0:0:0:
250,187,63808,1,8,0:0:0:0:
250,187,63985,1,0,0:0:0:0:
259,193,64161,1,8,0:0:0:0:
250,187,64514,1,8,0:0:0:0:
250,187,64867,1,0,0:0:0:0:
250,187,65044,1,0,0:0:0:0:
259,193,65220,1,8,0:0:0:0:
250,187,65397,1,0,0:0:0:0:
250,187,65750,1,8,0:0:0:0:
250,187,65926,1,0,0:0:0:0:
250,187,66014,1,0,0:0:0:0:
259,193,66103,1,0,0:0:0:0:
250,187,66279,1,0,0:0:0:0:
250,187,66455,1,8,0:0:0:0:
250,187,66632,1,8,0:0:0:0:
250,187,66808,1,0,0:0:0:0:
250,187,67161,1,8,0:0:0:0:
250,187,67691,1,12,0:0:0:0:
250,187,67955,1,12,0:0:0:0:
259,193,68220,1,4,0:0:0:0:
259,193,68573,1,0,0:0:0:0:
259,193,68926,1,0,0:0:0:0:
259,193,69191,1,0,0:0:0:0:
259,193,69455,1,8,0:0:0:0:
203,165,69632,1,0,0:0:0:0:
259,193,69808,1,8,0:0:0:0:
259,193,69985,1,8,0:0:0:0:
259,193,70338,1,0,0:0:0:0:
259,193,70426,1,0,0:0:0:0:
259,193,70514,1,0,0:0:0:0:
259,193,70691,1,8,0:0:0:0:
259,193,71044,1,0,0:0:0:0:
259,193,71397,1,8,0:0:0:0:
259,193,71750,1,8,0:0:0:0:
259,193,71926,1,0,0:0:0:0:
291,197,72014,1,0,0:0:0:0:
259,193,72103,1,0,0:0:0:0:
259,193,72279,1,8,0:0:0:0:
259,193,72455,1,0,0:0:0:0:
259,193,72632,1,0,0:0:0:0:
259,193,72808,1,8,0:0:0:0:
259,193,72985,1,0,0:0:0:0:
250,187,73338,1,12,0:0:0:0:
250,187,73603,1,12,0:0:0:0:
259,193,73867,1,4,0:0:0:0:
250,187,74220,1,8,0:0:0:0:
250,187,74397,1,8,0:0:0:0:
250,187,74485,1,8,0:0:0:0:
250,187,74573,1,8,0:0:0:0:
259,193,74750,1,0,0:0:0:0:
250,187,74926,1,8,0:0:0:0:
250,187,75103,1,8,0:0:0:0:
250,187,75279,1,0,0:0:0:0:
259,193,75455,1,8,0:0:0:0:
250,187,75808,1,8,0:0:0:0:
250,187,76161,1,0,0:0:0:0:
250,187,76338,1,0,0:0:0:0:
259,193,76514,1,8,0:0:0:0:
250,187,76691,1,0,0:0:0:0:
250,187,77044,1,8,0:0:0:0:
250,187,77220,1,0,0:0:0:0:
250,187,77308,1,0,0:0:0:0:
259,193,77397,1,0,0:0:0:0:
250,187,77573,1,0,0:0:0:0:
250,187,77750,1,8,0:0:0:0:
250,187,77926,1,8,0:0:0:0:
250,187,78103,1,0,0:0:0:0:
250,187,78455,1,8,0:0:0:0:
250,187,78985,1,12,0:0:0:0:
250,187,79250,1,12,0:0:0:0:
250,187,79514,1,4,0:0:0:0:
250,187,79867,1,4,0:0:0:0:
250,187,80220,1,4,0:0:0:0:
250,187,80573,1,8,0:0:0:0:
250,187,80750,1,8,0:0:0:0:
250,187,80926,1,0,0:0:0:0:
250,187,81279,1,8,0:0:0:0:
250,187,81808,1,0,0:0:0:0:
250,187,81985,1,8,0:0:0:0:
250,187,82338,1,4,0:0:0:0:
250,187,82691,1,4,0:0:0:0:
250,187,83044,1,4,0:0:0:0:
250,187,83397,1,8,0:0:0:0:
250,187,83573,1,8,0:0:0:0:
250,187,83750,1,0,0:0:0:0:
250,187,84103,1,8,0:0:0:0:
250,187,84632,1,12,0:0:0:0:
250,187,84897,1,12,0:0:0:0:
250,187,85161,1,4,0:0:0:0:
250,187,85514,1,4,0:0:0:0:
250,187,85867,1,4,0:0:0:0:
250,187,86220,1,8,0:0:0:0:
250,187,86397,1,8,0:0:0:0:
250,187,86573,1,0,0:0:0:0:
250,187,86926,1,8,0:0:0:0:
250,187,87455,1,0,0:0:0:0:
250,187,87632,1,8,0:0:0:0:
250,187,87985,1,4,0:0:0:0:
250,187,88338,1,4,0:0:0:0:
250,187,88691,1,4,0:0:0:0:
250,187,89044,1,8,0:0:0:0:
250,187,89220,1,8,0:0:0:0:
250,187,89397,1,0,0:0:0:0:
250,187,89750,1,0,0:0:0:0:
250,187,90279,1,12,0:0:0:0:
250,187,90544,1,12,0:0:0:0:
250,187,90808,1,4,0:0:0:0:
250,187,92044,1,0,0:0:0:0:
250,187,93103,1,8,0:0:0:0:
250,187,93279,1,8,0:0:0:0:
250,187,93632,1,0,0:0:0:0:
250,187,94867,1,8,0:0:0:0:
268,200,95926,1,12,0:0:0:0:
268,200,96191,1,12,0:0:0:0:
268,200,96455,1,4,0:0:0:0:
268,200,96808,1,8,0:0:0:0:
268,200,97338,1,0,0:0:0:0:
268,200,97514,1,8,0:0:0:0:
268,200,97691,1,0,0:0:0:0:
268,200,98750,1,8,0:0:0:0:
268,200,98926,1,8,0:0:0:0:
268,200,99279,1,0,0:0:0:0:
268,200,99632,1,8,0:0:0:0:
268,200,100161,1,0,0:0:0:0:
268,200,100338,1,8,0:0:0:0:
268,200,100514,1,0,0:0:0:0:
242,188,101573,1,12,0:0:0:0:
242,188,101838,1,12,0:0:0:0:
242,188,102103,1,4,0:0:0:0:
242,188,102455,1,8,0:0:0:0:
242,188,102985,1,0,0:0:0:0:
242,188,103161,1,8,0:0:0:0:
242,188,103338,1,8,0:0:0:0:
242,188,103514,1,0,0:0:0:0:
242,188,103867,1,8,0:0:0:0:
242,188,104220,1,0,0:0:0:0:
242,188,104397,1,0,0:0:0:0:
242,188,104573,1,8,0:0:0:0:
242,188,104926,1,0,0:0:0:0:
242,188,105279,1,8,0:0:0:0:
242,188,105808,1,0,0:0:0:0:
242,188,105985,1,8,0:0:0:0:
242,188,106161,1,0,0:0:0:0:
242,188,106338,1,0,0:0:0:0:
242,188,106691,1,8,0:0:0:0:
242,188,107220,1,12,0:0:0:0:
242,188,107485,1,12,0:0:0:0:
242,188,107750,1,4,0:0:0:0:
242,188,108103,1,0,0:0:0:0:
242,188,108279,1,8,0:0:0:0:
242,188,108455,1,8,0:0:0:0:
242,188,108632,1,0,0:0:0:0:
242,188,108808,1,8,0:0:0:0:
242,188,109161,1,0,0:0:0:0:
242,188,109514,1,0,0:0:0:0:
297,197,109691,1,8,0:0:0:0:
251,190,109867,1,8,0:0:0:0:
242,188,110044,1,0,0:0:0:0:
242,188,110220,1,8,0:0:0:0:
242,188,110573,1,0,0:0:0:0:
242,188,110926,1,8,0:0:0:0:
242,188,111279,1,8,0:0:0:0:
242,188,111455,1,0,0:0:0:0:
242,188,111632,1,8,0:0:0:0:
296,206,111808,1,0,0:0:0:0:
242,188,111985,1,0,0:0:0:0:
242,188,112338,5,8,0:0:0:0:
242,188,112867,1,12,0:0:0:0:
259,193,113397,5,0,0:0:0:0:
259,193,113750,1,0,0:0:0:0:
259,193,114103,1,0,0:0:0:0:
259,193,114455,1,0,0:0:0:0:
259,193,114808,1,0,0:0:0:0:
259,193,115161,1,0,0:0:0:0:
259,193,115514,1,0,0:0:0:0:
259,193,115867,1,0,0:0:0:0:
259,193,116220,1,8,0:0:0:0:
259,193,116573,1,8,0:0:0:0:
259,193,116926,1,8,0:0:0:0:
259,193,117279,1,8,0:0:0:0:
259,193,117632,1,8,0:0:0:0:
259,193,117985,1,8,0:0:0:0:
259,193,118338,1,8,0:0:0:0:
259,193,118691,1,8,0:0:0:0:
259,193,119044,1,0,0:0:0:0:
259,193,119220,1,0,0:0:0:0:
259,193,119397,1,8,0:0:0:0:
259,193,119750,1,0,0:0:0:0:
259,193,119926,1,0,0:0:0:0:
259,193,120103,1,8,0:0:0:0:
259,193,120279,1,8,0:0:0:0:
259,193,120455,1,0,0:0:0:0:
259,193,120808,1,0,0:0:0:0:
259,193,121161,1,8,0:0:0:0:
259,193,121338,1,0,0:0:0:0:
259,193,121514,1,8,0:0:0:0:
259,193,121867,1,8,0:0:0:0:
259,193,121955,1,8,0:0:0:0:
259,193,122044,1,8,0:0:0:0:
259,193,122220,1,0,0:0:0:0:
259,193,122397,1,0,0:0:0:0:
259,193,122573,1,8,0:0:0:0:
259,193,122661,1,8,0:0:0:0:
259,193,122750,1,8,0:0:0:0:
259,193,122926,1,0,0:0:0:0:
259,193,123103,1,0,0:0:0:0:
259,193,123279,1,8,0:0:0:0:
259,193,123985,5,8,0:0:0:0:
259,193,124073,1,8,0:0:0:0:
259,193,124161,1,8,0:0:0:0:
259,193,124338,1,0,0:0:0:0:
259,193,124426,1,0,0:0:0:0:
259,193,124514,1,0,0:0:0:0:
259,193,124691,1,12,0:0:0:0:
259,193,125044,1,8,0:0:0:0:
259,193,125397,1,8,0:0:0:0:
259,193,125661,1,8,0:0:0:0:
259,193,125926,1,8,0:0:0:0:
203,165,126103,1,0,0:0:0:0:
259,193,126279,1,8,0:0:0:0:
259,193,126455,1,8,0:0:0:0:
259,193,126808,1,0,0:0:0:0:
259,193,126897,1,0,0:0:0:0:
259,193,126985,1,0,0:0:0:0:
259,193,127161,1,8,0:0:0:0:
259,193,127514,1,0,0:0:0:0:
259,193,127867,1,8,0:0:0:0:
259,193,128220,1,8,0:0:0:0:
259,193,128397,1,0,0:0:0:0:
291,197,128485,1,0,0:0:0:0:
250,187,128573,1,0,0:0:0:0:
259,193,128750,1,8,0:0:0:0:
259,193,128926,1,0,0:0:0:0:
259,193,129103,1,0,0:0:0:0:
259,193,129279,1,8,0:0:0:0:
259,193,129455,1,0,0:0:0:0:
250,187,129808,1,12,0:0:0:0:
250,187,130073,1,12,0:0:0:0:
259,193,130338,1,4,0:0:0:0:
250,187,130691,1,8,0:0:0:0:
250,187,130867,1,8,0:0:0:0:
250,187,130955,1,8,0:0:0:0:
250,187,131044,1,8,0:0:0:0:
259,193,131220,1,0,0:0:0:0:
250,187,131397,1,8,0:0:0:0:
250,187,131573,1,8,0:0:0:0:
250,187,131750,1,0,0:0:0:0:
259,193,131926,1,8,0:0:0:0:
250,187,132279,1,8,0:0:0:0:
250,187,132632,1,0,0:0:0:0:
250,187,132808,1,0,0:0:0:0:
259,193,132985,1,8,0:0:0:0:
250,187,133161,1,0,0:0:0:0:
250,187,133514,1,8,0:0:0:0:
250,187,133691,1,0,0:0:0:0:
250,187,133779,1,0,0:0:0:0:
259,193,133867,1,0,0:0:0:0:
250,187,134044,1,0,0:0:0:0:
250,187,134220,1,8,0:0:0:0:
250,187,134397,1,8,0:0:0:0:
250,187,134573,1,0,0:0:0:0:
250,187,134926,1,8,0:0:0:0:
250,187,135455,1,12,0:0:0:0:
250,187,135720,1,12,0:0:0:0:
250,187,135985,1,0,0:0:0:0:
250,187,136338,1,0,0:0:0:0:
250,187,136691,1,0,0:0:0:0:
250,187,136955,1,0,0:0:0:0:
250,187,137220,1,8,0:0:0:0:
250,187,137397,1,0,0:0:0:0:
250,187,137750,1,0,0:0:0:0:
250,187,138103,1,0,0:0:0:0:
250,187,138279,1,8,0:0:0:0:
250,187,138455,1,8,0:0:0:0:
250,187,138632,1,0,0:0:0:0:
250,187,138720,1,0,0:0:0:0:
250,187,138808,1,0,0:0:0:0:
250,187,139161,1,0,0:0:0:0:
250,187,139514,1,0,0:0:0:0:
250,187,139867,1,0,0:0:0:0:
250,187,140044,1,0,0:0:0:0:
250,187,140220,1,8,0:0:0:0:
250,187,140573,1,8,0:0:0:0:
250,187,140926,1,8,0:0:0:0:
250,187,141103,1,0,0:0:0:0:
250,187,141279,1,8,0:0:0:0:
250,187,141455,1,8,0:0:0:0:
250,187,141632,1,0,0:0:0:0:
250,187,141985,1,0,0:0:0:0:
295,218,142161,1,0,0:0:0:0:
275,204,142250,1,0,0:0:0:0:
250,187,142338,1,0,0:0:0:0:
250,187,142514,1,8,0:0:0:0:
250,187,142691,1,0,0:0:0:0:
250,187,142867,1,8,0:0:0:0:
250,187,143044,1,0,0:0:0:0:
250,187,143397,1,0,0:0:0:0:
250,187,143750,1,0,0:0:0:0:
250,187,144103,1,0,0:0:0:0:
250,187,144279,1,8,0:0:0:0:
250,187,144367,1,8,0:0:0:0:
250,187,144455,1,8,0:0:0:0:
250,187,144808,1,0,0:0:0:0:
250,187,144985,1,8,0:0:0:0:
250,187,145073,1,8,0:0:0:0:
250,187,145161,1,8,0:0:0:0:
250,187,145514,1,0,0:0:0:0:
250,187,145691,1,8,0:0:0:0:
250,187,145779,5,8,0:0:0:0:
250,187,145867,1,8,0:0:0:0:
250,187,146220,1,8,0:0:0:0:
250,187,146573,1,8,0:0:0:0:
250,187,146926,1,8,0:0:0:0:
165,227,147279,1,8,0:0:0:0:
250,187,147455,1,0,0:0:0:0:
250,187,147632,1,8,0:0:0:0:
250,187,147720,1,8,0:0:0:0:
250,187,147808,1,8,0:0:0:0:
250,187,147985,1,0,0:0:0:0:
250,187,148161,1,0,0:0:0:0:
250,187,148338,1,8,0:0:0:0:
250,187,148426,1,8,0:0:0:0:
250,187,148514,1,8,0:0:0:0:
250,187,148691,1,4,0:0:0:0:
250,187,149397,1,8,0:0:0:0:
250,187,150103,1,0,0:0:0:0:
250,187,150808,1,8,0:0:0:0:
250,187,151514,1,0,0:0:0:0:
250,187,152220,1,8,0:0:0:0:
250,187,152926,1,0,0:0:0:0:
250,187,153632,1,8,0:0:0:0:
250,187,153808,1,8,0:0:0:0:
250,187,153985,1,8,0:0:0:0:
250,187,154161,1,8,0:0:0:0:
250,187,154338,1,0,0:0:0:0:
250,187,155044,1,8,0:0:0:0:
250,187,155750,1,0,0:0:0:0:
250,187,156455,1,8,0:0:0:0:
250,187,157161,1,0,0:0:0:0:
250,187,157867,1,8,0:0:0:0:
250,187,158573,1,0,0:0:0:0:
250,187,159279,1,8,0:0:0:0:
250,187,159455,1,0,0:0:0:0:
250,187,159632,1,8,0:0:0:0:
250,187,159720,1,8,0:0:0:0:
250,187,159808,1,8,0:0:0:0:
250,187,159985,1,4,0:0:0:0:
250,187,160338,1,8,0:0:0:0:
250,187,160867,1,0,0:0:0:0:
250,187,161044,1,8,0:0:0:0:
250,187,161397,1,0,0:0:0:0:
250,187,161750,1,8,0:0:0:0:
250,187,161926,1,0,0:0:0:0:
250,187,162279,1,0,0:0:0:0:
250,187,162455,1,8,0:0:0:0:
250,187,162808,1,0,0:0:0:0:
250,187,163161,1,8,0:0:0:0:
250,187,163691,1,0,0:0:0:0:
250,187,163867,1,8,0:0:0:0:
250,187,164220,1,0,0:0:0:0:
250,187,164573,1,8,0:0:0:0:
250,187,164926,1,0,0:0:0:0:
250,187,165103,1,0,0:0:0:0:
250,187,165279,1,8,0:0:0:0:
250,187,165632,1,0,0:0:0:0:
250,187,165985,1,8,0:0:0:0:
250,187,166514,1,0,0:0:0:0:
250,187,166691,1,8,0:0:0:0:
250,187,167044,1,0,0:0:0:0:
250,187,167397,1,8,0:0:0:0:
250,187,167573,1,0,0:0:0:0:
250,187,167926,1,0,0:0:0:0:
250,187,168103,1,8,0:0:0:0:
250,187,168455,1,0,0:0:0:0:
250,187,168808,1,8,0:0:0:0:
250,187,169338,1,0,0:0:0:0:
250,187,169514,1,8,0:0:0:0:
250,187,169867,1,0,0:0:0:0:
87,187,170220,1,8,0:0:0:0:
250,187,170573,1,0,0:0:0:0:
250,187,170750,1,0,0:0:0:0:
250,187,170926,1,8,0:0:0:0:
250,187,171014,1,8,0:0:0:0:
250,187,171103,1,8,0:0:0:0:
250,187,171279,1,0,0:0:0:0:
255,190,171632,5,0,0:0:0:0:
255,190,171985,1,8,0:0:0:0:
255,190,172337,1,8,0:0:0:0:
255,190,172690,1,8,0:0:0:0:
255,190,172955,1,8,0:0:0:0:
255,190,173220,1,0,0:0:0:0:
255,190,173573,1,8,0:0:0:0:
255,190,173749,1,0,0:0:0:0:
255,190,173926,1,0,0:0:0:0:
255,190,174102,1,8,0:0:0:0:
255,190,174455,1,12,0:0:0:0:
255,190,174985,1,8,0:0:0:0:
255,190,175161,1,8,0:0:0:0:
255,190,175337,1,0,0:0:0:0:
255,190,175514,1,8,0:0:0:0:
255,190,175779,1,0,0:0:0:0:
255,190,176043,1,8,0:0:0:0:
255,190,176396,1,8,0:0:0:0:
255,190,176573,1,8,0:0:0:0:
255,190,176749,1,0,0:0:0:0:
255,190,176926,1,8,0:0:0:0:
255,190,177279,1,8,0:0:0:0:
255,190,177455,1,0,0:0:0:0:
255,190,177632,1,0,0:0:0:0:
255,190,177985,1,8,0:0:0:0:
255,190,178337,1,0,0:0:0:0:
165,239,178690,1,0,0:0:0:0:
255,190,178867,1,8,0:0:0:0:
225,206,179220,1,8,0:0:0:0:
255,190,179573,1,8,0:0:0:0:
421,202,180102,1,8,0:0:0:0:
347,201,180279,1,0,0:0:0:0:
255,190,180808,1,8,0:0:0:0:
255,190,180985,1,0,0:0:0:0:
255,190,181514,1,8,0:0:0:0:
255,190,181690,1,0,0:0:0:0:
255,190,182749,1,12,0:0:0:0:
255,190,183014,1,12,0:0:0:0:
259,193,183279,1,4,0:0:0:0:
259,193,183632,1,0,0:0:0:0:
259,193,183985,1,0,0:0:0:0:
259,193,184249,1,0,0:0:0:0:
259,193,184514,1,8,0:0:0:0:
203,165,184690,1,0,0:0:0:0:
259,193,184867,1,8,0:0:0:0:
259,193,185043,1,8,0:0:0:0:
259,193,185396,1,0,0:0:0:0:
259,193,185485,1,0,0:0:0:0:
259,193,185573,1,0,0:0:0:0:
259,193,185749,1,8,0:0:0:0:
259,193,186102,1,0,0:0:0:0:
259,193,186455,1,8,0:0:0:0:
259,193,186808,1,8,0:0:0:0:
259,193,186985,1,0,0:0:0:0:
291,197,187073,1,0,0:0:0:0:
259,193,187161,1,0,0:0:0:0:
259,193,187337,1,8,0:0:0:0:
259,193,187514,1,0,0:0:0:0:
259,193,187690,1,0,0:0:0:0:
259,193,187867,1,8,0:0:0:0:
259,193,188043,1,0,0:0:0:0:
250,187,188396,1,12,0:0:0:0:
250,187,188661,1,12,0:0:0:0:
259,193,188926,1,4,0:0:0:0:
250,187,189279,1,8,0:0:0:0:
250,187,189455,1,8,0:0:0:0:
250,187,189543,1,8,0:0:0:0:
250,187,189632,1,8,0:0:0:0:
259,193,189808,1,0,0:0:0:0:
250,187,189985,1,8,0:0:0:0:
250,187,190161,1,8,0:0:0:0:
250,187,190337,1,0,0:0:0:0:
259,193,190514,1,8,0:0:0:0:
250,187,190867,1,8,0:0:0:0:
250,187,191220,1,0,0:0:0:0:
250,187,191396,1,0,0:0:0:0:
259,193,191573,1,8,0:0:0:0:
250,187,191749,1,0,0:0:0:0:
250,187,192102,1,8,0:0:0:0:
250,187,192279,1,0,0:0:0:0:
250,187,192367,1,0,0:0:0:0:
259,193,192455,1,0,0:0:0:0:
250,187,192632,1,0,0:0:0:0:
250,187,192808,1,8,0:0:0:0:
250,187,192985,1,8,0:0:0:0:
250,187,193161,1,0,0:0:0:0:
250,187,193514,1,8,0:0:0:0:
250,187,194043,1,12,0:0:0:0:
250,187,194308,1,12,0:0:0:0:
250,187,194573,1,4,0:0:0:0:
250,187,194926,1,4,0:0:0:0:
250,187,195279,1,4,0:0:0:0:
250,187,195632,1,8,0:0:0:0:
250,187,195808,1,8,0:0:0:0:
250,187,195985,1,0,0:0:0:0:
250,187,196337,1,8,0:0:0:0:
250,187,196867,1,0,0:0:0:0:
250,187,197043,1,8,0:0:0:0:
250,187,197396,1,4,0:0:0:0:
250,187,197749,1,4,0:0:0:0:
250,187,198102,1,4,0:0:0:0:
250,187,198455,1,8,0:0:0:0:
250,187,198632,1,8,0:0:0:0:
250,187,198808,1,0,0:0:0:0:
250,187,199161,1,8,0:0:0:0:
250,187,199690,1,12,0:0:0:0:
250,187,199955,1,12,0:0:0:0:
250,187,200220,1,4,0:0:0:0:
250,187,200573,1,4,0:0:0:0:
250,187,200926,1,4,0:0:0:0:
250,187,201279,1,8,0:0:0:0:
250,187,201455,1,8,0:0:0:0:
250,187,201632,1,0,0:0:0:0:
250,187,201984,1,8,0:0:0:0:
250,187,202514,1,0,0:0:0:0:
250,187,202690,1,8,0:0:0:0:
250,187,203043,1,4,0:0:0:0:
250,187,203396,1,4,0:0:0:0:
250,187,203749,1,0,0:0:0:0:
217,186,203837,1,0,0:0:0:0:
217,186,203926,1,0,0:0:0:0:
217,186,204102,1,0,0:0:0:0:
217,186,204279,1,8,0:0:0:0:
