osu file format v14

[General]
AudioFilename: audio.ogg
AudioLeadIn: 0
PreviewTime: 56593
Countdown: 0
SampleSet: Normal
StackLeniency: 0.7
Mode: 1
LetterboxInBreaks: 0
WidescreenStoryboard: 0

[Editor]
DistanceSpacing: 1.1
BeatDivisor: 2
GridSize: 8
TimelineZoom: 1.1

[Metadata]
Title:Vitamin SUMMER!
TitleUnicode:ビタミンSUMMER!
Artist:Liella!
ArtistUnicode:Liella!
Creator:Sammu
Version:Kantan
Source:ラブライブ!スーパースター!!
Tags:arcpotato -Maruko- raynald pop jpop j-pop anime japanese LACM-24313 LACM24313 love live! superstar!! 2期 Ni-ki 2-ki S2 season 2 lovelive! school idol project insert song ヒゲドライバー hige driver 澁谷かのん shibuya kanon 伊達さゆり date sayuri 唐可可 唐 可可 táng kěkě tang keke tan kuukuu タン クゥクゥ Liyuu 嵐千砂都 嵐 千砂都 arashi chisato 岬なこ misaki nako 平安名すみれ heanna sumire ペイトン尚未 payton naomi 葉月恋 葉月 恋 hazuki ren 青山なぎさ aoyama nagisa 桜小路きな子 sakurakouji kinako 鈴原希実 suzuhara nozomi 米女メイ yoneme mei 薮島朱音 yabushima akane 若菜四季 wakana shiki 大熊和奏 okuma ohkuma wakana 鬼塚夏美 onitsuka natsumi 絵森彩 絵森 彩 emori aya
BeatmapID:3838199
BeatmapSetID:1865964

[Difficulty]
HPDrainRate:8
CircleSize:5
OverallDifficulty:3
ApproachRate:5
SliderMultiplier:1.4
SliderTickRate:1

[Events]
//Background and Video events
0,0,"coconut.jpg",0,-130
//Break Periods
//Storyboard Layer 0 (Background)
//Storyboard Layer 1 (Fail)
//Storyboard Layer 2 (Pass)
//Storyboard Layer 3 (Foreground)
//Storyboard Layer 4 (Overlay)
//Storyboard Sound Samples

[TimingPoints]
456,352.941176470588,4,1,0,70,1,0
11750,-100,4,1,0,85,0,0
23044,-100,4,1,0,80,0,0
34338,-100,4,1,0,85,0,0
45632,-100,4,1,0,80,0,0
56926,-100,4,1,0,95,0,1
79514,-100,4,1,0,90,0,0
90808,-100,4,1,0,80,0,0
102103,-100,4,1,0,85,0,0
113397,-100,4,1,0,80,0,0
124691,-100,4,1,0,95,0,1
147279,-100,4,1,0,80,0,0
159985,-100,4,1,0,90,0,0
162808,-100,4,1,0,70,0,0
165632,-100,4,1,0,90,0,0
168455,-100,4,1,0,70,0,0
171279,-100,4,1,0,80,0,0
171985,352.941176470588,4,1,0,70,1,0
183279,-100,4,1,0,95,0,1
194573,-100,4,1,0,90,0,0

[HitObjects]
255,189,456,5,2,0:0:0:0:
255,189,1338,1,0,0:0:0:0:
255,189,1867,1,0,0:0:0:0:
255,189,2750,1,0,0:0:0:0:
255,189,3279,1,2,0:0:0:0:
255,189,4161,1,0,0:0:0:0:
255,189,4691,1,0,0:0:0:0:
255,189,5573,1,0,0:0:0:0:
255,189,6103,1,2,0:0:0:0:
255,189,6985,1,0,0:0:0:0:
255,189,7514,1,0,0:0:0:0:
255,189,8397,1,0,0:0:0:0:
255,189,8926,1,2,0:0:0:0:
255,189,9808,1,0,0:0:0:0:
255,189,11044,1,0,0:0:0:0:
255,189,11397,1,0,0:0:0:0:
255,189,11750,1,6,0:0:0:0:
255,189,12455,1,0,0:0:0:0:
255,189,12985,1,2,0:0:0:0:
255,189,14220,1,0,0:0:0:0:
255,189,14573,1,2,0:0:0:0:
255,189,15279,1,0,0:0:0:0:
255,189,15808,1,2,0:0:0:0:
255,189,16867,1,4,0:0:0:0:
255,189,17397,1,6,0:0:0:0:
255,189,18103,1,0,0:0:0:0:
255,189,18632,1,2,0:0:0:0:
277,196,19867,1,0,0:0:0:0:
255,189,20220,1,2,0:0:0:0:
277,196,20926,1,0,0:0:0:0:
255,189,21455,1,2,0:0:0:0:
255,189,22514,1,6,0:0:0:0:
255,189,23044,1,0,0:0:0:0:
255,189,24279,1,0,0:0:0:0:
255,189,24985,1,8,0:0:0:0:
255,189,25867,1,0,0:0:0:0:
255,189,27103,1,2,0:0:0:0:
255,189,27808,1,0,0:0:0:0:
255,189,28691,1,2,0:0:0:0:
255,189,29926,1,0,0:0:0:0:
255,189,30632,1,8,0:0:0:0:
255,189,31514,1,0,0:0:0:0:
255,189,32220,1,0,0:0:0:0:
255,189,32750,1,2,0:0:0:0:
255,189,34338,1,0,0:0:0:0:
255,189,35044,1,2,0:0:0:0:
255,189,35573,1,0,0:0:0:0:
255,189,36103,1,0,0:0:0:0:
255,189,36455,1,8,0:0:0:0:
255,189,37161,1,0,0:0:0:0:
255,189,37867,1,2,0:0:0:0:
255,194,38397,1,0,0:0:0:0:
255,189,38926,1,2,0:0:0:0:
255,189,39985,1,8,0:0:0:0:
255,189,40691,1,8,0:0:0:0:
255,189,41397,1,0,0:0:0:0:
255,189,42103,1,0,0:0:0:0:
255,189,42808,1,8,0:0:0:0:
255,189,43338,1,0,0:0:0:0:
255,189,44044,1,8,0:0:0:0:
255,189,45632,1,2,0:0:0:0:
255,189,46338,1,2,0:0:0:0:
255,189,46867,1,0,0:0:0:0:
255,189,47220,1,0,0:0:0:0:
255,189,47750,1,2,0:0:0:0:
255,189,48455,1,0,0:0:0:0:
255,189,49161,1,2,0:0:0:0:
255,189,49691,1,0,0:0:0:0:
255,189,50573,1,0,0:0:0:0:
255,189,51279,1,2,0:0:0:0:
255,189,51632,1,0,0:0:0:0:
255,189,51985,1,2,0:0:0:0:
255,189,52514,1,0,0:0:0:0:
255,189,52867,1,0,0:0:0:0:
255,189,53397,1,2,0:0:0:0:
256,192,54103,12,0,55514,0:0:0:0:
251,188,56573,5,0,0:0:0:0:
251,188,56926,1,2,0:0:0:0:
251,188,57279,1,2,0:0:0:0:
251,188,57632,1,2,0:0:0:0:
251,188,58161,1,0,0:0:0:0:
251,188,59044,1,2,0:0:0:0:
251,188,60103,1,0,0:0:0:0:
251,188,60455,1,2,0:0:0:0:
251,188,60985,1,0,0:0:0:0:
251,188,61867,1,2,0:0:0:0:
251,188,62573,1,0,0:0:0:0:
251,188,62926,1,2,0:0:0:0:
251,188,63279,1,0,0:0:0:0:
251,188,63808,1,0,0:0:0:0:
251,188,64161,1,2,0:0:0:0:
251,188,64514,1,2,0:0:0:0:
251,188,65044,1,2,0:0:0:0:
251,188,65750,1,2,0:0:0:0:
251,188,66455,1,0,0:0:0:0:
251,188,68220,1,2,0:0:0:0:
251,188,68573,1,2,0:0:0:0:
251,188,68926,1,2,0:0:0:0:
251,188,69455,1,0,0:0:0:0:
251,188,70338,1,2,0:0:0:0:
251,188,71397,1,0,0:0:0:0:
251,188,71750,1,2,0:0:0:0:
251,188,72279,1,0,0:0:0:0:
251,188,73161,1,2,0:0:0:0:
251,188,73867,1,0,0:0:0:0:
251,188,74220,1,2,0:0:0:0:
251,188,74573,1,0,0:0:0:0:
251,188,75103,1,0,0:0:0:0:
251,188,75455,1,2,0:0:0:0:
251,188,75808,1,2,0:0:0:0:
251,188,76338,1,2,0:0:0:0:
251,188,77044,1,2,0:0:0:0:
251,188,77750,1,0,0:0:0:0:
251,188,79514,1,6,0:0:0:0:
251,188,79867,1,6,0:0:0:0:
251,188,80220,1,6,0:0:0:0:
251,188,82338,1,6,0:0:0:0:
251,188,82691,1,6,0:0:0:0:
251,188,83044,1,6,0:0:0:0:
251,188,85161,1,6,0:0:0:0:
251,188,85514,1,6,0:0:0:0:
251,188,85867,1,6,0:0:0:0:
251,188,87985,1,6,0:0:0:0:
251,188,88338,1,6,0:0:0:0:
251,188,88691,1,6,0:0:0:0:
251,188,90808,1,2,0:0:0:0:
251,188,92044,1,0,0:0:0:0:
251,188,93632,1,0,0:0:0:0:
251,188,94867,1,2,0:0:0:0:
251,188,95926,1,2,0:0:0:0:
251,188,96455,1,0,0:0:0:0:
251,188,97691,1,0,0:0:0:0:
251,188,99279,1,0,0:0:0:0:
251,188,100514,1,2,0:0:0:0:
257,193,102103,1,0,0:0:0:0:
257,193,102808,1,2,0:0:0:0:
257,193,103338,1,0,0:0:0:0:
257,193,103867,1,0,0:0:0:0:
251,188,104220,1,2,0:0:0:0:
251,188,104926,1,0,0:0:0:0:
251,188,105632,1,2,0:0:0:0:
251,188,106161,1,0,0:0:0:0:
251,188,106691,1,2,0:0:0:0:
251,188,107750,1,2,0:0:0:0:
251,188,108455,1,2,0:0:0:0:
251,188,109161,1,0,0:0:0:0:
251,188,109867,1,0,0:0:0:0:
251,188,110573,1,2,0:0:0:0:
251,188,111103,1,0,0:0:0:0:
251,188,111808,1,2,0:0:0:0:
255,189,113397,1,2,0:0:0:0:
255,189,114103,1,2,0:0:0:0:
255,189,114632,1,0,0:0:0:0:
255,189,114985,1,0,0:0:0:0:
255,189,115514,1,2,0:0:0:0:
255,189,116220,1,0,0:0:0:0:
255,189,116926,1,2,0:0:0:0:
255,189,117455,1,2,0:0:0:0:
255,189,118338,1,0,0:0:0:0:
255,189,119044,1,2,0:0:0:0:
255,189,119397,1,0,0:0:0:0:
255,189,119750,1,2,0:0:0:0:
255,189,120279,1,0,0:0:0:0:
255,189,120632,1,0,0:0:0:0:
255,189,121161,1,2,0:0:0:0:
256,192,121867,12,0,123279,0:0:0:0:
255,190,124338,5,0,0:0:0:0:
255,190,124691,1,2,0:0:0:0:
255,190,125044,1,2,0:0:0:0:
255,190,125397,1,2,0:0:0:0:
255,190,125926,1,0,0:0:0:0:
255,190,126808,1,2,0:0:0:0:
255,190,127867,1,0,0:0:0:0:
255,190,128220,1,2,0:0:0:0:
255,190,128750,1,0,0:0:0:0:
255,190,129632,1,2,0:0:0:0:
255,190,130338,1,0,0:0:0:0:
255,190,130691,1,2,0:0:0:0:
255,190,131044,1,0,0:0:0:0:
255,190,131573,1,0,0:0:0:0:
255,190,131926,1,2,0:0:0:0:
255,190,132279,1,2,0:0:0:0:
255,190,132985,1,2,0:0:0:0:
255,190,133691,1,2,0:0:0:0:
255,190,134397,1,0,0:0:0:0:
255,190,135985,1,2,0:0:0:0:
255,190,136338,1,2,0:0:0:0:
255,190,136691,1,2,0:0:0:0:
255,190,137397,1,0,0:0:0:0:
255,190,137750,1,0,0:0:0:0:
255,190,138103,1,0,0:0:0:0:
255,190,138808,1,0,0:0:0:0:
255,190,139514,1,0,0:0:0:0:
255,190,140220,1,2,0:0:0:0:
255,190,141632,1,2,0:0:0:0:
255,190,141985,1,2,0:0:0:0:
255,190,142338,1,2,0:0:0:0:
255,190,143044,1,0,0:0:0:0:
255,190,143397,1,0,0:0:0:0:
255,190,143750,1,0,0:0:0:0:
255,190,144103,1,2,0:0:0:0:
255,190,144808,1,2,0:0:0:0:
255,190,145514,1,0,0:0:0:0:
256,192,147279,12,0,148338,0:0:0:0:
255,188,148691,5,0,0:0:0:0:
255,188,149397,1,6,0:0:0:0:
255,188,150103,1,0,0:0:0:0:
255,188,150808,1,6,0:0:0:0:
255,188,151514,1,0,0:0:0:0:
255,188,152220,1,6,0:0:0:0:
255,188,152926,1,0,0:0:0:0:
255,188,154338,1,0,0:0:0:0:
255,188,155044,1,6,0:0:0:0:
255,188,155750,1,0,0:0:0:0:
255,188,156455,1,6,0:0:0:0:
255,188,157161,1,0,0:0:0:0:
255,188,157867,1,6,0:0:0:0:
255,188,158573,1,0,0:0:0:0:
255,190,159985,1,0,0:0:0:0:
255,190,160691,1,0,0:0:0:0:
255,190,161220,1,0,0:0:0:0:
255,190,161573,1,0,0:0:0:0:
255,190,162103,1,0,0:0:0:0:
255,190,162808,1,2,0:0:0:0:
255,190,164044,1,2,0:0:0:0:
255,190,164397,1,2,0:0:0:0:
255,190,164926,1,2,0:0:0:0:
255,190,165632,1,0,0:0:0:0:
255,190,166338,1,0,0:0:0:0:
255,190,166867,1,2,0:0:0:0:
255,190,167220,1,2,0:0:0:0:
255,190,167750,1,2,0:0:0:0:
255,190,168455,1,0,0:0:0:0:
255,190,169691,1,2,0:0:0:0:
255,190,170044,1,2,0:0:0:0:
255,190,170573,1,2,0:0:0:0:
255,190,171632,1,0,0:0:0:0:
255,190,171985,1,2,0:0:0:0:
255,190,172337,1,2,0:0:0:0:
255,190,172690,1,2,0:0:0:0:
255,190,173220,1,0,0:0:0:0:
255,190,174102,1,2,0:0:0:0:
255,190,175161,1,0,0:0:0:0:
255,190,175514,1,2,0:0:0:0:
255,190,176043,1,0,0:0:0:0:
255,190,176926,1,2,0:0:0:0:
255,190,177632,1,0,0:0:0:0:
255,190,177985,1,2,0:0:0:0:
255,190,178337,1,0,0:0:0:0:
255,190,178867,1,0,0:0:0:0:
255,190,179220,1,2,0:0:0:0:
255,190,179573,1,2,0:0:0:0:
255,190,180279,1,2,0:0:0:0:
255,190,180985,1,2,0:0:0:0:
255,190,181690,1,0,0:0:0:0:
255,190,183279,1,2,0:0:0:0:
255,190,183632,1,2,0:0:0:0:
255,190,183985,1,2,0:0:0:0:
255,190,184514,1,0,0:0:0:0:
255,190,185396,1,2,0:0:0:0:
255,190,186455,1,0,0:0:0:0:
255,190,186808,1,2,0:0:0:0:
255,190,187337,1,0,0:0:0:0:
255,190,188220,1,2,0:0:0:0:
255,190,188926,1,0,0:0:0:0:
255,190,189279,1,2,0:0:0:0:
255,190,189632,1,0,0:0:0:0:
255,190,190161,1,0,0:0:0:0:
255,190,190514,1,2,0:0:0:0:
255,190,190867,1,2,0:0:0:0:
255,190,191396,1,2,0:0:0:0:
255,190,192102,1,2,0:0:0:0:
255,190,192808,1,0,0:0:0:0:
255,190,194573,1,6,0:0:0:0:
255,190,194926,1,6,0:0:0:0:
255,190,195279,1,6,0:0:0:0:
255,190,197396,1,6,0:0:0:0:
255,190,197749,1,6,0:0:0:0:
255,190,198102,1,6,0:0:0:0:
255,190,200220,1,6,0:0:0:0:
255,190,200573,1,6,0:0:0:0:
255,190,200926,1,6,0:0:0:0:
255,190,203043,1,6,0:0:0:0:
255,190,203396,1,6,0:0:0:0:
255,190,203749,1,6,0:0:0:0:
255,190,204279,1,0,0:0:0:0:
