osu file format v14

[General]
AudioFilename: audio.mp3
AudioLeadIn: 0
PreviewTime: 151814
Countdown: 0
SampleSet: Soft
StackLeniency: 0.7
Mode: 0
LetterboxInBreaks: 0
WidescreenStoryboard: 0

[Editor]
Bookmarks: 189197
DistanceSpacing: 1
BeatDivisor: 4
GridSize: 4
TimelineZoom: 2.3

[Metadata]
Title:Shooting Voice!!
TitleUnicode:Shooting Voice!!
Artist:Liella!
ArtistUnicode:Liella!
Creator:Kawasaki Sakura
Version:Tokimeki
Source:ラブライブ!スーパースター!!
Tags:-karUpA- kyairie notabox Mrgglock Love Live! Superstar!! japanese pop j-pop jpop anime Shibuya Kanon 澁谷かのん Tang Keke Tan Kuukuu 唐 可可 タン クゥクゥ Arashi Chisato 嵐 千砂都 Heanna Sumire 平安名すみれ Hazuki Ren 葉月 恋 畑 亜貴 Aki Hata 小幡康裕 Yasuhiro Obata lovelive! school idol project 伊達さゆり Sayuri Date りーゆう Liyuu 岬 なこ Nako Misaki ペイトン尚未 Naomi Payton 青山 なぎさ Nagisa リエラ
BeatmapID:3982149
BeatmapSetID:1928266

[Difficulty]
HPDrainRate:6
CircleSize:4.2
OverallDifficulty:8.5
ApproachRate:9.2
SliderMultiplier:1.74
SliderTickRate:1

[Events]
//Background and Video events
0,0,"107833463_p0.jpg",0,0
//Break Periods
//Storyboard Layer 0 (Background)
//Storyboard Layer 1 (Fail)
//Storyboard Layer 2 (Pass)
//Storyboard Layer 3 (Foreground)
//Storyboard Layer 4 (Overlay)
//Storyboard Sound Samples

[TimingPoints]
411,350.877192982456,4,2,1,88,1,0
12516,-100,4,2,1,75,0,0
13042,-100,4,2,1,80,0,0
20761,-90.9090909090909,4,2,1,75,0,0
21112,-83.3333333333333,4,2,1,75,0,0
21463,-100,4,2,1,75,0,0
23919,-83.3333333333333,4,2,1,75,0,0
24270,-100,4,2,1,75,0,0
29884,-125,4,2,1,60,0,0
39533,-100,4,2,1,60,0,0
39884,-100,4,2,1,60,0,0
41112,-111.111111111111,4,2,1,70,0,0
61989,-100,4,2,1,70,0,0
62340,-111.111111111111,4,2,1,70,0,0
63568,-111.111111111111,4,2,1,70,0,0
67603,-99.9999999999999,4,2,1,70,0,0
67954,-111.111111111111,4,2,1,70,0,0
71639,-100,4,2,1,70,0,0
74446,-200,4,2,1,70,0,0
74796,-83.3333333333333,4,2,1,85,0,0
75147,-90.9090909090909,4,2,1,85,0,0
84446,-83.3333333333333,4,2,1,85,0,0
84796,-90.9090909090909,4,2,1,85,0,0
86025,-83.3333333333333,4,2,1,85,0,0
86375,-90.9090909090909,4,2,1,85,0,0
92691,-83.3333333333333,4,2,1,85,0,0
93218,-90.9090909090909,4,2,1,85,0,0
95849,-142.857142857143,4,2,1,85,0,0
97253,-90.9090909090909,4,2,1,75,0,0
106902,-83.3333333333333,4,2,1,75,0,0
107253,-90.9090909090909,4,2,1,75,0,0
108481,-200,4,2,1,50,0,0
114095,-166.666666666667,4,2,1,50,0,0
119007,-111.111111111111,4,2,1,50,0,0
119709,-125,4,2,1,60,0,0
129358,-111.111111111111,4,2,1,60,0,0
130937,-111.111111111111,4,2,1,70,0,0
146200,-100,4,2,1,70,0,0
146551,-111.111111111111,4,2,1,70,0,0
147779,-111.111111111111,4,2,1,70,0,0
150235,-100,4,2,1,70,0,0
151989,-83.3333333333333,4,2,1,70,0,0
153393,-83.3333333333333,4,2,1,85,0,0
153744,-90.9090909090909,4,2,1,85,0,0
164621,-83.3333333333333,4,2,1,85,0,0
164972,-90.9090909090909,4,2,1,85,0,0
168656,-83.3333333333333,4,2,1,85,0,0
169007,-90.9090909090909,4,2,1,85,0,0
171288,-83.3333333333333,4,2,1,85,0,0
171639,-90.9090909090909,4,2,1,85,0,0
175849,-90.9090909090909,4,2,1,75,0,0
185498,-83.3333333333333,4,2,1,75,0,0
185849,-90.9090909090909,4,2,1,75,0,0
187077,-111.111111111111,4,2,1,60,0,0
203568,-100,4,2,1,75,0,0
206551,-83.3333333333333,4,2,1,75,0,0
206902,-100,4,2,1,75,0,0
208130,-200,4,2,1,75,0,0
209533,-200,4,2,1,60,0,0
211639,350.877192982456,4,2,1,88,1,0
211639,-250.000000000001,4,2,1,50,0,0
217253,-142.857142857143,4,2,1,55,0,0
221112,-90.909090909091,4,2,1,75,0,0
222867,-200,4,2,1,50,0,0
223130,-200,4,2,1,5,0,0
223217,-71.4285714285714,4,2,2,85,0,0
223568,-90.9090909090909,4,2,1,85,0,0
224270,-90.9090909090909,4,2,1,85,0,0
232516,-83.3333333333333,4,2,1,85,0,0
232867,-90.9090909090909,4,2,1,85,0,0
234095,-90.9090909090909,4,2,1,85,0,1
236902,-76.9230769230769,4,2,1,85,0,1
237256,-90.9090909090909,4,2,1,85,0,1
238130,-76.9230769230769,4,2,1,85,0,1
238481,-90.9090909090909,4,2,1,85,0,1
239709,-90.9090909090909,4,2,1,85,0,0
240761,-83.3333333333333,4,2,1,85,0,0
241288,-76.9230769230769,4,2,1,85,0,0
242516,-90.9090909090909,4,2,1,85,0,0
245323,-90.9090909090909,4,2,1,85,0,0
248130,-83.3333333333333,4,2,1,85,0,0
248656,-83.3333333333333,4,2,1,70,0,0
249182,-83.3333333333333,4,2,1,85,0,0
249533,-250.000000000001,4,2,1,85,0,0
250761,-166.666666666667,4,2,1,60,0,0
252340,-166.666666666667,4,2,1,75,0,0
253042,-90.9090909090909,4,2,1,80,0,0
258656,-100,4,2,1,75,0,0
261112,-90.9090909090909,4,2,1,75,0,0
263030,338.983050847458,4,2,1,88,1,0
263030,-100,4,2,1,75,0,0
263744,350.877192982456,4,2,1,88,1,0
263744,-100,4,2,1,75,0,0
264270,350.877192982456,4,2,1,88,1,0
264270,-1000,4,2,1,75,0,0
271287,-1000,4,2,1,5,0,0

[Colours]
Combo1 : 128,128,192
Combo2 : 64,128,128
Combo3 : 255,128,64
Combo4 : 0,128,192

[HitObjects]
256,192,10235,12,0,12340,0:0:0:0:
91,66,12516,5,0,1:2:0:0:
95,49,12603,1,0,1:2:0:0:
98,31,12691,2,0,B|177:42|136:79|233:85,1,130.5,8|0,0:0|0:0,0:0:0:0:
227,70,13042,6,0,P|284:55|329:50,1,87,14|0,0:0|1:2,0:0:0:0:
422,12,13393,1,0,1:2:0:0:
307,193,13568,5,14,0:0:0:0:
484,277,13744,1,0,1:2:0:0:
493,265,13919,1,0,1:2:0:0:
482,122,14095,5,14,0:0:0:0:
382,346,14270,1,0,1:2:0:0:
374,333,14446,1,0,1:2:0:0:
185,195,14621,6,0,P|121:220|80:230,1,87,14|0,0:0|1:2,0:0:0:0:
99,108,14972,1,0,1:2:0:0:
287,230,15147,1,14,0:0:0:0:
174,324,15323,1,0,1:2:0:0:
357,166,15498,5,2,1:2:0:0:
394,188,15586,1,2,1:2:0:0:
416,225,15674,1,2,1:2:0:0:
413,268,15761,1,2,1:2:0:0:
389,304,15849,5,14,0:0:0:0:
491,146,16025,1,0,1:2:0:0:
483,130,16200,1,0,1:2:0:0:
312,241,16375,5,14,0:0:0:0:
234,19,16551,1,0,1:2:0:0:
243,9,16726,1,0,1:2:0:0:
382,75,16902,5,14,0:0:0:0:
153,186,17077,1,0,1:2:0:0:
398,70,17253,1,0,1:2:0:0:
234,108,17428,5,14,0:0:0:0:
497,208,17603,1,0,1:2:0:0:
221,104,17779,1,0,1:2:0:0:
188,320,17954,5,14,0:0:0:0:
402,223,18130,1,8,3:0:0:0:
300,36,18305,1,4,3:0:0:0:
124,151,18481,1,4,3:0:0:0:
345,319,18656,6,0,P|367:244|398:142,1,174,6|2,1:2|0:0,0:0:0:0:
151,8,19182,2,0,P|194:61|293:62,1,174,10|2,0:0|1:2,0:0:0:0:
512,155,19709,6,0,P|428:162|392:202,1,130.5,10|0,0:0|0:0,0:0:0:0:
390,215,20060,1,2,1:2:0:0:
258,381,20235,2,0,P|307:369|355:367,1,87,10|0,0:0|0:0,0:0:0:0:
237,230,20586,1,2,1:2:0:0:
29,371,20761,6,0,B|45:353|45:353|59:278|3:240,1,143.550004380798,14|0,0:0|0:0,0:0:0:0:
7,169,21112,6,0,P|90:197|219:237,1,208.79999362793,6|0,1:2|1:2,0:0:0:0:
285,176,21639,1,0,1:2:0:0:
172,116,21814,1,8,0:0:0:0:
206,233,21989,1,8,0:0:0:0:
372,146,22165,1,8,0:0:0:0:
253,12,22340,1,8,0:0:0:0:
466,182,22516,1,8,0:0:0:0:
272,324,22691,1,8,0:0:0:0:
207,107,22867,5,10,1:2:0:0:
263,345,23042,1,10,1:2:0:0:
340,51,23218,5,10,1:2:0:0:
404,324,23393,1,10,1:2:0:0:
71,291,23744,5,0,1:2:0:0:
65,274,23832,1,0,1:2:0:0:
58,258,23919,2,0,P|137:208|210:257,1,156.599995220947,12|0,0:0|0:0,0:0:0:0:
204,256,24270,6,0,B|299:224|274:313|382:279,1,174,4|8,1:2|0:0,0:0:0:0:
436,208,24796,1,0,0:0:0:0:
337,121,24972,1,0,1:2:0:0:
479,65,25147,1,0,1:2:0:0:
453,228,25323,2,0,P|406:222|363:210,1,87,8|0,0:0|0:0,0:0:0:0:
250,61,25674,6,0,P|245:146|271:250,1,174,0|8,1:2|0:0,0:0:0:0:
142,318,26200,2,0,P|193:329|245:347,1,87,0|0,0:0|1:2,0:0:0:0:
343,237,26551,1,0,1:2:0:0:
419,286,26726,2,0,P|376:277|334:264,1,87,8|0,0:0|1:2,0:0:0:0:
264,233,26989,5,0,1:2:0:0:
264,233,27077,2,0,P|250:183|252:115,1,87,0|0,1:2|0:0,0:0:0:0:
196,11,27428,1,8,0:0:0:0:
196,11,27603,1,0,0:0:0:0:
305,70,27779,1,0,1:2:0:0:
305,70,27954,1,0,1:2:0:0:
143,172,28130,2,0,P|83:153|47:150,1,87,8|0,0:0|0:0,0:0:0:0:
237,129,28481,5,0,1:2:0:0:
262,211,28656,1,0,0:0:0:0:
289,293,28832,1,8,0:0:0:0:
460,222,29007,5,0,0:0:0:0:
396,177,29182,1,0,1:2:0:0:
481,363,29358,1,0,1:2:0:0:
286,275,29533,1,8,0:0:0:0:
392,89,29709,5,0,1:2:0:0:
392,89,29796,1,0,1:2:0:0:
392,89,29884,2,0,P|380:144|373:229,1,139.2,4|2,1:2|0:0,0:0:0:0:
136,92,30586,2,0,P|185:116|259:144,1,104.4,2|0,0:0|0:0,0:0:0:0:
255,127,30937,2,0,P|285:103|283:62,1,69.6,2|2,0:0|1:2,0:0:0:0:
273,56,31200,5,0,1:2:0:0:
273,56,31288,2,0,P|290:116|313:206,1,139.2,0|2,1:2|0:0,0:0:0:0:
208,303,31814,2,0,B|126:291|168:261|54:234,1,139.2,2|0,0:0|1:2,0:0:0:0:
21,285,32340,1,0,0:0:0:0:
81,167,32516,5,2,1:2:0:0:
81,167,32603,1,0,1:2:0:0:
81,167,32691,2,0,P|65:112|33:36,1,139.2,2|2,1:2|0:0,0:0:0:0:
145,0,33218,2,0,P|165:66|192:130,1,139.2,2|2,0:0|1:2,0:0:0:0:
268,261,33744,2,0,P|280:204|289:177,1,69.6,2|0,0:0|1:2,0:0:0:0:
300,186,34007,5,0,1:2:0:0:
300,186,34095,2,0,P|342:205|364:210,1,69.6,0|0,1:2|0:0,0:0:0:0:
211,194,34446,2,0,P|179:178|146:169,1,69.6
221,93,34796,6,0,P|229:59|245:28,1,69.6,2|0,0:0|1:2,0:0:0:0:
304,274,35147,2,0,P|295:307|279:338,1,69.6,10|2,0:0|0:0,0:0:0:0:
441,275,35498,6,0,P|483:248|457:151,1,139.2,0|0,1:2|0:0,0:0:0:0:
297,97,36200,2,0,P|280:55|294:25,1,69.6,2|0,0:0|1:2,0:0:0:0:
371,158,36551,2,0,P|357:193|347:238,1,69.6,2|2,0:0|1:2,0:0:0:0:
361,242,36814,5,0,1:2:0:0:
361,242,36902,2,0,P|431:222|503:206,1,139.2,0|2,1:2|0:0,0:0:0:0:
283,312,37428,1,0,1:2:0:0:
283,312,37516,1,0,1:2:0:0:
283,312,37603,2,0,P|216:331|148:346,1,139.2,2|2,0:0|0:0,0:0:0:0:
22,235,38130,2,0,P|4:213|13:193,1,34.8,0|0,1:2|1:2,0:0:0:0:
54,149,38305,6,0,P|37:208|17:289,1,139.2,2|2,1:2|0:0,0:0:0:0:
120,232,38832,2,0,P|170:218|267:209,1,139.2,2|2,0:0|1:2,0:0:0:0:
345,126,39358,1,10,0:0:0:0:
493,291,39533,6,0,P|454:339|336:322,1,174,6|0,1:2|1:2,0:0:0:0:
480,120,40060,2,0,P|462:85|446:40,1,87,10|0,0:0|0:0,0:0:0:0:
405,264,40410,1,0,1:2:0:0:
402,281,40498,1,8,0:0:0:0:
398,298,40586,1,8,0:0:0:0:
395,315,40674,1,8,0:0:0:0:
392,332,40761,1,8,0:0:0:0:
225,219,40937,5,0,1:2:0:0:
225,219,41025,1,0,1:2:0:0:
225,219,41112,2,0,B|124:249|173:259|66:294,1,156.599995220947,4|10,1:2|0:0,0:0:0:0:
246,96,41814,2,0,P|223:42|216:0,1,78.2999976104737,2|0,0:0|0:0,0:0:0:0:
322,52,42165,1,10,0:0:0:0:
214,216,42340,2,0,P|230:251|241:288,1,78.2999976104737,2|0,1:2|0:0,0:0:0:0:
397,215,42691,5,2,1:2:0:0:
336,171,42867,1,10,0:0:0:0:
412,227,43042,1,2,0:0:0:0:
378,85,43218,5,0,1:2:0:0:
285,230,43393,1,0,1:2:0:0:
382,78,43568,1,8,0:0:0:0:
254,18,43744,5,2,1:2:0:0:
254,18,43832,1,0,1:2:0:0:
254,18,43919,2,0,P|211:58|106:74,1,156.599995220947,2|10,1:2|0:0,0:0:0:0:
15,207,44446,2,0,P|24:149|29:109,1,78.2999976104737,2|0,1:2|0:0,0:0:0:0:
184,226,44796,1,2,0:0:0:0:
238,133,44972,1,10,0:0:0:0:
97,209,45147,2,0,P|100:264|117:304,1,78.2999976104737,0|0,1:2|0:0,0:0:0:0:
171,86,45498,5,0,1:2:0:0:
345,188,45674,1,8,0:0:0:0:
253,281,45849,2,0,P|262:235|268:195,1,78.2999976104737,0|2,0:0|1:2,0:0:0:0:
325,99,46200,1,0,1:2:0:0:
171,213,46375,2,0,P|122:223|41:245,1,117.449996415711,10|0,0:0|0:0,0:0:0:0:
45,252,46726,6,0,P|58:295|160:333,1,156.599995220947,0|8,1:2|0:0,0:0:0:0:
234,376,47253,1,0,1:2:0:0:
333,248,47428,2,0,P|341:202|328:163,1,78.2999976104737,2|0,0:0|1:2,0:0:0:0:
175,95,47779,1,10,0:0:0:0:
175,95,47954,2,0,P|228:106|264:116,1,78.2999976104737,2|0,1:2|0:0,0:0:0:0:
300,30,48305,1,0,1:2:0:0:
245,200,48481,6,0,P|256:238|266:278,1,78.2999976104737,10|0,0:0|0:0,0:0:0:0:
156,100,48832,2,0,P|146:62|135:24,1,78.2999976104737,2|0,0:0|1:2,0:0:0:0:
14,206,49182,2,0,P|51:259|121:271,1,117.449996415711,10|0,0:0|0:0,0:0:0:0:
121,264,49533,6,0,B|198:251|179:320|274:299,1,156.599995220947,2|0,1:2|1:2,0:0:0:0:
387,155,50060,1,10,0:0:0:0:
340,245,50235,2,0,P|363:297|377:343,1,78.2999976104737,2|0,0:0|1:2,0:0:0:0:
460,228,50586,1,8,0:0:0:0:
261,144,50761,6,0,P|210:191|125:188,1,156.599995220947,4|0,1:2|1:2,0:0:0:0:
219,12,51288,2,0,P|284:36|302:36,1,78.2999976104737,8|8,0:0|0:0,0:0:0:0:
292,36,51551,1,8,0:0:0:0:
292,36,51639,1,10,0:0:0:0:
421,160,51814,1,8,3:3:0:0:
323,217,51989,1,10,3:3:0:0:
473,71,52165,5,4,3:3:0:0:
473,71,52253,1,4,3:3:0:0:
473,71,52340,2,0,P|455:131|434:234,1,156.599995220947,6|10,1:2|0:0,0:0:0:0:
274,312,52867,2,0,P|337:319|412:402,1,156.599995220947,2|0,0:0|1:2,0:0:0:0:
193,223,53393,2,0,P|206:167|208:133,1,78.2999976104737,10|0,0:0|0:0,0:0:0:0:
81,310,53744,6,0,P|97:353|144:374,1,78.2999976104737,2|0,1:2|0:0,0:0:0:0:
16,165,54095,1,10,0:0:0:0:
100,226,54270,1,0,0:0:0:0:
2,160,54446,2,0,P|11:99|30:25,1,117.449996415711,2|0,1:2|0:0,0:0:0:0:
31,12,54796,2,0,P|70:7|122:51,1,78.2999976104737,10|0,0:0|0:0,0:0:0:0:
229,99,55147,6,0,B|149:123|181:129|96:160,1,117.449996415711,2|0,1:2|0:0,0:0:0:0:
103,164,55498,1,10,0:0:0:0:
235,300,55674,2,0,P|220:248|212:214,1,78.2999976104737,2|0,0:0|1:2,0:0:0:0:
219,377,56025,1,0,1:2:0:0:
290,176,56200,2,0,P|305:124|313:90,1,78.2999976104737,10|2,0:0|0:0,0:0:0:0:
247,5,56551,5,0,1:2:0:0:
309,94,56726,1,0,0:0:0:0:
212,226,56902,5,8,0:0:0:0:
182,298,57077,1,0,0:0:0:0:
149,176,57253,6,0,P|105:161|65:150,1,78.2999976104737,2|0,1:2|1:2,0:0:0:0:
279,271,57603,2,0,P|323:286|363:297,1,78.2999976104737,10|0,0:0|0:0,0:0:0:0:
475,192,57954,6,0,B|451:204|451:204|426:278|501:312,1,156.599995220947,2|10,1:2|0:0,0:0:0:0:
336,157,58481,2,0,P|281:183|175:187,1,156.599995220947,2|0,0:0|1:2,0:0:0:0:
120,103,59007,1,10,0:0:0:0:
191,280,59182,5,0,1:2:0:0:
191,280,59270,1,0,1:2:0:0:
191,280,59358,2,0,P|178:335|180:378,1,78.2999976104737,2|0,1:2|0:0,0:0:0:0:
35,231,59709,2,0,P|45:193|48:154,1,78.2999976104737,10|0,0:0|0:0,0:0:0:0:
81,300,60060,1,2,1:2:0:0:
81,300,60235,1,0,1:2:0:0:
257,192,60410,2,0,P|203:207|173:215,1,78.2999976104737,10|0,0:0|0:0,0:0:0:0:
55,31,60761,6,0,B|132:45|107:95|201:121,1,156.599995220947,2|10,1:2|0:0,0:0:0:0:
336,13,61288,1,2,0:0:0:0:
336,13,61375,1,2,0:0:0:0:
336,13,61463,2,0,P|312:104|300:160,1,117.449996415711,2|0,1:2|0:0,0:0:0:0:
324,151,61814,1,8,0:0:0:0:
181,261,61989,6,0,P|266:272|346:338,1,174,4|0,1:2|1:2,0:0:0:0:
491,203,62516,2,0,P|431:223|405:245,1,78.2999976104737,8|0,0:0|0:0,0:0:0:0:
245,146,62867,2,0,P|283:137|316:117,1,78.2999976104737,2|8,1:2|0:0,0:0:0:0:
316,117,63130,1,8,0:0:0:0:
316,117,63218,1,10,0:0:0:0:
163,29,63393,5,0,1:2:0:0:
150,39,63481,1,0,1:2:0:0:
138,49,63568,2,0,P|128:124|169:204,1,156.599995220947,6|10,1:2|0:0,0:0:0:0:
76,360,64095,2,0,P|119:321|225:299,1,156.599995220947,2|0,0:0|1:2,0:0:0:0:
364,365,64621,2,0,P|347:320|341:288,1,78.2999976104737,10|0,0:0|0:0,0:0:0:0:
475,230,64972,5,2,1:2:0:0:
438,295,65147,1,0,0:0:0:0:
293,193,65323,2,0,P|306:148|315:114,1,78.2999976104737,10|0,0:0|0:0,0:0:0:0:
314,117,65674,1,2,1:2:0:0:
254,30,65849,1,0,1:2:0:0:
412,90,66025,1,8,0:0:0:0:
316,227,66200,5,0,1:2:0:0:
316,227,66288,1,0,1:2:0:0:
316,227,66375,2,0,P|318:305|345:387,1,156.599995220947,2|10,1:2|0:0,0:0:0:0:
144,291,66902,2,0,P|203:308|231:328,1,78.2999976104737,2|0,1:2|0:0,0:0:0:0:
112,152,67253,2,0,P|171:135|199:115,1,78.2999976104737,2|8,1:2|0:0,0:0:0:0:
360,0,67603,6,0,P|417:19|449:137,1,174,6|0,1:2|1:2,0:0:0:0:
327,256,68130,1,8,0:0:0:0:
432,308,68305,1,8,0:0:0:0:
437,293,68393,1,8,0:0:0:0:
442,278,68481,1,10,0:0:0:0:
361,167,68656,1,8,3:0:0:0:
212,306,68832,1,6,3:0:0:0:
304,365,69007,5,0,1:2:0:0:
299,350,69095,1,0,1:2:0:0:
293,335,69182,2,0,P|316:261|350:168,1,156.599995220947,6|0,1:2|1:2,0:0:0:0:
81,266,69884,6,0,P|58:192|24:99,1,156.599995220947,6|0,1:2|1:2,0:0:0:0:
418,184,70586,6,0,P|441:110|475:17,1,156.599995220947,6|0,1:2|1:2,0:0:0:0:
510,324,71288,1,10,0:0:0:0:
510,324,71639,6,0,P|425:273|334:267,1,174,6|0,1:2|1:2,0:0:0:0:
235,92,72165,1,0,1:2:0:0:
291,200,72340,1,8,0:0:0:0:
494,104,72516,1,8,0:0:0:0:
352,8,72691,5,8,0:0:0:0:
464,251,72867,1,8,0:0:0:0:
229,64,73042,5,8,0:0:0:0:
418,329,73218,1,8,0:0:0:0:
119,384,73393,5,6,1:2:0:0:
54,109,74270,5,4,3:0:0:0:
54,109,74358,1,4,3:0:0:0:
54,109,74446,2,0,P|67:116|52:100,1,65.25,6|0,3:3|0:0,0:0:0:0:
139,47,74796,6,0,P|200:57|248:134,1,156.599995220947,6|0,1:2|0:0,0:0:0:0:
226,151,75147,2,0,P|175:167|117:172,1,95.7000029205323,10|0,0:0|0:0,0:0:0:0:
327,3,75498,1,2,1:2:0:0:
505,189,75674,1,0,1:2:0:0:
361,284,75849,1,10,0:0:0:0:
506,88,76025,6,0,P|485:46|471:-10,1,95.7000029205323,2|0,0:0|1:2,0:0:0:0:
262,185,76375,1,0,0:0:0:0:
362,261,76551,2,0,P|383:219|397:163,1,95.7000029205323,10|0,0:0|0:0,0:0:0:0:
185,330,76902,2,0,P|138:342|96:363,1,95.7000029205323,2|0,1:2|1:2,0:0:0:0:
303,374,77253,1,10,0:0:0:0:
160,154,77428,5,2,1:2:0:0:
160,154,77516,1,0,1:2:0:0:
160,154,77603,2,0,B|199:53|199:53|175:0|97:28,1,191.400005841065,2|8,1:2|0:0,0:0:0:0:
263,124,78130,1,0,0:0:0:0:
64,278,78305,1,0,1:2:0:0:
5,144,78481,1,0,1:2:0:0:
73,178,78656,1,10,0:0:0:0:
211,364,78832,6,0,B|336:356|244:267|397:262,1,191.400005841065,2|0,0:0|0:0,0:0:0:0:
156,99,79358,2,0,P|119:45|159:5,1,95.7000029205323,10|0,0:0|0:0,0:0:0:0:
374,162,79709,2,0,P|349:214|344:256,1,95.7000029205323,2|0,1:2|1:2,0:0:0:0:
507,32,80060,2,0,P|449:46|396:50,1,95.7000029205323,10|0,0:0|1:2,0:0:0:0:
413,49,80323,5,0,1:2:0:0:
413,49,80410,2,0,P|336:29|249:18,1,143.550004380798,2|0,1:2|0:0,0:0:0:0:
254,3,80761,1,8,0:0:0:0:
127,195,80937,2,0,P|149:142|163:91,1,95.7000029205323,2|0,0:0|1:2,0:0:0:0:
350,268,81288,1,0,1:2:0:0:
181,364,81463,1,8,0:0:0:0:
352,112,81639,5,0,1:2:0:0:
352,112,81726,1,0,1:2:0:0:
352,112,81814,2,0,B|316:91|276:89|276:89|249:54|249:54|207:56|170:41,1,191.400005841065,2|8,1:2|0:0,0:0:0:0:
261,221,82340,1,2,0:0:0:0:
471,96,82516,1,0,1:2:0:0:
321,0,82691,1,0,1:2:0:0:
437,283,82867,2,0,P|450:333|463:393,1,95.7000029205323,10|2,0:0|0:0,0:0:0:0:
248,214,83218,6,0,P|173:207|153:124,1,143.550004380798,2|0,1:2|0:0,0:0:0:0:
163,130,83568,1,10,0:0:0:0:
390,0,83744,2,0,B|423:-10|423:-10|525:48|438:150,1,191.400005841065,2|0,0:0|1:2,0:0:0:0:
356,206,84270,1,10,0:0:0:0:
119,10,84446,6,0,B|75:104|75:104|93:168|154:165,1,208.79999362793,6|0,1:2|1:2,0:0:0:0:
376,63,84972,2,0,P|314:38|279:27,1,95.7000029205323,10|0,0:0|0:0,0:0:0:0:
66,274,85323,2,0,P|110:255|155:240,1,95.7000029205323,2|0,1:2|1:2,0:0:0:0:
255,318,85674,6,0,P|215:307|193:301,1,47.8500014602662,10|8,0:0|3:0,0:0:0:0:
308,131,85849,2,0,P|319:151|331:172,1,47.8500014602662,4|4,3:0|3:0,0:0:0:0:
102,167,86025,6,0,P|135:79|157:8,1,156.599995220947,6|0,1:2|0:0,0:0:0:0:
143,1,86375,1,10,0:0:0:0:
321,122,86551,1,0,1:2:0:0:
321,122,86639,1,0,1:2:0:0:
321,122,86726,2,0,P|382:103|417:79,1,95.7000029205323,2|0,1:2|1:2,0:0:0:0:
297,205,87077,1,10,0:0:0:0:
455,384,87253,6,0,P|413:360|367:348,1,95.7000029205323,2|0,0:0|1:2,0:0:0:0:
190,186,87603,1,0,0:0:0:0:
142,250,87779,2,0,P|160:304|179:384,1,95.7000029205323,10|0,0:0|0:0,0:0:0:0:
421,155,88130,2,0,P|393:206|297:218,1,143.550004380798,2|0,1:2|0:0,0:0:0:0:
298,199,88481,1,10,0:0:0:0:
81,44,88656,1,2,0:0:0:0:
195,0,88832,6,0,P|165:90|135:219,1,191.400005841065,0|8,1:2|0:0,0:0:0:0:
237,368,89358,1,0,1:2:0:0:
237,368,89446,1,0,1:2:0:0:
237,368,89533,1,0,1:2:0:0:
149,199,89709,1,0,1:2:0:0:
359,119,89884,1,10,0:0:0:0:
150,324,90060,6,0,P|164:252|198:114,1,191.400005841065,2|0,1:2|1:2,0:0:0:0:
424,280,90586,2,0,P|357:300|323:326,1,95.7000029205323,10|0,0:0|0:0,0:0:0:0:
464,70,90937,2,0,P|397:50|363:24,1,95.7000029205323,2|0,1:2|1:2,0:0:0:0:
376,35,91200,1,0,1:2:0:0:
376,35,91288,1,10,0:0:0:0:
211,209,91463,2,0,P|247:195|275:190,1,47.8500014602662,0|0,1:2|1:2,0:0:0:0:
328,142,91639,5,6,1:2:0:0:
126,32,91814,1,0,1:2:0:0:
134,20,91989,1,0,1:2:0:0:
85,275,92165,5,14,0:0:0:0:
226,12,92340,1,0,1:2:0:0:
217,0,92516,1,0,1:2:0:0:
441,205,92691,6,0,B|396:219|349:245|349:245|273:215|314:126,1,208.79999362793,14|0,0:0|1:2,0:0:0:0:
82,251,93218,1,12,0:0:0:0:
213,370,93393,1,2,1:2:0:0:
312,157,93568,1,0,1:2:0:0:
78,57,93744,1,14,0:0:0:0:
217,203,93919,5,4,3:3:0:0:
217,203,94007,1,4,3:3:0:0:
217,203,94095,2,0,P|279:186|393:169,1,143.550004380798,10|0,3:3|0:0,0:0:0:0:
378,178,94446,6,0,P|420:138|369:38,1,143.550004380798,4|0,1:2|0:0,0:0:0:0:
381,53,94796,1,0,1:2:0:0:
460,285,94972,2,0,P|479:349|496:399,1,95.7000029205323,8|0,0:0|0:0,0:0:0:0:
500,184,95323,1,0,1:2:0:0:
260,280,95498,1,10,0:0:0:0:
376,350,95674,1,2,0:0:0:0:
288,112,95849,6,0,B|82:182|192:263|-14:336,1,365.399988848877,6|10,1:2|0:0,0:0:0:0:
374,54,97253,6,0,P|398:125|426:214,1,143.550004380798,4|0,1:2|0:0,0:0:0:0:
431,211,97603,2,0,P|410:271|398:318,1,95.7000029205323,10|0,0:0|0:0,0:0:0:0:
501,92,97954,1,10,0:0:0:0:
501,92,98042,1,2,0:0:0:0:
501,92,98130,1,2,1:2:0:0:
285,0,98305,1,8,0:0:0:0:
252,207,98481,2,0,P|316:186|367:181,1,95.7000029205323,2|8,1:2|0:0,0:0:0:0:
136,107,98832,6,0,P|150:47|159:3,1,95.7000029205323,2|8,0:0|0:0,0:0:0:0:
104,266,99182,2,0,P|92:312|83:359,1,95.7000029205323,2|10,0:0|0:0,0:0:0:0:
100,370,99446,1,2,0:0:0:0:
108,376,99533,2,0,P|141:389|174:388,1,47.8500014602662,2|2,1:2|0:0,0:0:0:0:
349,221,99709,5,10,0:0:0:0:
308,197,99796,1,2,0:0:0:0:
260,205,99884,1,2,1:2:0:0:
222,235,99972,1,2,0:0:0:0:
216,283,100060,1,14,0:0:0:0:
362,132,100235,1,2,0:0:0:0:
498,299,100410,1,8,0:0:0:0:
381,382,100586,2,0,P|403:328|415:283,1,95.7000029205323,2|8,0:0|0:0,0:0:0:0:
245,133,100937,1,2,1:2:0:0:
374,42,101112,1,10,0:0:0:0:
235,268,101288,6,0,P|298:287|339:315,1,95.7000029205323,6|8,1:2|0:0,0:0:0:0:
290,120,101639,2,0,P|268:129|245:132,1,47.8500014602662,6|0,1:2|1:2,0:0:0:0:
101,32,101814,2,0,P|110:55|114:78,1,47.8500014602662,10|0,0:0|1:2,0:0:0:0:
117,235,101989,1,2,1:2:0:0:
117,235,102077,1,0,1:2:0:0:
117,235,102165,1,10,0:0:0:0:
290,120,102340,1,2,1:2:0:0:
15,30,102516,6,0,L|29:75,1,47.8500014602662,14|2,0:0|0:0,0:0:0:0:
82,304,102691,2,0,P|105:252|109:241,1,47.8500014602662,2|2,1:2|0:0,0:0:0:0:
330,195,102867,2,0,P|264:171|185:152,1,143.550004380798,12|0,0:0|0:0,0:0:0:0:
171,147,103218,6,0,P|155:98|172:58,1,95.7000029205323,10|0,0:0|0:0,0:0:0:0:
351,10,103568,1,10,0:0:0:0:
351,10,103656,1,2,0:0:0:0:
351,10,103744,2,0,P|371:74|386:104,1,95.7000029205323,2|8,1:2|0:0,0:0:0:0:
266,315,104095,2,0,P|253:268|233:225,1,95.7000029205323,2|8,1:2|0:0,0:0:0:0:
126,94,104446,5,2,0:0:0:0:
233,225,104621,1,10,0:0:0:0:
28,310,104796,1,2,1:2:0:0:
28,310,104884,1,0,1:2:0:0:
28,310,104972,1,10,0:0:0:0:
0,100,105147,1,2,1:2:0:0:
137,185,105323,1,10,0:0:0:0:
338,53,105498,6,0,B|307:77|307:77|223:81|186:6,1,143.550004380798,6|0,1:2|0:0,0:0:0:0:
199,22,105849,1,2,1:2:0:0:
361,143,106025,1,10,0:0:0:0:
201,331,106200,6,0,P|189:250|162:140,1,191.400005841065,6|2,1:2|1:2,0:0:0:0:
163,143,106639,1,0,1:2:0:0:
163,143,106726,1,10,0:0:0:0:
463,314,106902,6,0,B|416:328|372:352|372:352|294:346|308:238,1,208.79999362793,6|0,1:2|1:2,0:0:0:0:
491,69,107428,1,8,0:0:0:0:
491,69,107516,1,8,3:0:0:0:
491,69,107603,1,8,3:0:0:0:
337,16,107779,5,10,0:0:0:0:
491,303,107954,1,10,0:0:0:0:
491,303,108481,6,0,P|433:325|401:324,1,87,2|2,0:0|0:0,0:0:0:0:
263,240,109182,2,0,P|321:218|353:219,1,87,2|2,0:0|0:0,0:0:0:0:
411,151,109709,2,0,P|418:112|440:50,1,87,2|2,0:0|0:0,0:0:0:0:
377,13,110235,1,2,0:0:0:0:
377,13,110410,2,0,B|295:34|334:66|229:102,1,174,2|2,0:0|0:0,0:0:0:0:
149,80,111288,6,0,P|133:52|167:7,1,87,2|2,0:0|0:0,0:0:0:0:
78,131,111814,2,0,P|84:165|93:217,1,87,2|2,0:0|0:0,0:0:0:0:
198,249,112340,2,0,P|190:206|183:163,1,87,2|0,0:0|0:0,0:0:0:0:
286,207,112867,2,0,B|317:219|317:219|335:247|335:247|364:257,1,87
198,249,113393,2,0,P|157:248|120:211,1,87,2|2,0:0|0:0,0:0:0:0:
21,15,114095,6,0,P|56:19|137:29,1,104.399996813965,2|0,1:2|0:0,0:0:0:0:
183,88,114621,1,0,0:0:0:0:
116,166,114796,2,0,P|100:210|116:270,1,104.399996813965,2|2,0:0|1:2,0:0:0:0:
183,358,115323,6,0,P|131:347|56:336,1,104.399996813965,2|0,0:0|0:0,0:0:0:0:
191,258,115849,2,0,P|242:268|293:277,2,104.399996813965,2|2|2,0:0|0:0|0:0,0:0:0:0:
384,368,116902,6,0,P|382:325|426:276,1,104.399996813965,2|2,1:2|0:0,0:0:0:0:
299,219,117428,2,0,P|298:270|263:307,1,104.399996813965,2|2,0:0|1:2,0:0:0:0:
179,288,117954,1,2,0:0:0:0:
179,288,118481,5,2,0:0:0:0:
124,187,118656,1,2,0:0:0:0:
55,126,118832,5,2,0:0:0:0:
122,32,119007,1,10,3:0:0:0:
107,27,119095,1,8,0:0:0:0:
92,21,119182,1,8,0:0:0:0:
77,16,119270,1,8,0:0:0:0:
62,10,119358,1,4,3:0:0:0:
177,129,119533,5,0,1:2:0:0:
177,129,119621,1,0,1:2:0:0:
177,129,119709,2,0,B|272:141|226:156|334:175,1,139.2,4|2,1:2|0:0,0:0:0:0:
309,170,120235,1,0,1:2:0:0:
424,117,120410,2,0,P|446:81|436:48,1,69.6,2|0,0:0|1:2,0:0:0:0:
441,55,120674,1,0,1:2:0:0:
441,55,120761,2,0,P|451:117|466:177,1,104.4,10|0,0:0|0:0,0:0:0:0:
478,172,121112,6,0,P|464:218|453:264,1,69.6,0|2,1:2|0:0,0:0:0:0:
497,308,121463,1,2,0:0:0:0:
365,384,121639,2,0,P|398:373|431:364,1,69.6,10|0,3:0|0:0,0:0:0:0:
291,312,121989,1,0,1:2:0:0:
291,312,122077,1,0,1:2:0:0:
291,312,122165,2,0,P|257:301|224:292,1,69.6,8|2,0:0|0:0,0:0:0:0:
26,303,122516,6,0,P|53:356|130:332,1,139.2,2|2,1:2|0:0,0:0:0:0:
96,234,123042,2,0,P|111:171|116:145,1,69.6,2|0,1:2|0:0,0:0:0:0:
199,297,123393,1,2,1:2:0:0:
199,297,123481,1,0,1:2:0:0:
199,297,123568,1,10,0:0:0:0:
293,228,123744,6,0,P|286:185|268:132,1,69.6,2|0,0:0|1:2,0:0:0:0:
276,316,124095,2,0,P|281:350|290:383,1,69.6,2|0,0:0|0:0,0:0:0:0:
440,294,124446,1,10,3:0:0:0:
381,242,124621,2,0,P|343:233|310:218,1,69.6,2|0,0:0|0:0,0:0:0:0:
434,71,124972,2,0,P|472:80|505:95,1,69.6,10|2,0:0|0:0,0:0:0:0:
317,23,125323,6,0,P|267:60|186:51,1,139.2,4|0,1:2|0:0,0:0:0:0:
72,96,125849,2,0,P|85:47|87:9,1,69.6,0|2,1:2|0:0,0:0:0:0:
178,139,126200,1,0,1:2:0:0:
178,139,126288,1,0,1:2:0:0:
178,139,126375,1,10,0:0:0:0:
124,207,126551,2,0,P|113:240|109:274,1,69.6,2|0,0:0|0:0,0:0:0:0:
217,368,126902,5,0,1:2:0:0:
206,359,126989,1,0,1:2:0:0:
194,351,127077,1,10,0:0:0:0:
249,247,127253,1,8,3:0:0:0:
394,314,127428,1,6,3:0:0:0:
335,376,127603,1,4,3:0:0:0:
422,223,127779,2,0,P|397:168|396:142,1,69.6,10|0,0:0|0:0,0:0:0:0:
512,383,128130,6,0,P|443:363|347:348,1,139.2,2|0,1:2|0:0,0:0:0:0:
245,250,128656,2,0,P|254:292|261:323,1,69.6,10|2,0:0|0:0,0:0:0:0:
328,192,129007,1,0,1:2:0:0:
177,130,129182,1,8,0:0:0:0:
197,355,129358,6,0,P|212:297|237:198,1,156.599995220947,4|0,1:2|1:2,0:0:0:0:
56,61,129884,1,8,0:0:0:0:
146,22,130060,1,0,1:2:0:0:
146,22,130147,1,8,0:0:0:0:
146,22,130235,1,10,0:0:0:0:
67,197,130410,1,8,3:0:0:0:
234,155,130586,1,10,0:0:0:0:
234,155,130674,2,0,P|248:84|254:65,1,78.2999976104737,8|0,3:0|0:0,0:0:0:0:
267,61,130937,6,0,P|311:32|402:79,1,156.599995220947,6|10,1:2|0:0,0:0:0:0:
509,202,131463,2,0,B|419:250|483:244|368:296,1,156.599995220947,2|0,0:0|1:2,0:0:0:0:
243,179,131989,2,0,P|265:134|267:98,1,78.2999976104737,10|0,0:0|0:0,0:0:0:0:
193,38,132340,5,2,1:2:0:0:
193,38,132516,1,0,0:0:0:0:
339,145,132691,2,0,P|391:130|434:127,1,78.2999976104737,10|0,0:0|0:0,0:0:0:0:
333,277,133042,1,2,1:2:0:0:
406,233,133218,1,0,1:2:0:0:
262,124,133393,2,0,P|250:182|243:202,1,78.2999976104737,10|0,0:0|0:0,0:0:0:0:
113,295,133744,6,0,P|172:308|242:351,1,117.449996415711,2|0,1:2|0:0,0:0:0:0:
235,357,134095,1,10,0:0:0:0:
153,198,134270,2,0,P|137:145|133:113,1,78.2999976104737,2|0,0:0|1:2,0:0:0:0:
243,199,134621,1,0,1:2:0:0:
127,293,134796,1,10,0:0:0:0:
127,293,134972,2,0,P|111:346|107:378,1,78.2999976104737,2|0,0:0|1:2,0:0:0:0:
294,297,135323,6,0,P|246:282|214:263,1,78.2999976104737,0|8,0:0|0:0,0:0:0:0:
367,207,135674,2,0,P|415:192|447:173,1,78.2999976104737,0|2,0:0|1:2,0:0:0:0:
415,298,136025,1,0,1:2:0:0:
281,213,136200,1,10,0:0:0:0:
328,92,136375,5,0,1:2:0:0:
328,92,136463,1,0,1:2:0:0:
328,92,136551,2,0,P|325:166|309:259,1,156.599995220947,2|10,1:2|0:0,0:0:0:0:
343,338,137077,1,2,0:0:0:0:
459,264,137253,1,0,1:2:0:0:
459,264,137428,1,0,1:2:0:0:
335,354,137603,2,0,P|291:340|257:330,1,78.2999976104737,10|0,0:0|0:0,0:0:0:0:
98,343,137954,6,0,P|151:312|160:211,2,156.599995220947,2|10|2,1:2|0:0|1:2,0:0:0:0:
186,216,138832,1,0,1:2:0:0:
65,165,139007,2,0,P|75:215|78:253,1,78.2999976104737,10|0,0:0|0:0,0:0:0:0:
256,92,139358,6,0,B|148:66|210:57|93:26,1,156.599995220947,2|8,1:2|0:0,0:0:0:0:
3,211,139884,1,2,0:0:0:0:
77,242,140060,2,0,P|117:209|98:129,1,117.449996415711,2|0,1:2|0:0,0:0:0:0:
95,135,140410,1,8,0:0:0:0:
241,285,140586,6,0,B|284:293|313:309|313:309|348:287|341:236,1,156.599995220947,4|0,1:2|1:2,0:0:0:0:
208,113,141112,1,8,0:0:0:0:
271,188,141288,1,0,1:2:0:0:
403,90,141463,2,0,P|365:81|321:70,1,78.2999976104737,2|8,1:2|0:0,0:0:0:0:
326,71,141726,1,8,0:0:0:0:
326,71,141814,1,10,0:0:0:0:
430,206,141989,5,4,3:0:0:0:
430,206,142077,1,4,3:0:0:0:
430,206,142165,2,0,P|449:261|473:362,1,156.599995220947,6|10,1:2|0:0,0:0:0:0:
291,284,142691,2,0,P|228:274|196:273,1,78.2999976104737,2|0,0:0|1:2,0:0:0:0:
301,200,143042,1,0,1:2:0:0:
397,377,143218,2,0,P|407:339|422:303,1,78.2999976104737,10|0,0:0|0:0,0:0:0:0:
496,150,143568,6,0,P|456:172|345:201,2,156.599995220947,2|10|2,1:2|0:0|1:2,0:0:0:0:
329,19,144446,1,0,1:2:0:0:
422,0,144621,2,0,P|410:39|400:85,1,78.2999976104737,10|0,0:0|0:0,0:0:0:0:
279,161,144972,6,0,P|239:190|122:190,1,156.599995220947,2|10,1:2|0:0,0:0:0:0:
22,77,145498,2,0,P|76:56|102:34,1,78.2999976104737,2|0,1:2|0:0,0:0:0:0:
0,230,145849,2,0,P|37:241|69:263,1,78.2999976104737,2|8,1:2|0:0,0:0:0:0:
244,310,146200,6,0,B|131:344|182:344|76:375,1,174,6|0,1:2|1:2,0:0:0:0:
315,384,146726,1,8,0:0:0:0:
353,313,146902,1,8,0:0:0:0:
357,298,146989,1,8,0:0:0:0:
362,283,147077,1,10,0:0:0:0:
503,354,147253,5,8,3:0:0:0:
508,369,147341,1,8,3:0:0:0:
512,384,147428,1,10,3:0:0:0:
460,281,147603,1,4,3:0:0:0:
261,358,147779,6,0,P|239:303|232:173,1,156.599995220947,6|0,1:2|1:2,0:0:0:0:
469,313,148481,6,0,P|491:258|498:128,1,156.599995220947,6|0,1:2|1:2,0:0:0:0:
124,199,149182,6,0,P|97:125|91:47,1,156.599995220947,6|0,1:2|1:2,0:0:0:0:
15,251,149884,1,10,0:0:0:0:
15,251,150235,6,0,B|52:266|85:269|85:269|104:306|104:306|140:305|183:332,1,174,6|0,1:2|1:2,0:0:0:0:
272,264,150761,1,0,1:2:0:0:
162,161,150936,1,8,0:0:0:0:
316,37,151112,1,8,0:0:0:0:
155,257,151287,5,8,0:0:0:0:
93,68,151463,1,8,0:0:0:0:
255,287,151638,5,8,0:0:0:0:
293,8,151814,1,8,0:0:0:0:
431,166,151989,6,0,P|414:221|383:323,1,156.599995220947,14|0,0:0|0:0,0:0:0:0:
427,376,152340,1,0,1:2:0:0:
227,130,152516,6,0,P|244:185|273:285,1,156.599995220947,14|0,0:0|0:0,0:0:0:0:
230,340,152867,1,0,1:2:0:0:
431,166,153042,1,14,0:0:0:0:
438,121,153130,1,8,3:0:0:0:
413,84,153218,1,8,3:0:0:0:
373,66,153305,1,8,3:0:0:0:
332,79,153393,6,0,B|280:35|228:77|228:77|231:113|192:137,1,156.599995220947,6|0,1:2|0:0,0:0:0:0:
212,134,153744,2,0,P|181:86|194:48,1,95.7000029205323,10|0,0:0|0:0,0:0:0:0:
76,164,154095,1,2,1:2:0:0:
244,296,154270,1,0,1:2:0:0:
124,384,154446,5,10,0:0:0:0:
308,150,154621,1,2,1:2:0:0:
308,150,154709,1,0,1:2:0:0:
308,150,154796,2,0,P|312:78|331:33,1,95.7000029205323,0|0,1:2|0:0,0:0:0:0:
76,164,155147,2,0,P|76:211|64:257,1,95.7000029205323,10|0,0:0|1:2,0:0:0:0:
64,257,155410,1,0,1:2:0:0:
64,257,155498,1,2,1:2:0:0:
196,133,155674,1,0,1:2:0:0:
346,302,155849,1,10,0:0:0:0:
247,362,156025,5,2,1:2:0:0:
247,362,156112,1,0,1:2:0:0:
247,362,156200,2,0,P|261:294|296:157,1,191.400005841065,0|8,1:2|0:0,0:0:0:0:
211,105,156726,1,0,0:0:0:0:
447,22,156901,1,0,1:2:0:0:
290,175,157077,1,0,1:2:0:0:
445,331,157252,1,10,0:0:0:0:
512,201,157428,6,0,B|400:237|476:280|355:323,1,191.400005841065,2|0,0:0|0:0,0:0:0:0:
230,106,157954,2,0,P|284:88|318:64,1,95.7000029205323,10|0,0:0|0:0,0:0:0:0:
178,338,158305,2,0,P|232:355|266:379,1,95.7000029205323,2|0,1:2|1:2,0:0:0:0:
263,377,158568,1,0,1:2:0:0:
263,377,158656,1,10,0:0:0:0:
199,240,158831,1,0,0:0:0:0:
0,384,159007,6,0,P|16:321|51:189,1,191.400005841065,2|8,1:2|0:0,0:0:0:0:
140,43,159533,1,2,1:2:0:0:
140,43,159621,1,0,1:2:0:0:
140,43,159709,1,0,1:2:0:0:
325,148,159884,1,0,1:2:0:0:
200,278,160060,2,0,P|184:219|179:170,1,95.7000029205323,8|0,0:0|0:0,0:0:0:0:
415,31,160410,6,0,B|409:84|396:103|396:103|413:144|413:144|396:177|396:223,1,191.400005841065,2|8,1:2|0:0,0:0:0:0:
178,56,160937,2,0,P|119:36|79:15,1,95.7000029205323,2|0,0:0|1:2,0:0:0:0:
227,134,161288,1,0,1:2:0:0:
86,308,161463,2,0,P|129:287|174:273,1,95.7000029205323,10|2,0:0|0:0,0:0:0:0:
363,106,161814,6,0,P|342:149|328:194,1,95.7000029205323,2|0,1:2|0:0,0:0:0:0:
269,62,162165,1,10,0:0:0:0:
445,230,162340,1,2,1:2:0:0:
445,230,162428,1,0,1:2:0:0:
445,230,162516,1,0,1:2:0:0:
278,340,162691,1,0,1:2:0:0:
212,208,162867,1,10,0:0:0:0:
440,71,163042,6,0,P|421:136|396:281,1,191.400005841065,6|0,1:2|1:2,0:0:0:0:
202,384,163568,2,0,P|263:354|303:345,1,95.7000029205323,14|0,0:0|0:0,0:0:0:0:
419,383,163919,1,10,0:0:0:0:
210,180,164095,1,0,1:2:0:0:
475,102,164270,5,10,0:0:0:0:
460,148,164358,1,8,0:0:0:0:
448,194,164446,1,8,0:0:0:0:
440,240,164533,1,8,0:0:0:0:
440,288,164621,6,0,P|341:312|242:337,1,156.599995220947,6|0,1:2|0:0,0:0:0:0:
270,344,164972,2,0,P|237:303|250:249,1,95.7000029205323,10|0,0:0|0:0,0:0:0:0:
30,348,165323,2,0,P|90:370|126:389,1,95.7000029205323,2|0,1:2|1:2,0:0:0:0:
0,266,165674,1,10,0:0:0:0:
201,129,165849,5,2,1:2:0:0:
201,129,165937,1,0,1:2:0:0:
201,129,166025,2,0,P|180:177|167:228,1,95.7000029205323,0|0,1:2|0:0,0:0:0:0:
351,384,166375,2,0,P|363:337|383:294,1,95.7000029205323,10|0,0:0|0:0,0:0:0:0:
487,124,166726,1,2,1:2:0:0:
382,294,166902,1,0,1:2:0:0:
174,166,167077,1,10,0:0:0:0:
318,55,167252,5,2,1:2:0:0:
318,55,167340,1,0,1:2:0:0:
318,55,167428,2,0,P|289:134|270:240,2,191.400005841065,0|8|0,1:2|0:0|1:2,0:0:0:0:
196,128,168305,1,0,1:2:0:0:
360,334,168481,1,10,0:0:0:0:
500,208,168656,6,0,B|438:192|387:168|387:168|339:207|369:271,1,208.79999362793,6|0,1:2|1:2,0:0:0:0:
174,31,169182,2,0,P|215:54|262:63,1,95.7000029205323,10|0,0:0|0:0,0:0:0:0:
143,261,169533,1,2,1:2:0:0:
284,171,169709,1,0,1:2:0:0:
51,12,169884,2,0,P|35:72|20:115,1,95.7000029205323,10|0,0:0|1:2,0:0:0:0:
24,103,170147,5,0,1:2:0:0:
24,103,170235,1,6,1:2:0:0:
184,187,170410,1,0,1:2:0:0:
287,20,170586,1,0,1:2:0:0:
76,247,170761,5,14,0:0:0:0:
194,86,170937,1,0,1:2:0:0:
356,222,171112,1,0,1:2:0:0:
214,384,171288,6,0,P|230:314|252:166,1,208.79999362793,14|0,0:0|1:2,0:0:0:0:
326,326,171814,1,12,0:0:0:0:
131,211,171989,1,2,1:2:0:0:
273,96,172165,1,0,1:2:0:0:
123,337,172340,6,0,P|60:312|12:307,1,95.7000029205323,14|4,0:0|3:3,0:0:0:0:
173,57,172691,1,10,3:3:0:0:
29,154,172867,1,6,3:3:0:0:
255,282,173042,6,0,B|290:224|366:240|366:240|378:285|433:289,1,191.400005841065,4|0,1:2|1:2,0:0:0:0:
262,69,173568,1,8,0:0:0:0:
364,14,173744,1,0,1:2:0:0:
251,82,173919,1,0,1:2:0:0:
470,208,174095,1,10,0:0:0:0:
399,101,174270,1,2,0:0:0:0:
481,224,174446,6,0,P|467:270|464:318,1,95.7000029205323,2|8,1:2|0:0,0:0:0:0:
234,175,174796,2,0,P|247:129|250:81,1,95.7000029205323,2|0,1:2|1:2,0:0:0:0:
324,210,175147,1,10,0:0:0:0:
186,318,175323,1,8,3:0:0:0:
75,139,175498,1,2,1:2:0:0:
152,182,175674,1,0,1:2:0:0:
0,384,175849,6,0,P|12:334|38:166,1,191.400005841065,6|0,1:2|1:2,0:0:0:0:
186,318,176375,1,10,0:0:0:0:
308,168,176551,1,0,0:0:0:0:
189,89,176726,5,2,1:2:0:0:
325,283,176902,1,10,0:0:0:0:
182,77,177077,2,0,P|128:98|-5:136,1,191.400005841065,6|2,1:2|1:2,0:0:0:0:
168,319,177603,5,0,1:2:0:0:
202,229,177779,1,10,0:0:0:0:
234,139,177954,1,0,0:0:0:0:
0,226,178130,5,10,3:0:0:0:
37,290,178305,2,0,P|19:344|-4:383,1,95.7000029205323,4|4,3:0|3:0,0:0:0:0:
222,247,178656,6,0,P|202:173|189:49,1,191.400005841065,6|0,1:2|0:0,0:0:0:0:
395,269,179182,2,0,P|335:285|283:316,1,95.7000029205323,10|0,0:0|0:0,0:0:0:0:
462,214,179533,1,2,1:2:0:0:
337,61,179709,1,10,0:0:0:0:
473,223,179884,6,0,P|489:273|509:327,1,95.7000029205323,6|0,1:2|0:0,0:0:0:0:
306,153,180235,1,2,1:2:0:0:
433,39,180410,1,8,0:0:0:0:
351,276,180586,1,10,0:0:0:0:
333,268,180674,1,8,0:0:0:0:
314,262,180761,1,8,0:0:0:0:
209,165,180937,1,10,3:0:0:0:
105,310,181112,1,6,3:0:0:0:
192,351,181288,1,4,3:0:0:0:
57,165,181463,6,0,P|16:103|53:-1,1,191.400005841065,6|0,1:2|0:0,0:0:0:0:
226,243,181989,1,10,0:0:0:0:
134,271,182165,1,2,0:0:0:0:
41,295,182340,1,2,1:2:0:0:
230,366,182516,5,10,0:0:0:0:
47,172,182691,2,0,P|71:110|78:69,1,95.7000029205323,6|0,1:2|0:0,0:0:0:0:
226,243,183042,2,0,P|207:286|196:333,1,95.7000029205323,2|0,1:2|1:2,0:0:0:0:
433,188,183393,2,0,B|402:208|402:208|334:209|301:154,1,143.550004380798,10|0,0:0|0:0,0:0:0:0:
294,150,183744,1,2,1:2:0:0:
392,89,183919,1,8,0:0:0:0:
270,372,184095,6,0,P|249:287|217:181,1,191.400005841065,6|10,1:2|3:0,0:0:0:0:
341,280,184621,1,10,3:0:0:0:
154,89,184796,6,0,P|126:180|103:273,1,191.400005841065,6|2,1:2|1:2,0:0:0:0:
36,135,185323,1,10,0:0:0:0:
295,32,185498,6,0,B|346:21|400:0|400:0|439:27|430:88,1,208.79999362793,6|2,1:2|1:2,0:0:0:0:
257,243,186025,1,8,0:0:0:0:
328,157,186200,1,6,3:0:0:0:
320,139,186288,1,4,3:0:0:0:
309,122,186375,1,0,1:2:0:0:
470,216,186551,1,10,3:0:0:0:
361,350,186726,1,4,3:0:0:0:
326,277,186902,1,0,1:2:0:0:
488,210,187077,6,0,B|463:283|463:283|500:370,1,156.599995220947,6|0,1:2|0:0,0:0:0:0:
354,212,187779,2,0,B|379:285|379:285|347:358,1,156.599995220947,8|2,0:0|1:2,0:0:0:0:
187,281,188481,6,0,B|92:316|153:328|45:362,1,156.599995220947,2|2,0:0|0:0,0:0:0:0:
53,359,189007,1,2,0:0:0:0:
194,266,189182,2,0,B|289:301|228:313|336:347,1,156.599995220947,8|2,0:0|1:2,0:0:0:0:
485,250,189884,6,0,P|497:188|517:83,1,156.599995220947,2|2,1:2|0:0,0:0:0:0:
422,147,190410,2,0,P|358:160|332:170,1,78.2999976104737,2|8,0:0|0:0,0:0:0:0:
268,15,190761,1,2,0:0:0:0:
326,66,190937,2,0,P|390:53|416:43,1,78.2999976104737,2|0,0:0|1:2,0:0:0:0:
242,128,191288,6,0,P|180:129|81:155,1,156.599995220947,2|2,0:0|1:2,0:0:0:0:
41,78,191814,1,2,0:0:0:0:
120,232,191989,1,8,0:0:0:0:
52,268,192165,1,2,1:2:0:0:
137,227,192340,1,2,0:0:0:0:
299,360,192691,6,0,P|290:300|261:194,1,156.599995220947,2|0,1:2|0:0,0:0:0:0:
428,156,193393,2,0,P|407:231|394:308,1,156.599995220947,8|2,0:0|1:2,0:0:0:0:
500,201,193919,1,0,1:2:0:0:
413,141,194095,6,0,P|401:99|395:51,1,78.2999976104737,2|0,0:0|0:0,0:0:0:0:
323,157,194446,1,2,1:2:0:0:
323,157,194621,2,0,P|311:115|305:67,1,78.2999976104737,2|8,1:2|0:0,0:0:0:0:
341,12,194972,1,0,0:0:0:0:
221,109,195147,2,0,P|169:133|124:141,1,78.2999976104737,2|0,0:0|0:0,0:0:0:0:
34,108,195498,6,0,P|69:154|63:254,1,156.599995220947,2|0,1:2|0:0,0:0:0:0:
6,314,196025,1,2,1:2:0:0:
105,373,196200,2,0,P|150:358|194:350,1,78.2999976104737,10|0,0:0|0:0,0:0:0:0:
218,260,196551,2,0,P|254:272|293:281,1,78.2999976104737,0|0,0:0|1:2,0:0:0:0:
396,376,196902,6,0,P|377:311|361:218,1,156.599995220947,2|0,0:0|1:2,0:0:0:0:
421,162,197428,1,6,3:0:0:0:
421,162,197516,1,4,3:0:0:0:
421,162,197603,1,6,3:0:0:0:
250,88,197779,1,8,3:0:0:0:
319,13,197954,1,4,3:0:0:0:
381,66,198130,1,4,3:0:0:0:
237,232,198305,6,0,B|149:198|220:170|95:140,1,156.599995220947,6|0,1:2|0:0,0:0:0:0:
0,321,199007,2,0,B|88:287|17:259|142:229,1,156.599995220947,8|2,0:0|0:0,0:0:0:0:
177,297,199533,1,0,1:2:0:0:
329,184,199709,6,0,P|345:142|318:106,1,78.2999976104737,2|0,0:0|1:2,0:0:0:0:
180,66,200060,1,2,1:2:0:0:
237,13,200235,2,0,P|277:23|325:31,1,78.2999976104737,2|8,0:0|0:0,0:0:0:0:
201,150,200586,1,0,0:0:0:0:
201,150,200761,2,0,P|161:160|113:168,1,78.2999976104737,2|0,1:2|0:0,0:0:0:0:
27,118,201112,6,0,P|39:80|45:41,1,78.2999976104737,2|0,1:2|0:0,0:0:0:0:
17,211,201463,2,0,P|5:248|0:287,1,78.2999976104737,2|0,0:0|1:2,0:0:0:0:
142,176,201814,6,0,P|130:138|124:99,1,78.2999976104737,10|0,0:0|0:0,0:0:0:0:
153,268,202165,2,0,P|164:305|170:344,1,78.2999976104737,2|0,0:0|1:2,0:0:0:0:
273,267,202516,6,0,B|339:278|339:278|359:311|359:311|413:335,1,156.599995220947,2|0,1:2|0:0,0:0:0:0:
476,279,203042,1,2,1:2:0:0:
376,173,203218,1,8,0:0:0:0:
376,173,203568,6,0,P|268:180|216:117,1,174,6|0,1:2|0:0,0:0:0:0:
88,50,204095,1,10,3:0:0:0:
88,50,204270,1,10,3:0:0:0:
36,283,204446,6,0,P|111:237|215:267,1,174,6|6,1:2|3:0,0:0:0:0:
297,174,204972,1,10,3:0:0:0:
144,0,205147,6,0,P|129:47|102:176,1,174,6|6,1:2|3:0,0:0:0:0:
23,89,205674,1,10,3:0:0:0:
270,303,205849,6,0,P|253:217|228:134,1,174,6|10,1:2|0:0,0:0:0:0:
143,241,206375,1,2,1:2:0:0:
450,384,206551,6,0,P|430:293|379:378,1,208.79999362793,6|8,1:2|0:0,0:0:0:0:
233,217,207077,1,8,0:0:0:0:
369,133,207253,1,8,0:0:0:0:
277,373,207428,1,8,0:0:0:0:
61,226,207603,1,8,0:0:0:0:
244,66,207779,1,8,0:0:0:0:
96,359,207954,1,8,0:0:0:0:
421,254,208130,6,0,P|343:227|74:144,1,348,4|2,1:2|0:0,0:0:0:0:
246,93,210060,5,2,0:0:0:0:
421,254,210586,5,2,0:0:0:0:
189,101,211639,6,0,P|170:54|94:147,1,243.6,2|2,0:0|0:0,0:0:0:0:
205,225,213042,6,0,B|344:239|286:311|433:320,1,243.6,2|2,0:0|0:0,0:0:0:0:
493,230,214446,6,0,B|487:205|492:190|492:190|425:69|425:69|453:91|492:92,1,243.6,2|2,0:0|0:0,0:0:0:0:
273,17,215849,6,0,P|306:29|341:30,1,69.6,2|2,0:0|0:0,0:0:0:0:
337,202,216551,2,0,P|302:202|269:214,1,69.6,2|2,0:0|0:0,0:0:0:0:
76,60,217253,6,0,P|114:84|204:78,1,121.799996282959,2|0,0:0|0:0,0:0:0:0:
171,199,217779,2,0,P|117:170|57:174,1,121.799996282959,2|0,0:0|0:0,0:0:0:0:
1,228,218305,1,0,0:0:0:0:
249,377,218656,6,0,P|287:353|377:359,1,121.799996282959,2|0,0:0|0:0,0:0:0:0:
344,238,219182,2,0,P|290:266|230:262,1,121.799996282959,2|0,0:0|0:0,0:0:0:0:
174,209,219709,1,2,0:0:0:0:
281,32,220060,6,0,P|338:47|405:91,1,121.799996282959,2|2,0:0|0:0,0:0:0:0:
455,161,220586,2,0,P|465:121|494:38,1,121.799996282959,2|0,0:0|0:0,0:0:0:0:
374,100,221112,1,10,0:0:0:0:
503,302,221288,6,0,B|377:317|453:362|325:387,1,191.400005841065,6|0,1:2|0:0,0:0:0:0:
158,143,221814,1,10,0:0:0:0:
296,236,221989,1,0,1:2:0:0:
302,217,222077,1,0,1:2:0:0:
309,199,222165,1,2,1:2:0:0:
79,251,222340,1,8,0:0:0:0:
45,286,222428,1,8,0:0:0:0:
49,334,222516,1,10,0:0:0:0:
79,371,222603,1,8,0:0:0:0:
125,380,222691,1,8,0:0:0:0:
165,354,222779,1,8,0:0:0:0:
177,341,222867,6,0,P|171:303|166:266,1,65.25,6|0,0:0|0:0,0:0:0:0:
213,210,223217,6,0,B|256:198|306:168|306:168|382:189|362:280,1,243.599992565918,14|2,0:0|1:2,0:0:0:0:
211,115,223744,1,0,1:2:0:0:
30,284,223919,1,10,0:0:0:0:
191,370,224095,5,2,1:2:0:0:
191,370,224182,1,0,1:2:0:0:
191,370,224270,2,0,P|177:311|167:267,1,95.7000029205323,0|0,1:2|0:0,0:0:0:0:
112,40,224621,2,0,P|123:86|133:133,1,95.7000029205323,10|0,0:0|0:0,0:0:0:0:
404,22,224972,2,0,B|382:50|382:50|320:70|261:2,1,143.550004380798,2|0,1:2|0:0,0:0:0:0:
259,10,225323,1,10,0:0:0:0:
410,127,225498,1,2,0:0:0:0:
268,322,225674,6,0,P|282:244|314:116,1,191.400005841065,4|8,1:2|0:0,0:0:0:0:
369,265,226200,1,0,0:0:0:0:
171,371,226375,1,0,1:2:0:0:
380,263,226551,1,0,1:2:0:0:
255,91,226726,1,10,0:0:0:0:
86,257,226902,6,0,P|165:238|286:218,1,191.400005841065,2|0,0:0|0:0,0:0:0:0:
23,89,227428,2,0,P|-2:33|25:-14,1,95.7000029205323,10|0,0:0|0:0,0:0:0:0:
181,272,227779,2,0,P|162:325|143:372,1,95.7000029205323,2|0,1:2|1:2,0:0:0:0:
71,240,228130,1,10,0:0:0:0:
338,336,228305,5,0,1:2:0:0:
338,336,228393,1,0,1:2:0:0:
338,336,228481,2,0,P|425:319|491:308,1,143.550004380798,6|0,1:2|0:0,0:0:0:0:
493,315,228831,1,8,0:0:0:0:
285,90,229007,1,2,0:0:0:0:
435,154,229182,5,0,1:2:0:0:
222,240,229358,1,0,1:2:0:0:
427,129,229533,1,8,0:0:0:0:
149,9,229709,5,0,1:2:0:0:
149,9,229796,1,0,1:2:0:0:
149,9,229884,2,0,P|88:23|41:121,1,143.550004380798,2|0,1:2|0:0,0:0:0:0:
49,107,230235,1,8,0:0:0:0:
222,240,230410,1,2,0:0:0:0:
54,327,230586,5,0,1:2:0:0:
246,227,230761,1,0,1:2:0:0:
107,186,230937,1,10,0:0:0:0:
220,371,231112,1,2,0:0:0:0:
435,195,231288,6,0,P|417:134|414:1,1,191.400005841065,6|10,1:2|0:0,0:0:0:0:
212,191,231814,2,0,P|205:245|194:303,1,95.7000029205323,2|0,0:0|1:2,0:0:0:0:
344,229,232165,1,2,1:2:0:0:
281,64,232340,1,10,0:0:0:0:
504,283,232516,6,0,B|448:293|399:313|399:313|372:265|339:222,1,208.79999362793,4|2,1:2|1:2,0:0:0:0:
501,17,233042,2,0,P|482:64|466:137,1,95.7000029205323,10|0,0:0|0:0,0:0:0:0:
512,300,233393,5,0,1:2:0:0:
321,152,233569,1,8,0:0:0:0:
333,159,233656,1,8,0:0:0:0:
345,166,233744,5,8,3:0:0:0:
368,206,233832,1,8,3:0:0:0:
355,252,233920,1,4,3:0:0:0:
319,284,234007,1,4,3:0:0:0:
271,281,234095,6,0,P|209:298|158:303,1,95.7000029205323,6|0,1:2|1:2,0:0:0:0:
48,102,234446,1,10,0:0:0:0:
200,210,234620,1,0,1:2:0:0:
23,363,234795,1,10,0:0:0:0:
144,95,234971,1,0,1:2:0:0:
358,276,235146,1,10,0:0:0:0:
184,349,235322,1,2,1:2:0:0:
184,349,235409,1,0,1:2:0:0:
184,349,235497,5,8,0:0:0:0:
137,109,235673,1,0,1:2:0:0:
96,384,235848,5,10,0:0:0:0:
39,95,236024,1,0,1:2:0:0:
289,336,236199,5,10,0:0:0:0:
336,96,236375,1,0,1:2:0:0:
377,371,236550,5,10,0:0:0:0:
434,82,236726,1,2,1:2:0:0:
130,213,236902,6,0,P|200:224|357:256,1,226.199989645386,12|8,0:2|0:0,0:0:0:0:
217,349,237428,1,0,1:2:0:0:
19,181,237603,1,8,0:0:0:0:
174,50,237779,1,0,1:2:0:0:
58,341,237954,1,10,0:0:0:0:
370,213,238130,6,0,B|313:186|268:160|268:160|211:189|219:259,1,226.199989645386,6|0,1:2|1:2,0:0:0:0:
453,101,238656,2,0,P|438:40|426:-11,1,95.7000029205323,10|8,0:0|0:0,0:0:0:0:
430,8,238919,1,8,0:0:0:0:
430,8,239007,1,10,0:0:0:0:
512,216,239182,1,0,1:2:0:0:
317,295,239357,1,6,3:3:0:0:
363,185,239533,1,8,3:3:0:0:
433,241,239708,5,6,1:2:0:0:
206,153,239884,1,0,1:2:0:0:
193,166,240060,1,0,1:2:0:0:
366,86,240235,5,14,0:0:0:0:
106,271,240410,1,0,1:2:0:0:
88,260,240586,1,0,1:2:0:0:
309,377,240761,6,0,P|294:304|264:168,1,208.79999362793,14|0,0:0|1:2,0:0:0:0:
0,26,241288,6,0,B|29:44|66:44|66:44|103:85|103:85|162:84|197:141,1,226.199989645386,12|0,0:0|1:2,0:0:0:0:
207,16,241814,1,14,0:0:0:0:
38,188,241989,1,0,1:2:0:0:
187,296,242165,1,6,3:0:0:0:
111,369,242340,5,6,3:0:0:0:
111,369,242428,1,4,3:0:0:0:
111,369,242516,2,0,P|91:280|59:174,1,191.400005841065,4|0,1:2|1:2,0:0:0:0:
236,235,243042,1,10,0:0:0:0:
190,117,243217,1,0,0:0:0:0:
347,166,243393,1,0,1:2:0:0:
276,329,243568,1,10,0:0:0:0:
132,225,243744,1,2,0:0:0:0:
287,77,243919,5,2,1:2:0:0:
377,269,244095,1,8,0:0:0:0:
284,64,244270,2,0,P|228:75|172:96,1,95.7000029205323,2|0,1:2|1:2,0:0:0:0:
368,286,244621,2,0,P|424:275|480:254,1,95.7000029205323,10|0,0:0|1:2,0:0:0:0:
327,168,244972,1,10,0:0:0:0:
343,378,245323,6,0,P|361:316|373:247,1,95.7000029205323,4|8,1:2|0:0,0:0:0:0:
367,285,245586,1,8,0:0:0:0:
367,285,245674,1,8,0:0:0:0:
218,155,245849,6,0,P|151:166|99:188,1,95.7000029205323,4|0,1:2|1:2,0:0:0:0:
125,175,246112,1,0,1:2:0:0:
125,175,246200,2,0,P|136:222|141:240,1,47.8500014602662,0|0,1:2|1:2,0:0:0:0:
209,320,246375,5,14,0:0:0:0:
38,140,246551,1,2,0:0:0:0:
166,62,246726,5,2,0:0:0:0:
25,250,246902,1,8,0:0:0:0:
168,51,247077,6,0,P|98:29|61:6,1,95.7000029205323,2|0,0:0|1:2,0:0:0:0:
203,223,247428,2,0,P|133:245|96:268,1,95.7000029205323,10|0,0:0|1:2,0:0:0:0:
223,130,247779,1,6,3:0:0:0:
400,306,247954,1,4,3:0:0:0:
289,376,248130,6,0,P|303:316|337:167,1,208.79999362793,4|0,1:2|1:2,0:0:0:0:
162,47,248655,1,8,0:0:0:0:
164,57,248743,1,8,0:0:0:0:
166,66,248831,5,8,0:0:0:0:
191,99,248919,1,8,0:0:0:0:
230,113,249006,1,8,0:0:0:0:
270,101,249094,1,8,0:0:0:0:
303,37,249182,5,10,0:0:0:0:
347,8,249270,1,8,0:0:0:0:
399,8,249357,1,10,0:0:0:0:
438,42,249445,1,8,0:0:0:0:
448,57,249533,6,0,P|438:122|405:302,1,243.6,6|2,1:2|0:0,0:0:0:0:
256,192,250937,12,0,252165,0:0:0:0:
356,141,252340,5,0,1:2:0:0:
360,156,252427,1,0,1:2:0:0:
364,171,252515,1,8,0:0:0:0:
368,185,252603,1,8,0:0:0:0:
396,215,252691,5,0,1:2:0:0:
392,230,252778,1,8,0:0:0:0:
388,245,252866,1,8,0:0:0:0:
384,259,252954,1,0,1:2:0:0:
362,281,253042,6,0,P|374:324|382:376,1,95.7000029205323,14|0,0:0|1:2,0:0:0:0:
381,374,253393,1,0,1:2:0:0:
253,126,253569,6,0,P|195:101|161:66,1,95.7000029205323,14|0,0:0|1:2,0:0:0:0:
260,217,253920,1,0,1:2:0:0:
484,60,254095,6,0,P|426:85|392:120,1,95.7000029205323,14|0,0:0|1:2,0:0:0:0:
323,19,254446,1,0,1:2:0:0:
468,234,254621,5,14,0:0:0:0:
341,358,254797,1,0,1:2:0:0:
477,227,254972,1,0,1:2:0:0:
228,126,255148,6,0,P|245:186|256:242,1,95.7000029205323,14|0,0:0|1:2,0:0:0:0:
26,65,255499,2,0,P|69:79|90:82,1,47.8500014602662,2|2,1:2|1:2,0:0:0:0:
232,9,255674,2,0,P|208:14|186:23,1,47.8500014602662,2|2,1:2|1:2,0:0:0:0:
127,164,255850,5,14,0:0:0:0:
313,98,256025,1,0,1:2:0:0:
324,86,256200,1,0,1:2:0:0:
132,265,256376,5,14,0:0:0:0:
378,160,256551,1,0,1:2:0:0:
398,157,256727,1,0,1:2:0:0:
277,330,256902,5,14,0:0:0:0:
207,98,257078,1,0,1:2:0:0:
215,85,257253,1,0,1:2:0:0:
181,384,257428,5,14,0:0:0:0:
106,94,257604,1,0,1:2:0:0:
91,85,257779,1,0,1:2:0:0:
326,186,257955,5,14,0:0:0:0:
203,253,258130,1,8,3:0:0:0:
159,27,258306,1,4,3:0:0:0:
371,85,258481,1,4,3:0:0:0:
109,199,258656,6,0,P|46:168|57:70,1,174,6|2,1:2|0:0,0:0:0:0:
264,177,259182,2,0,P|233:261|211:358,1,174,10|2,0:0|1:2,0:0:0:0:
372,148,259709,2,0,P|355:82|326:19,1,130.5,10|0,0:0|0:0,0:0:0:0:
306,14,260060,5,2,1:2:0:0:
452,211,260235,2,0,P|436:269|427:310,1,87,10|0,0:0|0:0,0:0:0:0:
512,136,260586,1,2,1:2:0:0:
324,221,260761,2,0,P|272:210|176:193,1,130.5,10|0,0:0|0:0,0:0:0:0:
170,179,261112,6,0,P|138:136|229:32,1,191.400005841065,6|0,1:2|1:2,0:0:0:0:
272,92,261638,1,0,1:2:0:0:
187,170,261813,1,8,0:0:0:0:
346,236,261989,1,8,0:0:0:0:
413,47,262164,1,8,0:0:0:0:
253,249,262340,1,8,0:0:0:0:
171,17,262515,1,8,0:0:0:0:
441,162,262691,1,8,0:0:0:0:
317,346,262867,5,10,1:2:0:0:
365,45,263030,1,10,1:2:0:0:
317,346,263199,1,10,1:2:0:0:
365,45,263368,1,10,1:2:0:0:
42,156,263744,5,8,0:0:0:0:
171,217,263919,1,8,3:0:0:0:
219,153,264094,1,4,3:0:0:0:
77,3,264270,6,0,B|266:79|134:150|346:204,1,348,6|0,1:2|0:0,0:0:0:0:
