osu file format v14

[General]
AudioFilename: audio.mp3
AudioLeadIn: 0
PreviewTime: 151814
Countdown: 0
SampleSet: Soft
StackLeniency: 0.7
Mode: 0
LetterboxInBreaks: 0
WidescreenStoryboard: 1

[Editor]
Bookmarks: 74796,153393,223217
DistanceSpacing: 1.4
BeatDivisor: 4
GridSize: 4
TimelineZoom: 1.800006

[Metadata]
Title:Shooting Voice!!
TitleUnicode:Shooting Voice!!
Artist:Liella!
ArtistUnicode:Liella!
Creator:Kawasaki Sakura
Version:Kyailock's Insane
Source:ラブライブ!スーパースター!!
Tags:-karUpA- kyairie notabox Mrgglock Love Live! Superstar!! japanese pop j-pop jpop anime Shibuya Kanon 澁谷かのん Tang Keke Tan Kuukuu 唐 可可 タン クゥクゥ Arashi Chisato 嵐 千砂都 Heanna Sumire 平安名すみれ Hazuki Ren 葉月 恋 畑 亜貴 Aki Hata 小幡康裕 Yasuhiro Obata lovelive! school idol project 伊達さゆり Sayuri Date りーゆう Liyuu 岬 なこ Nako Misaki ペイトン尚未 Naomi Payton 青山 なぎさ Nagisa リエラ
BeatmapID:3995073
BeatmapSetID:1928266

[Difficulty]
HPDrainRate:5
CircleSize:3.8
OverallDifficulty:8
ApproachRate:8.8
SliderMultiplier:1.7
SliderTickRate:1

[Events]
//Background and Video events
0,0,"107833463_p0.jpg",0,0
//Break Periods
//Storyboard Layer 0 (Background)
//Storyboard Layer 1 (Fail)
//Storyboard Layer 2 (Pass)
//Storyboard Layer 3 (Foreground)
//Storyboard Layer 4 (Overlay)
//Storyboard Sound Samples

[TimingPoints]
411,350.877192982456,4,2,1,88,1,0
12516,-100,4,2,1,75,0,0
12691,-181.818181818182,4,2,1,75,0,0
12954,-181.818181818182,4,2,1,5,0,0
13042,-100,4,2,1,80,0,0
23919,-181.818181818182,4,2,1,75,0,0
24182,-181.818181818182,4,2,1,5,0,0
24270,-100,4,2,1,75,0,0
29533,-181.818181818182,4,2,1,75,0,0
29796,-181.818181818182,4,2,1,5,0,0
29884,-142.857142857143,4,2,1,60,0,0
41112,-117.647058823529,4,2,1,70,0,0
47340,-117.647058823529,4,2,1,5,0,0
47428,-117.647058823529,4,2,1,70,0,0
47691,-117.647058823529,4,2,1,5,0,0
47779,-117.647058823529,4,2,1,70,0,0
52340,-100,4,2,1,70,0,0
74446,-181.818181818182,4,2,1,70,0,0
74709,-181.818181818182,4,2,1,5,0,0
74796,-86.9565217391304,4,2,1,85,0,1
95849,-181.818181818182,4,2,1,85,0,0
97253,-100,4,2,1,75,0,1
107954,-142.857142857143,4,2,1,75,0,0
108481,-142.857142857143,4,2,1,50,0,0
114095,-142.857142857143,4,2,1,50,0,0
119621,-142.857142857143,4,2,1,5,0,0
119709,-117.647058823529,4,2,1,60,0,0
125937,-117.647058823529,4,2,1,5,0,0
126025,-117.647058823529,4,2,1,60,0,0
126288,-117.647058823529,4,2,1,5,0,0
126375,-117.647058823529,4,2,1,60,0,0
130937,-100,4,2,1,70,0,0
147779,-100,4,2,1,70,0,0
153393,-86.9565217391304,4,2,1,85,0,1
175849,-100,4,2,1,75,0,0
187077,-117.647058823529,4,2,1,60,0,0
203568,-100,4,2,1,75,0,0
208130,-181.818181818182,4,2,1,75,0,0
209533,-181.818181818182,4,2,1,60,0,0
209621,-181.818181818182,4,2,1,5,0,0
209709,-181.818181818182,4,2,1,60,0,0
210147,-181.818181818182,4,2,1,5,0,0
210235,-181.818181818182,4,2,1,60,0,0
210674,-181.818181818182,4,2,1,5,0,0
210761,-181.818181818182,4,2,1,60,0,0
211639,350.877192982456,4,2,1,88,1,0
211639,-142.857142857143,4,2,1,50,0,0
217253,-181.818181818182,4,2,1,55,0,0
220060,-117.647058823529,4,2,1,55,0,0
221112,-100,4,2,1,75,0,0
222867,-181.818181818182,4,2,1,50,0,0
223130,-181.818181818182,4,2,1,5,0,0
223217,-86.9565217391304,4,2,2,85,0,1
223568,-86.9565217391304,4,2,1,85,0,1
248656,-86.9565217391304,4,2,1,70,0,1
249182,-86.9565217391304,4,2,1,85,0,1
249533,-181.818181818182,4,2,1,85,0,0
250761,-181.818181818182,4,2,1,60,0,0
252340,-100,4,2,1,75,0,0
253042,-100,4,2,1,80,0,0
263030,338.983050847458,4,2,1,88,1,0
263030,-100,4,2,1,75,0,0
263744,350.877192982456,4,2,1,88,1,0
263744,-100,4,2,1,75,0,0
264270,350.877192982456,4,2,1,88,1,0
264270,-100,4,2,1,75,0,0
271287,-100,4,2,1,5,0,0

[Colours]
Combo1 : 128,128,192
Combo2 : 64,128,128
Combo3 : 255,128,64
Combo4 : 0,128,192

[HitObjects]
422,384,12691,6,0,P|430:347|433:307,1,70.1250021400452,8|0,0:0|0:0,0:0:0:0:
413,282,13042,6,0,P|382:271|322:264,1,85,14|0,0:0|1:2,0:0:0:0:
224,349,13393,1,0,1:2:0:0:
176,222,13568,2,0,P|216:208|258:203,1,85,14|0,0:0|1:2,0:0:0:0:
314,350,13919,1,0,1:2:0:0:
137,307,14095,6,0,P|102:288|84:231,1,85,14|0,0:0|1:2,0:0:0:0:
149,128,14446,1,0,1:2:0:0:
9,200,14621,1,14,0:0:0:0:
93,61,14796,1,0,1:2:0:0:
162,209,14972,1,0,1:2:0:0:
258,64,15147,6,0,P|308:52|352:80,1,85,14|0,0:0|1:2,0:0:0:0:
414,177,15498,1,2,1:2:0:0:
408,219,15585,1,2,1:2:0:0:
402,261,15673,1,2,1:2:0:0:
396,303,15761,1,2,1:2:0:0:
390,345,15849,6,0,P|335:360|301:343,1,85,14|0,0:0|1:2,0:0:0:0:
213,201,16200,1,0,1:2:0:0:
158,379,16375,1,14,0:0:0:0:
86,205,16551,1,0,1:2:0:0:
230,317,16726,1,0,1:2:0:0:
254,123,16902,6,0,P|295:105|341:114,1,85,14|0,0:0|1:2,0:0:0:0:
409,293,17253,1,0,1:2:0:0:
504,114,17428,1,14,0:0:0:0:
307,202,17603,1,0,1:2:0:0:
503,274,17779,1,0,1:2:0:0:
409,89,17954,6,0,P|358:78|307:79,1,85,14|8,0:0|3:0,0:0:0:0:
227,9,18305,2,0,P|176:20|125:19,1,85,4|4,3:0|3:0,0:0:0:0:
16,101,18656,6,0,B|4:161|4:161|29:197|29:197|16:271,1,170,6|2,1:2|0:0,0:0:0:0:
122,347,19182,2,0,P|109:303|103:249,1,85,10|0,0:0|0:0,0:0:0:0:
170,145,19533,1,2,1:2:0:0:
221,303,19709,6,0,B|308:273|304:353|404:316,1,170,10|2,0:0|1:2,0:0:0:0:
362,187,20235,2,0,P|369:143|389:80,1,85,10|0,0:0|0:0,0:0:0:0:
445,223,20586,1,2,1:2:0:0:
275,217,20761,6,0,P|232:205|193:164,1,85,14|0,0:0|0:0,0:0:0:0:
90,51,21112,2,0,B|116:47|138:19|138:19|120:151,1,170,6|0,1:2|1:2,0:0:0:0:
26,212,21639,1,0,1:2:0:0:
140,305,21814,2,0,P|181:282|199:219,1,85,8|8,0:0|0:0,0:0:0:0:
262,130,22165,2,0,P|261:177|306:224,1,85,8|8,0:0|0:0,0:0:0:0:
352,323,22516,2,0,P|311:298|248:314,1,85,8|8,0:0|0:0,0:0:0:0:
351,149,22867,5,10,1:2:0:0:
448,316,23042,1,10,1:2:0:0:
512,120,23218,1,10,1:2:0:0:
376,243,23393,1,10,1:2:0:0:
257,2,23744,1,0,1:2:0:0:
257,2,23832,1,0,1:2:0:0:
257,2,23919,6,0,P|247:45|235:75,1,70.1250021400452,12|0,0:0|0:0,0:0:0:0:
203,94,24270,6,0,P|128:81|74:170,1,170,4|8,1:2|0:0,0:0:0:0:
153,236,24796,1,0,0:0:0:0:
72,323,24972,2,0,P|70:292|56:235,1,85,0|0,1:2|1:2,0:0:0:0:
185,349,25323,6,0,B|276:370|259:289|347:312,1,170,8|0,0:0|1:2,0:0:0:0:
439,380,25849,2,0,P|448:303|477:198,1,170
511,101,26375,1,0,1:2:0:0:
373,130,26551,1,0,1:2:0:0:
493,84,26726,2,0,P|482:52|474:-2,1,85,8|0,0:0|1:2,0:0:0:0:
327,42,27077,6,0,B|261:47|261:47|235:74|235:74|145:80,1,170,0|8,1:2|0:0,0:0:0:0:
84,163,27603,1,0,0:0:0:0:
157,257,27779,2,0,P|164:213|177:175,1,85,0|0,1:2|1:2,0:0:0:0:
321,139,28130,6,0,P|407:176|400:268,1,170,8|0,0:0|1:2,0:0:0:0:
449,357,28656,2,0,B|405:378|363:351|363:351|321:346|288:379,1,170
180,236,29182,1,0,1:2:0:0:
198,335,29358,1,0,1:2:0:0:
281,271,29533,6,0,P|271:240|269:189,1,70.1250021400452,8|0,0:0|1:2,0:0:0:0:
250,156,29884,6,0,P|191:155|138:110,1,118.999996368408,4|2,1:2|0:0,0:0:0:0:
233,7,30586,1,2,0:0:0:0:
374,104,30937,1,2,0:0:0:0:
374,104,31112,6,0,P|432:87|496:81,1,118.999996368408,2|2,0:0|0:0,0:0:0:0:
430,209,31639,1,2,0:0:0:0:
430,209,31814,2,0,P|372:192|308:186,1,118.999996368408,2|0,0:0|1:2,0:0:0:0:
244,232,32340,1,0,0:0:0:0:
138,360,32691,6,0,P|84:373|19:349,1,118.999996368408,2|2,1:2|0:0,0:0:0:0:
39,271,33218,2,0,P|33:213|19:139,1,118.999996368408,2|2,0:0|1:2,0:0:0:0:
55,76,33744,1,2,0:0:0:0:
200,157,34095,5,0,1:2:0:0:
200,157,34270,2,0,P|206:99|220:25,1,118.999996368408
291,1,34796,1,2,0:0:0:0:
454,52,35147,1,10,0:0:0:0:
454,52,35323,6,0,P|478:107|452:170,1,118.999996368408,2|0,0:0|0:0,0:0:0:0:
385,197,35849,1,0,0:0:0:0:
499,318,36200,1,2,0:0:0:0:
339,365,36551,1,2,0:0:0:0:
339,365,36726,6,0,P|274:347|216:343,1,118.999996368408,2|0,0:0|0:0,0:0:0:0:
142,368,37253,1,2,0:0:0:0:
51,228,37603,1,2,0:0:0:0:
216,212,37954,2,0,P|222:178|230:151,1,59.4999981842042,2|0,0:0|0:0,0:0:0:0:
278,63,38305,6,0,B|341:53|333:98|396:84,1,118.999996368408,2|2,1:2|0:0,0:0:0:0:
469,45,38832,1,2,0:0:0:0:
511,169,39182,2,0,P|500:206|498:231,1,59.4999981842042,2|10,1:2|0:0,0:0:0:0:
450,349,39533,6,0,P|398:378|331:364,1,118.999996368408,6|0,1:2|1:2,0:0:0:0:
291,295,40060,1,10,0:0:0:0:
184,174,40410,1,0,1:2:0:0:
154,171,40497,1,8,0:0:0:0:
126,180,40585,1,8,0:0:0:0:
104,200,40673,1,8,0:0:0:0:
90,226,40761,2,0,P|100:260|103:289,1,59.4999981842042,8|0,0:0|1:2,0:0:0:0:
183,376,41112,6,0,B|260:398|252:339|332:371,1,144.500002756119,4|10,1:2|0:0,0:0:0:0:
376,280,41639,1,0,0:0:0:0:
460,349,41814,2,0,P|467:312|482:267,1,72.2500013780594,2|0,0:0|0:0,0:0:0:0:
509,182,42165,1,10,0:0:0:0:
390,263,42340,6,0,P|307:253|257:209,1,144.500002756119,2|2,1:2|1:2,0:0:0:0:
275,108,42867,1,10,0:0:0:0:
172,162,43042,2,0,P|106:166|22:181,1,144.500002756119,2|0,0:0|1:2,0:0:0:0:
3,85,43568,2,0,P|12:41|33:19,1,72.2500013780594,8|2,0:0|0:0,0:0:0:0:
150,61,43919,6,0,B|204:74|204:74|235:55|235:55|307:71,1,144.500002756119,2|10,1:2|0:0,0:0:0:0:
417,15,44446,2,0,P|399:92|389:159,1,144.500002756119,2|2,1:2|0:0,0:0:0:0:
470,242,44972,1,10,0:0:0:0:
326,335,45147,6,0,P|285:338|254:322,1,72.2500013780594,0|0,1:2|0:0,0:0:0:0:
168,241,45498,2,0,P|209:244|239:228,1,72.2500013780594,0|8,1:2|0:0,0:0:0:0:
135,155,45849,2,0,B|107:161|94:184|94:184|111:68,1,144.500002756119,0|0,0:0|1:2,0:0:0:0:
55,5,46375,1,10,0:0:0:0:
206,40,46551,6,0,B|249:42|270:10|270:10|282:50|326:62,1,144.500002756119,2|0,0:0|0:0,0:0:0:0:
419,38,47077,1,8,0:0:0:0:
391,171,47253,2,0,P|382:146|381:120,1,36.1250006890297,0|0,1:2|0:0,0:0:0:0:
308,195,47603,2,0,P|299:170|298:144,1,36.1250006890297,0|0,1:2|0:0,0:0:0:0:
221,218,47954,6,0,P|180:159|89:148,1,144.500002756119,2|0,1:2|1:2,0:0:0:0:
20,194,48481,2,0,P|15:159|2:102,1,72.2500013780594,10|0,0:0|0:0,0:0:0:0:
114,304,48832,2,0,P|118:269|132:212,1,72.2500013780594,2|0,0:0|1:2,0:0:0:0:
13,378,49182,2,0,P|8:343|-5:286,1,72.2500013780594,10|0,0:0|0:0,0:0:0:0:
185,369,49533,6,0,P|250:376|302:301,1,144.500002756119,2|0,1:2|1:2,0:0:0:0:
257,215,50060,1,10,0:0:0:0:
384,271,50235,2,0,P|395:199|418:109,1,144.500002756119,2|8,0:0|0:0,0:0:0:0:
283,24,50761,6,0,B|255:5|225:16|225:16|196:49|146:44,1,144.500002756119,4|0,1:2|1:2,0:0:0:0:
38,1,51288,1,8,0:0:0:0:
73,112,51463,1,8,0:0:0:0:
73,112,51551,1,8,0:0:0:0:
73,112,51639,2,0,P|61:152|55:184,1,72.2500013780594,10|8,0:0|3:3,0:0:0:0:
140,239,51989,1,10,3:3:0:0:
10,293,52165,1,4,3:3:0:0:
10,293,52253,1,4,3:3:0:0:
10,293,52340,6,0,P|58:358|148:374,1,170,6|10,1:2|0:0,0:0:0:0:
254,296,52867,2,0,P|244:263|235:201,1,85,2|0,0:0|1:2,0:0:0:0:
305,95,53218,1,0,1:2:0:0:
401,190,53393,2,0,P|358:202|316:187,1,85,10|0,0:0|0:0,0:0:0:0:
177,98,53744,6,0,P|165:61|160:12,1,85,2|0,1:2|0:0,0:0:0:0:
57,155,54095,2,0,P|68:118|74:69,1,85,10|0,0:0|0:0,0:0:0:0:
143,192,54446,1,2,1:2:0:0:
4,235,54621,1,0,1:2:0:0:
121,304,54796,2,0,P|166:308|212:282,1,85,10|0,0:0|0:0,0:0:0:0:
358,222,55147,6,0,B|317:202|284:224|284:224|315:270|296:321,1,170,2|10,1:2|0:0,0:0:0:0:
427,380,55674,2,0,P|435:297|455:209,1,170,2|0,0:0|1:2,0:0:0:0:
510,88,56200,1,10,0:0:0:0:
366,171,56375,6,0,P|290:169|225:85,1,170,2|0,0:0|0:0,0:0:0:0:
117,23,56902,2,0,P|126:69|131:108,1,85,8|0,0:0|0:0,0:0:0:0:
6,191,57253,1,2,1:2:0:0:
38,77,57428,1,0,1:2:0:0:
111,208,57603,2,0,P|157:210|196:191,1,85,10|0,0:0|0:0,0:0:0:0:
327,106,57954,6,0,B|295:95|283:64|283:64|265:120|292:168,1,170,2|10,1:2|0:0,0:0:0:0:
420,217,58481,2,0,P|427:169|442:125,1,85,2|0,0:0|1:2,0:0:0:0:
508,248,58832,1,0,1:2:0:0:
346,287,59007,2,0,P|306:284|263:245,1,85,10|0,0:0|0:0,0:0:0:0:
142,133,59358,6,0,P|157:177|161:219,1,85,2|0,1:2|0:0,0:0:0:0:
45,288,59709,2,0,P|49:245|64:205,1,85,10|0,0:0|0:0,0:0:0:0:
134,322,60060,1,2,1:2:0:0:
0,373,60235,1,0,1:2:0:0:
157,315,60410,2,0,P|199:317|244:331,1,85,10|0,0:0|0:0,0:0:0:0:
395,384,60761,6,0,B|358:302|435:307|397:213,1,170,2|10,1:2|0:0,0:0:0:0:
505,131,61288,1,2,0:0:0:0:
505,131,61375,1,2,0:0:0:0:
505,131,61463,2,0,P|457:124|415:108,1,85,2|0,1:2|1:2,0:0:0:0:
315,27,61814,1,8,0:0:0:0:
184,121,61989,6,0,B|150:185|203:201|215:244|186:290,1,170,4|0,1:2|1:2,0:0:0:0:
94,383,62516,2,0,P|87:304|68:215,1,170,8|2,0:0|1:2,0:0:0:0:
8,104,63042,1,8,0:0:0:0:
8,104,63130,1,8,0:0:0:0:
8,104,63218,2,0,P|22:66|31:21,1,85,10|0,0:0|0:0,0:0:0:0:
144,141,63568,6,0,B|212:151|212:151|248:128|248:128|320:139,1,170,6|10,1:2|0:0,0:0:0:0:
416,218,64095,2,0,P|400:173|391:118,1,85,2|0,0:0|1:2,0:0:0:0:
508,208,64446,1,0,1:2:0:0:
422,313,64621,2,0,P|368:306|342:288,1,85,10|0,0:0|0:0,0:0:0:0:
247,141,64972,6,0,P|268:190|265:222,1,85,2|0,1:2|0:0,0:0:0:0:
101,240,65323,2,0,P|143:206|175:201,1,85,10|0,0:0|0:0,0:0:0:0:
123,384,65674,1,2,1:2:0:0:
14,267,65849,1,0,1:2:0:0:
133,367,66025,2,0,P|176:356|222:349,1,85,8|0,0:0|0:0,0:0:0:0:
387,354,66375,6,0,B|371:378|358:377|340:376|324:376|328:365|321:358|294:346|310:338|310:318|307:311|314:309|314:293|325:279|351:256,1,170,2|10,1:2|0:0,0:0:0:0:
474,296,66902,2,0,P|465:259|459:202,1,85,2|0,1:2|0:0,0:0:0:0:
484,73,67253,2,0,P|458:110|400:122,1,85,2|8,1:2|0:0,0:0:0:0:
298,25,67603,6,0,P|218:38|188:128,1,170,6|0,1:2|1:2,0:0:0:0:
255,232,68130,1,8,0:0:0:0:
132,194,68305,1,8,0:0:0:0:
132,194,68393,1,8,0:0:0:0:
132,194,68481,2,0,P|88:207|40:215,1,85,10|8,0:0|3:0,0:0:0:0:
0,326,68832,2,0,P|41:333|82:345,1,85,6|0,3:0|1:2,0:0:0:0:
244,365,69182,6,0,B|282:359|314:375|314:375|337:350|337:350|368:365|399:358,1,170,6|0,1:2|1:2,0:0:0:0:
490,279,69709,1,0,0:0:0:0:
391,177,69884,2,0,P|333:184|284:287,1,170,6|0,1:2|1:2,0:0:0:0:
162,339,70410,1,0,0:0:0:0:
39,243,70586,6,0,B|84:206|144:222|144:222|160:249|192:256,1,170,6|0,1:2|1:2,0:0:0:0:
280,170,71112,1,0,0:0:0:0:
152,92,71288,2,0,P|193:89|238:77,1,85,10|0,0:0|0:0,0:0:0:0:
399,52,71639,6,0,B|371:42|353:14|353:14|369:145,1,170,6|0,1:2|1:2,0:0:0:0:
489,200,72165,1,0,1:2:0:0:
377,276,72340,2,0,P|340:264|292:257,1,85,8|8,0:0|0:0,0:0:0:0:
115,384,72691,1,8,0:0:0:0:
73,193,72867,1,8,0:0:0:0:
216,323,73042,1,8,0:0:0:0:
24,301,73218,1,8,0:0:0:0:
193,207,73393,5,6,1:2:0:0:
181,228,74446,6,0,P|185:193|204:149,1,70.1250021400452,6|0,3:3|0:0,0:0:0:0:
233,147,74796,6,0,B|307:157|307:157|343:133|343:133|424:145,1,195.500003728867,6|10,1:2|0:0,0:0:0:0:
283,64,75323,1,0,0:0:0:0:
367,228,75498,2,0,P|379:275|386:323,1,97.7500018644333,2|0,1:2|1:2,0:0:0:0:
486,204,75849,1,10,0:0:0:0:
313,378,76025,6,0,P|251:311|134:338,1,195.500003728867,2|0,0:0|0:0,0:0:0:0:
25,187,76551,2,0,P|42:124|52:56,1,97.7500018644333,10|0,0:0|0:0,0:0:0:0:
177,219,76902,2,0,P|158:156|150:88,1,97.7500018644333,2|0,1:2|1:2,0:0:0:0:
87,265,77253,1,10,0:0:0:0:
150,32,77428,6,0,B|197:26|226:64|226:64|292:78|346:4,1,195.500003728867,2|0,0:0|0:0,0:0:0:0:
470,6,77954,2,0,P|459:35|446:115,1,97.7500018644333,8|0,0:0|0:0,0:0:0:0:
373,240,78305,2,0,P|364:191|350:145,1,97.7500018644333,0|0,1:2|1:2,0:0:0:0:
235,85,78656,1,10,0:0:0:0:
210,275,78832,6,0,B|283:288|283:288|310:322|310:322|391:335,1,195.500003728867,2|0,0:0|0:0,0:0:0:0:
491,196,79358,2,0,P|444:205|397:218,1,97.7500018644333,10|0,0:0|0:0,0:0:0:0:
316,64,79709,1,2,1:2:0:0:
462,11,79884,1,0,1:2:0:0:
328,159,80060,2,0,P|280:149|233:136,1,97.7500018644333,10|0,0:0|0:0,0:0:0:0:
33,32,80410,6,0,P|9:87|95:189,1,195.500003728867,2|8,1:2|0:0,0:0:0:0:
189,54,80937,1,2,0:0:0:0:
226,225,81112,2,0,P|208:270|199:319,1,97.7500018644333,0|0,1:2|1:2,0:0:0:0:
305,111,81463,2,0,P|322:156|332:205,1,97.7500018644333,8|0,0:0|1:2,0:0:0:0:
114,13,81814,6,0,P|42:73|59:164,1,195.500003728867,2|8,1:2|0:0,0:0:0:0:
239,217,82340,2,0,P|146:238|20:285,1,195.500003728867,2|0,0:0|1:2,0:0:0:0:
158,142,82867,1,10,0:0:0:0:
207,314,83042,1,2,0:0:0:0:
347,182,83218,6,0,P|360:136|370:68,1,97.7500018644333,2|0,1:2|0:0,0:0:0:0:
430,241,83568,1,10,0:0:0:0:
270,107,83744,2,0,B|212:109|184:66|184:66|169:120|109:136,1,195.500003728867,2|0,0:0|1:2,0:0:0:0:
264,10,84270,1,10,0:0:0:0:
207,190,84446,6,0,P|231:284|267:379,1,195.500003728867,6|0,1:2|1:2,0:0:0:0:
424,263,84972,2,0,P|376:265|340:297,1,97.7500018644333,10|0,0:0|0:0,0:0:0:0:
466,345,85323,1,2,1:2:0:0:
406,174,85498,1,0,1:2:0:0:
259,310,85674,1,10,0:0:0:0:
213,293,85761,1,8,3:0:0:0:
166,278,85849,1,4,3:0:0:0:
119,266,85937,1,4,3:0:0:0:
71,257,86025,6,0,P|53:192|162:109,1,195.500003728867,6|10,1:2|0:0,0:0:0:0:
299,207,86551,1,0,0:0:0:0:
254,44,86726,2,0,P|231:106|220:164,1,97.7500018644333,2|0,1:2|1:2,0:0:0:0:
347,12,87077,1,10,0:0:0:0:
473,185,87253,6,0,B|513:278|425:268|470:372,1,195.500003728867,2|0,0:0|0:0,0:0:0:0:
379,224,87779,2,0,P|318:201|267:194,1,97.7500018644333,10|0,0:0|0:0,0:0:0:0:
424,72,88130,2,0,P|363:95|312:102,1,97.7500018644333,2|0,1:2|1:2,0:0:0:0:
200,24,88481,1,10,0:0:0:0:
95,191,88656,6,0,B|84:264|84:264|108:302|108:302|97:380,1,195.500003728867,2|0,0:0|0:0,0:0:0:0:
200,232,89182,2,0,P|255:235|295:287,1,97.7500018644333,8|0,0:0|0:0,0:0:0:0:
341,108,89533,2,0,P|286:111|246:163,1,97.7500018644333,0|0,1:2|1:2,0:0:0:0:
380,278,89884,1,10,0:0:0:0:
492,139,90060,6,0,B|462:131|443:104|443:104|465:239,1,195.500003728867,2|0,1:2|1:2,0:0:0:0:
407,381,90586,2,0,P|331:354|289:349,1,97.7500018644333,10|0,0:0|0:0,0:0:0:0:
207,208,90937,1,2,1:2:0:0:
364,266,91112,1,0,1:2:0:0:
199,382,91288,2,0,P|183:320|164:273,1,97.7500018644333,10|0,0:0|0:0,0:0:0:0:
14,174,91639,6,0,P|48:129|94:124,1,97.7500018644333,6|0,1:2|1:2,0:0:0:0:
227,223,91989,1,0,1:2:0:0:
260,19,92165,5,14,0:0:0:0:
123,215,92340,1,0,1:2:0:0:
346,146,92516,1,0,1:2:0:0:
107,66,92691,6,0,P|154:75|200:91,1,97.7500018644333,14|0,0:0|1:2,0:0:0:0:
298,279,93042,1,0,1:2:0:0:
457,103,93218,6,0,P|410:119|363:129,1,97.7500018644333,12|2,0:0|1:2,0:0:0:0:
252,10,93568,1,0,1:2:0:0:
252,10,93656,1,0,1:0:0:0:
252,10,93744,2,0,P|306:17|336:67,1,97.7500018644333,14|4,0:0|3:3,0:0:0:0:
403,232,94095,1,10,3:3:0:0:
479,84,94270,1,6,3:3:0:0:
262,125,94446,6,0,B|157:146|177:64|69:91,1,195.500003728867,4|0,1:2|1:2,0:0:0:0:
234,23,94972,1,8,0:0:0:0:
170,215,95147,2,0,P|188:260|200:307,1,97.7500018644333,0|0,0:0|1:2,0:0:0:0:
282,140,95498,1,10,0:0:0:0:
356,330,95674,1,2,0:0:0:0:
493,210,95849,6,0,B|420:201|420:201|375:235|375:235|296:225|296:225|336:224|361:185,1,280.500008560181,6|10,1:2|0:0,0:0:0:0:
142,55,97253,6,0,P|185:55|227:92,1,85,4|0,1:2|0:0,0:0:0:0:
101,221,97603,2,0,P|89:165|74:130,1,85,10|0,0:0|0:0,0:0:0:0:
216,279,97954,1,10,0:0:0:0:
216,279,98042,1,2,0:0:0:0:
215,278,98130,2,0,P|222:236|237:196,1,85,2|8,1:2|0:0,0:0:0:0:
329,357,98481,6,0,P|378:301|478:312,1,170,2|2,1:2|0:0,0:0:0:0:
495,152,99007,2,0,P|449:170|404:178,1,85,8|2,0:0|0:0,0:0:0:0:
281,225,99358,1,10,0:0:0:0:
242,207,99445,1,2,0:0:0:0:
203,192,99533,1,2,1:2:0:0:
163,183,99621,1,2,0:0:0:0:
122,178,99709,2,0,P|115:151|106:134,3,42.5,10|2|2|2,0:0|0:0|1:2|0:0,0:0:0:0:
109,52,100060,6,0,B|151:45|180:84|180:84|243:96|273:28,1,170,14|8,0:0|0:0,0:0:0:0:
397,0,100586,1,2,0:0:0:0:
331,153,100761,2,0,P|340:202|397:228,1,85,8|2,0:0|1:2,0:0:0:0:
471,115,101112,1,10,0:0:0:0:
485,292,101288,6,0,P|441:302|396:321,1,85,6|8,1:2|0:0,0:0:0:0:
256,226,101639,2,0,P|196:202|155:198,1,85,6|10,1:2|0:0,0:0:0:0:
32,236,101989,1,2,1:2:0:0:
127,111,102165,5,10,0:0:0:0:
178,299,102340,1,2,1:2:0:0:
300,150,102516,2,0,P|313:103|335:59,1,85,14|2,0:0|1:2,0:0:0:0:
500,35,102867,6,0,B|493:18|411:-11|399:99|474:128,1,170,12|10,0:0|0:0,0:0:0:0:
434,274,103393,1,0,0:0:0:0:
318,177,103568,1,10,0:0:0:0:
318,177,103656,1,2,0:0:0:0:
318,177,103744,2,0,P|278:188|253:231,1,85,2|8,1:2|0:0,0:0:0:0:
155,366,104095,6,0,P|140:291|108:196,1,170,2|2,1:2|0:0,0:0:0:0:
149,46,104621,1,10,0:0:0:0:
37,156,104796,1,2,1:2:0:0:
210,110,104972,2,0,P|251:114|298:129,1,85,10|2,0:0|1:2,0:0:0:0:
403,242,105323,1,10,0:0:0:0:
477,103,105498,6,0,B|443:198|531:188|490:287,1,170,6|2,1:2|1:2,0:0:0:0:
388,367,106025,1,10,0:0:0:0:
275,228,106200,6,0,B|248:227|224:195|224:195|261:327,1,170,6|2,1:2|1:2,0:0:0:0:
301,141,106726,1,10,0:0:0:0:
146,277,106902,6,0,P|65:268|-5:352,1,170,6|0,1:2|1:2,0:0:0:0:
137,178,107428,1,8,0:0:0:0:
137,178,107516,1,8,3:0:0:0:
137,178,107603,1,8,3:0:0:0:
91,360,107779,5,10,0:0:0:0:
29,156,107954,1,10,0:0:0:0:
252,253,108481,6,0,P|200:303|140:291,1,118.999996368408,2|2,0:0|0:0,0:0:0:0:
38,182,109183,1,2,0:0:0:0:
151,61,109533,1,2,0:0:0:0:
151,61,109709,6,0,P|167:118|176:176,1,118.999996368408,2|2,0:0|0:0,0:0:0:0:
260,205,110235,1,2,0:0:0:0:
260,205,110410,2,0,P|269:147|291:75,1,118.999996368408,2|0,0:0|0:0,0:0:0:0:
442,26,111112,1,2,0:0:0:0:
442,26,111288,6,0,P|478:54|481:135,1,118.999996368408,2|2,0:0|0:0,0:0:0:0:
463,203,111814,2,0,P|405:218|351:242,1,118.999996368408,2|2,0:0|0:0,0:0:0:0:
312,316,112340,1,2,0:0:0:0:
164,173,112867,2,0,B|101:183|109:138|51:148,1,118.999996368408
19,68,113392,1,2,0:0:0:0:
189,6,113744,2,0,P|195:35|209:72,1,59.4999981842042,2|2,0:0|0:0,0:0:0:0:
279,97,114095,6,0,P|338:110|393:131,1,118.999996368408,2|0,1:2|0:0,0:0:0:0:
453,281,114796,2,0,P|394:293|339:314,1,118.999996368408,2|2,0:0|1:2,0:0:0:0:
266,372,115323,6,0,P|218:309|232:263,1,118.999996368408,2|0,0:0|0:0,0:0:0:0:
298,215,115849,1,2,0:0:0:0:
176,108,116199,1,2,0:0:0:0:
19,159,116550,2,0,P|25:193|35:221,1,59.4999981842042,2|0,0:0|0:0,0:0:0:0:
110,265,116902,6,0,P|161:255|219:313,1,118.999996368408,2|2,1:2|0:0,0:0:0:0:
289,340,117428,1,2,0:0:0:0:
444,233,117779,1,2,1:2:0:0:
444,233,117954,6,0,P|420:168|407:108,1,118.999996368408,2|0,0:0|0:0,0:0:0:0:
388,33,118481,1,2,0:0:0:0:
388,33,118656,2,0,P|352:21|319:15,1,59.4999981842042,2|2,0:0|0:0,0:0:0:0:
216,43,119007,1,10,3:0:0:0:
188,53,119094,1,8,0:0:0:0:
159,62,119182,1,8,0:0:0:0:
131,70,119270,1,8,0:0:0:0:
101,75,119358,2,0,P|90:108|80:163,1,89.2499972763062,4|0,3:0|1:2,0:0:0:0:
105,195,119709,6,0,P|173:187|221:240,1,144.500002756119,4|2,1:2|0:0,0:0:0:0:
283,323,120236,1,0,1:2:0:0:
378,274,120411,2,0,P|386:238|401:194,1,72.2500013780594,2|0,0:0|0:0,0:0:0:0:
464,132,120762,1,10,0:0:0:0:
363,30,120938,6,0,B|284:17|299:72|222:61,1,144.500002756119,2|2,0:0|0:0,0:0:0:0:
133,100,121464,1,2,0:0:0:0:
164,193,121640,2,0,P|220:203|311:231,1,144.500002756119,10|0,3:0|1:2,0:0:0:0:
351,313,122166,2,0,P|323:318|277:332,1,72.2500013780594,8|2,0:0|0:0,0:0:0:0:
176,381,122517,6,0,P|114:339|131:253,1,144.500002756119,2|2,1:2|0:0,0:0:0:0:
190,209,123043,2,0,P|214:149|241:55,1,144.500002756119,2|2,1:2|0:0,0:0:0:0:
341,6,123569,1,10,0:0:0:0:
407,109,123745,6,0,P|447:107|479:127,1,72.2500013780594,2|0,0:0|1:2,0:0:0:0:
507,217,124096,2,0,P|467:215|435:235,1,72.2500013780594,2|0,0:0|0:0,0:0:0:0:
364,309,124447,2,0,P|351:264|310:166,1,144.500002756119,10|0,3:0|0:0,0:0:0:0:
219,124,124973,2,0,P|212:146|192:195,1,72.2500013780594,10|2,0:0|0:0,0:0:0:0:
95,259,125324,6,0,B|81:246|75:222|75:222|47:270|85:321,1,144.500002756119,4|0,1:2|0:0,0:0:0:0:
169,354,125850,2,0,P|170:336|175:318,1,36.1250006890297,0|0,1:2|0:0,0:0:0:0:
256,368,126200,2,0,P|257:350|262:332,1,36.1250006890297,0|0,1:2|0:0,0:0:0:0:
343,382,126551,6,0,P|362:307|394:232,1,144.500002756119,2|0,1:2|0:0,0:0:0:0:
487,191,127077,1,10,0:0:0:0:
435,93,127253,2,0,P|390:44|299:58,1,144.500002756119,8|4,3:0|3:0,0:0:0:0:
251,129,127779,2,0,P|272:189|278:215,1,72.2500013780594,10|0,0:0|0:0,0:0:0:0:
217,309,128130,6,0,B|138:321|153:266|76:277,1,144.500002756119,2|0,1:2|0:0,0:0:0:0:
2,211,128656,1,10,0:0:0:0:
56,125,128832,2,0,P|69:91|79:56,1,72.2500013780594,2|0,0:0|1:2,0:0:0:0:
165,4,129182,1,8,0:0:0:0:
217,113,129357,6,0,B|238:130|267:123|267:123|300:78|359:90,1,144.500002756119,4|0,1:2|1:2,0:0:0:0:
427,153,129884,1,8,0:0:0:0:
363,242,130060,1,0,1:2:0:0:
363,242,130147,1,8,0:0:0:0:
363,242,130235,2,0,P|350:283|344:317,1,72.2500013780594,10|8,0:0|3:0,0:0:0:0:
259,377,130586,1,10,0:0:0:0:
259,377,130674,1,8,3:0:0:0:
259,377,130761,1,8,3:0:0:0:
173,282,130937,6,0,B|108:293|108:293|81:326|81:326|9:338,1,170,6|10,1:2|0:0,0:0:0:0:
69,210,131463,2,0,P|87:153|93:111,1,85,2|0,0:0|1:2,0:0:0:0:
32,6,131814,1,0,1:2:0:0:
155,63,131989,2,0,P|207:62|237:31,1,85,10|0,0:0|0:0,0:0:0:0:
296,170,132340,6,0,P|244:169|214:138,1,85,2|0,1:2|0:0,0:0:0:0:
356,95,132691,2,0,P|397:103|437:117,1,85,10|0,0:0|0:0,0:0:0:0:
478,294,133042,1,2,1:2:0:0:
377,207,133218,1,0,1:2:0:0:
353,340,133393,2,0,P|319:370|271:367,1,85,10|0,0:0|0:0,0:0:0:0:
165,297,133744,6,0,P|82:275|-1:261,1,170,2|10,1:2|0:0,0:0:0:0:
112,186,134270,2,0,B|199:199|181:136|273:149,1,170,2|0,0:0|1:2,0:0:0:0:
181,48,134796,1,10,0:0:0:0:
311,6,134972,6,0,B|322:71|322:71|355:98|355:98|367:170,1,170,2|0,0:0|0:0,0:0:0:0:
490,212,135498,2,0,P|472:259|459:318,1,85,8|0,0:0|0:0,0:0:0:0:
332,252,135849,1,2,1:2:0:0:
410,379,136024,1,0,1:2:0:0:
279,337,136200,2,0,P|214:351|177:365,1,85,10|0,0:0|0:0,0:0:0:0:
90,266,136551,6,0,B|116:283|123:309|123:309|142:178,1,170,2|10,1:2|0:0,0:0:0:0:
236,106,137077,2,0,P|247:147|263:187,1,85,2|0,0:0|1:2,0:0:0:0:
370,269,137428,1,0,1:2:0:0:
426,145,137603,2,0,P|385:142|351:170,1,85,10|0,0:0|0:0,0:0:0:0:
289,34,137954,6,0,P|330:31|364:59,1,85,2|0,1:2|0:0,0:0:0:0:
242,122,138305,2,0,P|200:130|155:146,1,85,10|0,0:0|0:0,0:0:0:0:
28,196,138656,1,2,1:2:0:0:
87,78,138831,1,0,1:2:0:0:
136,236,139007,2,0,P|177:244|222:260,1,85,10|0,0:0|0:0,0:0:0:0:
316,382,139357,6,0,B|279:300|356:305|318:211,1,170,2|8,1:2|0:0,0:0:0:0:
414,97,139884,1,2,0:0:0:0:
496,221,140060,2,0,P|442:236|400:254,1,85,2|0,1:2|1:2,0:0:0:0:
334,135,140410,1,8,0:0:0:0:
285,292,140586,6,0,P|205:261|123:240,1,170,4|0,1:2|1:2,0:0:0:0:
31,160,141112,2,0,P|60:104|168:98,1,170,8|2,0:0|1:2,0:0:0:0:
291,40,141639,1,8,0:0:0:0:
291,40,141726,1,8,0:0:0:0:
291,40,141814,2,0,P|298:81|309:122,1,85,10|4,0:0|3:0,0:0:0:0:
423,233,142165,6,0,B|338:273|348:190|252:231,1,170,6|10,1:2|0:0,0:0:0:0:
142,288,142691,2,0,P|149:246|160:205,1,85,2|0,0:0|1:2,0:0:0:0:
277,128,143042,1,0,1:2:0:0:
208,20,143218,2,0,P|145:28|130:48,1,85,10|0,0:0|0:0,0:0:0:0:
0,41,143568,6,0,P|38:90|63:93,1,85,2|0,1:2|0:0,0:0:0:0:
120,211,143919,2,0,P|143:153|134:129,1,85,10|0,0:0|0:0,0:0:0:0:
15,243,144270,1,2,1:2:0:0:
180,289,144445,1,0,1:2:0:0:
27,232,144621,2,0,P|48:282|61:325,1,85,10|0,0:0|0:0,0:0:0:0:
225,382,144972,6,0,P|255:333|386:342,1,170,2|10,1:2|0:0,0:0:0:0:
471,254,145498,2,0,P|455:210|442:156,1,85,2|0,1:2|0:0,0:0:0:0:
308,209,145849,2,0,P|324:165|337:111,1,85,2|8,1:2|0:0,0:0:0:0:
464,43,146200,6,0,B|426:37|394:53|394:53|371:28|371:28|340:43|309:36,1,170,6|0,1:2|1:2,0:0:0:0:
219,138,146726,1,8,0:0:0:0:
160,12,146901,1,8,0:0:0:0:
160,12,146989,1,8,0:0:0:0:
160,12,147077,1,10,0:0:0:0:
51,85,147253,1,8,3:0:0:0:
51,85,147340,1,8,3:0:0:0:
51,85,147428,2,0,P|107:94|142:107,1,85,10|4,3:0|3:0,0:0:0:0:
184,238,147779,6,0,B|190:220|172:205|155:199|136:201|118:206|108:220|100:239|101:256|108:268|109:275|102:284|113:297|123:309|128:314|151:319|142:323,1,170,6|0,1:2|1:2,0:0:0:0:
272,261,148305,1,0,0:0:0:0:
341,379,148481,2,0,P|358:314|403:207,1,170,6|0,1:2|1:2,0:0:0:0:
509,156,149007,1,0,0:0:0:0:
396,92,149182,6,0,B|311:52|321:135|225:94,1,170,6|0,1:2|1:2,0:0:0:0:
119,33,149709,1,0,0:0:0:0:
66,177,149884,2,0,P|105:160|146:149,1,85,10|0,0:0|0:0,0:0:0:0:
351,208,150235,6,0,P|322:268|213:270,1,170,6|0,1:2|1:2,0:0:0:0:
74,187,150761,1,0,1:2:0:0:
119,336,150937,2,0,P|125:294|139:254,1,85,8|8,0:0|0:0,0:0:0:0:
249,8,151288,1,8,0:0:0:0:
266,202,151463,1,8,0:0:0:0:
139,56,151639,1,8,0:0:0:0:
330,98,151814,1,8,0:0:0:0:
150,176,151989,6,0,P|126:220|189:310,1,170,14|0,0:0|1:2,0:0:0:0:
342,246,152516,2,0,B|383:235|396:188|396:188|421:225|471:224,1,170,14|0,0:0|1:2,0:0:0:0:
508,94,153042,1,14,0:0:0:0:
465,88,153129,1,8,3:0:0:0:
424,80,153217,1,8,3:0:0:0:
383,68,153305,1,8,3:0:0:0:
343,52,153393,6,0,B|299:24|256:63|256:63|208:77|159:32,1,195.500003728867,6|10,1:2|0:0,0:0:0:0:
0,105,153920,1,0,0:0:0:0:
127,225,154095,2,0,P|119:176|106:129,1,97.7500018644333,2|0,1:2|1:2,0:0:0:0:
13,279,154446,1,10,0:0:0:0:
190,366,154622,6,0,B|304:396|277:293|401:343,1,195.500003728867,2|0,0:0|0:0,0:0:0:0:
214,258,155148,2,0,P|231:195|241:127,1,97.7500018644333,10|0,0:0|0:0,0:0:0:0:
380,60,155499,2,0,P|389:107|404:154,1,97.7500018644333,2|0,1:2|1:2,0:0:0:0:
311,304,155850,1,10,0:0:0:0:
235,73,156025,6,0,B|182:72|158:122|158:122|125:77|66:93,1,195.500003728867,2|0,0:0|0:0,0:0:0:0:
108,272,156551,2,0,P|111:225|84:177,1,97.7500018644333,8|0,0:0|0:0,0:0:0:0:
102,376,156902,2,0,P|148:366|187:328,1,97.7500018644333,0|0,1:2|1:2,0:0:0:0:
16,247,157253,1,10,0:0:0:0:
232,172,157429,6,0,B|292:203|292:203|432:165,1,195.500003728867,2|0,0:0|0:0,0:0:0:0:
512,301,157955,2,0,P|464:287|416:278,1,97.7500018644333,10|0,0:0|0:0,0:0:0:0:
264,367,158306,1,2,1:2:0:0:
340,194,158481,1,0,1:2:0:0:
172,268,158657,2,0,P|219:284|264:268,1,97.7500018644333,10|0,0:0|0:0,0:0:0:0:
75,121,159007,6,0,B|109:114|129:83|129:83|99:215,1,195.500003728867,2|8,1:2|0:0,0:0:0:0:
49,31,159534,1,2,0:0:0:0:
210,141,159709,2,0,P|258:125|306:116,1,97.7500018644333,0|0,1:2|1:2,0:0:0:0:
261,281,160059,2,0,P|213:265|165:256,1,97.7500018644333,8|0,0:0|0:0,0:0:0:0:
365,185,160411,6,0,P|459:198|480:294,1,195.500003728867,2|8,1:2|0:0,0:0:0:0:
320,378,160937,2,0,B|281:365|245:385|245:385|211:353|211:353|176:382|118:363,1,195.500003728867,2|0,0:0|1:2,0:0:0:0:
35,199,161464,1,10,0:0:0:0:
154,280,161639,1,2,0:0:0:0:
153,85,161815,6,0,P|139:132|131:180,1,97.7500018644333,2|0,1:2|0:0,0:0:0:0:
38,34,162165,1,10,0:0:0:0:
238,118,162341,2,0,B|296:120|324:77|324:77|384:74|416:129,1,195.500003728867,2|0,0:0|1:2,0:0:0:0:
247,30,162867,1,10,0:0:0:0:
347,193,163043,6,0,P|320:275|298:394,1,195.500003728867,6|0,1:2|1:2,0:0:0:0:
125,353,163569,2,0,P|173:351|209:319,1,97.7500018644333,14|0,0:0|0:0,0:0:0:0:
75,203,163920,1,10,0:0:0:0:
32,373,164095,1,0,1:2:0:0:
185,221,164271,1,10,0:0:0:0:
168,175,164358,1,8,0:0:0:0:
153,128,164446,1,8,0:0:0:0:
141,81,164534,1,8,0:0:0:0:
132,33,164621,6,0,P|214:7|291:116,1,195.500003728867,6|10,1:2|0:0,0:0:0:0:
271,251,165148,1,0,0:0:0:0:
436,191,165323,2,0,P|372:173|313:167,1,97.7500018644333,2|0,1:2|1:2,0:0:0:0:
509,117,165674,1,10,0:0:0:0:
499,334,165850,6,0,B|406:373|416:285|312:330,1,195.500003728867,2|0,0:0|0:0,0:0:0:0:
143,383,166376,2,0,P|181:335|173:271,1,97.7500018644333,10|0,0:0|0:0,0:0:0:0:
25,224,166726,2,0,P|47:280|106:305,1,97.7500018644333,2|0,1:2|1:2,0:0:0:0:
231,212,167078,1,10,0:0:0:0:
86,75,167253,6,0,B|69:100|33:107|33:107|188:122,1,195.500003728867,2|0,0:0|0:0,0:0:0:0:
309,19,167779,2,0,P|364:22|404:74,1,97.7500018644333,8|0,0:0|0:0,0:0:0:0:
327,212,168130,2,0,P|307:168|319:121,1,97.7500018644333,0|0,1:2|1:2,0:0:0:0:
480,48,168481,1,10,0:0:0:0:
413,277,168657,6,0,B|375:285|351:314|351:314|218:273,1,195.500003728867,6|0,1:2|1:2,0:0:0:0:
78,376,169183,2,0,P|154:349|196:344,1,97.7500018644333,10|0,0:0|0:0,0:0:0:0:
177,169,169534,1,2,1:2:0:0:
94,274,169709,1,0,1:2:0:0:
0,128,169885,2,0,P|62:144|81:190,1,97.7500018644333,10|0,0:0|0:0,0:0:0:0:
234,64,170235,6,0,P|185:67|137:79,1,97.7500018644333,6|0,1:2|1:2,0:0:0:0:
209,265,170586,1,0,1:2:0:0:
362,113,170762,5,14,0:0:0:0:
391,314,170937,1,0,1:2:0:0:
512,156,171112,1,0,1:2:0:0:
329,216,171288,6,0,P|285:194|261:150,1,97.7500018644333,14|0,0:0|1:2,0:0:0:0:
392,0,171639,1,0,1:2:0:0:
194,100,171815,6,0,P|147:112|95:116,1,97.7500018644333,12|2,0:0|1:2,0:0:0:0:
9,233,172165,1,0,1:2:0:0:
9,233,172253,1,0,1:2:0:0:
9,233,172340,2,0,P|56:245|104:249,1,97.7500018644333,14|4,0:0|3:3,0:0:0:0:
269,183,172692,1,10,3:3:0:0:
85,131,172867,1,6,3:3:0:0:
241,280,173043,6,0,B|346:294|326:219|434:246,1,195.500003728867,4|0,1:2|1:2,0:0:0:0:
351,136,173569,1,8,0:0:0:0:
511,82,173744,2,0,P|492:127|480:174,1,97.7500018644333,0|0,1:2|1:2,0:0:0:0:
413,47,174095,1,10,0:0:0:0:
338,152,174271,1,2,0:0:0:0:
246,25,174446,6,0,P|192:13|139:47,1,97.7500018644333,2|8,1:2|0:0,0:0:0:0:
163,190,174796,2,0,P|200:149|197:86,1,97.7500018644333,2|0,1:2|1:2,0:0:0:0:
61,35,175147,2,0,P|77:87|133:116,1,97.7500018644333,10|8,0:0|3:0,0:0:0:0:
264,41,175498,1,2,1:2:0:0:
154,29,175674,1,0,1:2:0:0:
271,151,175849,6,0,P|363:126|475:113,1,170,6|0,1:2|1:2,0:0:0:0:
490,240,176375,1,10,0:0:0:0:
364,295,176551,2,0,P|317:289|282:261,1,85,0|2,0:0|1:2,0:0:0:0:
254,134,176902,1,10,0:0:0:0:
162,258,177077,6,0,P|156:173|137:76,1,170,6|2,1:2|1:2,0:0:0:0:
36,0,177603,1,0,1:2:0:0:
0,127,177779,2,0,P|51:99|68:49,1,85,10|0,0:0|0:0,0:0:0:0:
179,5,178130,2,0,P|269:27|362:38,1,170,10|4,3:0|3:0,0:0:0:0:
499,46,178656,6,0,B|469:38|448:7|448:7|467:121,1,170,6|0,1:2|0:0,0:0:0:0:
492,243,179182,1,10,0:0:0:0:
384,159,179358,2,0,P|343:147|299:160,1,85,0|2,0:0|1:2,0:0:0:0:
226,270,179709,1,10,0:0:0:0:
136,168,179884,6,0,B|105:115|105:115|144:-12,1,170,6|2,1:2|1:2,0:0:0:0:
218,120,180410,1,8,0:0:0:0:
298,12,180586,1,10,0:0:0:0:
298,12,180674,1,8,0:0:0:0:
298,12,180761,2,0,P|342:25|385:28,1,85,8|10,0:0|3:0,0:0:0:0:
498,97,181112,2,0,P|455:100|415:113,1,85,6|4,3:0|3:0,0:0:0:0:
292,201,181463,6,0,P|366:214|390:301,1,170,6|0,1:2|0:0,0:0:0:0:
283,379,181989,1,10,0:0:0:0:
218,259,182165,2,0,P|172:271|128:272,1,85,2|2,0:0|1:2,0:0:0:0:
29,185,182516,1,10,0:0:0:0:
132,81,182691,6,0,B|165:88|196:74|196:74|228:97|228:97|260:82|301:91,1,170,6|2,1:2|1:2,0:0:0:0:
384,190,183218,1,0,1:2:0:0:
467,67,183393,2,0,P|418:74|388:111,1,85,10|0,0:0|0:0,0:0:0:0:
458,238,183744,2,0,P|476:192|459:147,1,85,2|8,1:2|0:0,0:0:0:0:
337,271,184095,6,0,B|293:254|285:210|285:210|259:257|189:248,1,170,6|10,1:2|3:0,0:0:0:0:
140,134,184621,1,10,3:0:0:0:
12,217,184796,2,0,B|46:224|57:251|57:251|46:113,1,170,6|2,1:2|1:2,0:0:0:0:
33,4,185323,1,10,0:0:0:0:
176,57,185498,6,0,P|259:39|358:33,1,170,6|2,1:2|1:2,0:0:0:0:
466,94,186025,1,8,0:0:0:0:
358,173,186200,1,6,3:0:0:0:
358,173,186288,1,4,3:0:0:0:
358,173,186375,2,0,P|370:216|377:259,1,85,0|10,1:2|3:0,0:0:0:0:
318,379,186726,1,4,3:0:0:0:
442,324,186902,1,0,1:2:0:0:
289,295,187077,6,0,B|218:273|230:346|140:319,1,144.500002756119,6|0,1:2|0:0,0:0:0:0:
72,261,187603,1,0,0:0:0:0:
167,227,187779,2,0,P|165:191|148:130,1,72.2500013780594,8|0,0:0|0:0,0:0:0:0:
93,76,188130,2,0,P|136:68|159:45,1,72.2500013780594,2|0,1:2|1:2,0:0:0:0:
248,6,188481,6,0,B|294:33|294:33|404:5,1,144.500002756119,2|2,0:0|0:0,0:0:0:0:
479,38,189007,2,0,P|463:122|456:184,1,144.500002756119,2|0,0:0|0:0,0:0:0:0:
399,264,189533,2,0,P|369:244|354:200,1,72.2500013780594,2|0,1:2|0:0,0:0:0:0:
308,97,189884,6,0,B|235:68|250:138|168:106,1,144.500002756119,2|2,1:2|0:0,0:0:0:0:
92,36,190410,2,0,B|64:88|64:88|90:180,1,144.500002756119,2|2,0:0|0:0,0:0:0:0:
115,271,190937,2,0,P|78:261|34:257,1,72.2500013780594,2|0,0:0|1:2,0:0:0:0:
89,370,191288,6,0,P|159:368|215:314,1,144.500002756119,2|2,0:0|1:2,0:0:0:0:
210,219,191814,2,0,P|279:235|368:242,1,144.500002756119,2|2,0:0|1:2,0:0:0:0:
448,275,192340,2,0,P|458:239|446:195,1,72.2500013780594,2|4,0:0|3:0,0:0:0:0:
506,93,192691,6,0,B|457:121|457:121|363:89,1,144.500002756119,2|0,1:2|0:0,0:0:0:0:
282,45,193218,1,0,1:2:0:0:
205,110,193393,2,0,P|201:76|189:28,1,72.2500013780594,8|0,0:0|0:0,0:0:0:0:
98,1,193744,2,0,P|89:36|85:72,1,72.2500013780594,2|0,1:2|1:2,0:0:0:0:
0,168,194095,6,0,P|88:175|112:242,1,144.500002756119,2|2,0:0|1:2,0:0:0:0:
56,302,194621,2,0,P|128:308|213:332,1,144.500002756119,2|0,1:2|0:0,0:0:0:0:
289,370,195147,2,0,P|301:334|285:281,1,72.2500013780594,2|0,0:0|0:0,0:0:0:0:
208,208,195498,6,0,B|180:158|180:158|216:45,1,144.500002756119,2|0,1:2|0:0,0:0:0:0:
279,3,196025,1,2,1:2:0:0:
352,71,196200,2,0,P|425:56|517:50,1,144.500002756119,10|0,0:0|0:0,0:0:0:0:
447,139,196726,1,0,1:2:0:0:
512,239,196902,6,0,P|471:263|461:304,1,72.2500013780594,2|0,0:0|1:2,0:0:0:0:
378,226,197253,2,0,P|304:224|234:206,1,144.500002756119,0|6,1:2|3:0,0:0:0:0:
163,135,197779,1,8,3:0:0:0:
66,163,197954,1,4,3:0:0:0:
88,64,198130,1,4,3:0:0:0:
137,238,198305,6,0,P|117:305|106:381,1,144.500002756119,6|0,1:2|0:0,0:0:0:0:
198,335,198832,1,0,0:0:0:0:
286,383,199007,2,0,P|322:367|340:329,1,72.2500013780594,8|0,0:0|0:0,0:0:0:0:
317,240,199358,2,0,P|303:212|295:168,1,72.2500013780594,2|0,0:0|1:2,0:0:0:0:
336,54,199709,6,0,P|413:53|456:123,1,144.500002756119,2|2,0:0|1:2,0:0:0:0:
415,195,200235,2,0,P|435:267|446:337,1,144.500002756119,2|0,0:0|0:0,0:0:0:0:
353,377,200761,2,0,P|317:362|277:369,1,72.2500013780594,2|0,1:2|0:0,0:0:0:0:
184,379,201112,6,0,P|181:346|168:296,1,72.2500013780594,2|0,1:2|0:0,0:0:0:0:
71,319,201463,2,0,P|74:286|87:236,1,72.2500013780594,2|0,0:0|1:2,0:0:0:0:
171,198,201814,2,0,P|168:165|155:115,1,72.2500013780594,10|0,0:0|0:0,0:0:0:0:
58,138,202165,2,0,P|61:105|74:55,1,72.2500013780594,2|0,0:0|1:2,0:0:0:0:
182,9,202516,6,0,P|258:10|309:88,1,144.500002756119,2|0,1:2|0:0,0:0:0:0:
399,29,203042,2,0,B|411:86|411:86|387:117|387:117|399:173,1,144.500002756119,2|0,1:2|0:0,0:0:0:0:
505,308,203568,6,0,B|469:312|444:279|444:279|386:262|351:296,1,170,6|0,1:2|0:0,0:0:0:0:
245,370,204095,1,10,3:0:0:0:
231,247,204271,1,10,3:0:0:0:
124,325,204447,2,0,P|121:285|113:230,1,85,6|0,1:2|0:0,0:0:0:0:
140,107,204797,1,6,3:0:0:0:
26,182,204973,1,10,3:0:0:0:
223,155,205148,6,0,P|312:177|394:184,1,170,6|6,1:2|3:0,0:0:0:0:
399,47,205675,1,10,3:0:0:0:
511,122,205850,2,0,P|495:168|491:211,1,85,6|0,1:2|0:0,0:0:0:0:
411,333,206201,1,10,0:0:0:0:
335,201,206376,1,2,1:2:0:0:
233,356,206552,6,0,B|188:353|170:310|170:310|146:346|93:346,1,170,6|8,1:2|0:0,0:0:0:0:
29,281,207078,1,8,0:0:0:0:
163,221,207254,1,8,0:0:0:0:
16,299,207429,5,8,0:0:0:0:
106,134,207604,1,8,0:0:0:0:
7,319,207780,5,8,0:0:0:0:
11,105,207955,1,8,0:0:0:0:
144,316,208130,6,0,B|209:292|249:345|249:345|324:357|354:291|354:291|305:290|279:244,1,327.250009986878,4|0,1:2|0:0,0:0:0:0:
357,204,209533,6,0,L|363:164,1,23.3750007133484,2|0,0:0|0:0,0:0:0:0:
429,99,210060,2,0,L|407:107,1,23.3750007133484,2|0,0:0|0:0,0:0:0:0:
303,89,210586,2,0,L|321:103,1,23.3750007133484,2|0,0:0|0:0,0:0:0:0:
256,192,211639,5,2,0:0:0:0:
256,192,213042,1,2,0:0:0:0:
256,192,214446,1,2,0:0:0:0:
256,192,215849,1,2,0:0:0:0:
484,261,217253,6,0,B|329:230|378:374|213:339,1,280.500008560181,2|0,0:0|0:0,0:0:0:0:
81,384,218656,2,0,P|75:299|28:99,1,280.500008560181,2|2,0:0|0:0,0:0:0:0:
197,19,220060,6,0,P|277:45|302:122,1,144.500002756119,2|2,0:0|0:0,0:0:0:0:
355,188,220586,2,0,P|391:127|460:111,1,144.500002756119,2|0,0:0|0:0,0:0:0:0:
409,302,221112,1,10,0:0:0:0:
264,247,221288,6,0,P|182:227|96:218,1,170,6|0,1:2|0:0,0:0:0:0:
1,120,221814,2,0,P|47:131|100:93,1,85,10|0,0:0|0:0,0:0:0:0:
162,0,222165,1,2,1:2:0:0:
218,127,222340,1,8,0:0:0:0:
258,113,222428,1,8,0:0:0:0:
299,104,222516,1,10,0:0:0:0:
341,98,222603,1,8,0:0:0:0:
384,96,222691,2,0,P|402:103|426:109,1,42.5,8|8,0:0|0:0,0:0:0:0:
493,175,222867,6,0,B|481:212|481:212|492:253,1,70.1250021400452,6|0,0:0|0:0,0:0:0:0:
464,279,223217,6,0,P|373:257|263:247,1,195.500003728867,14|2,0:0|1:2,0:0:0:0:
136,195,223744,1,0,1:2:0:0:
225,349,223919,1,10,0:0:0:0:
304,140,224095,6,0,P|244:73|132:90,1,195.500003728867,2|0,0:0|0:0,0:0:0:0:
9,219,224621,2,0,P|26:156|36:88,1,97.7500018644333,10|0,0:0|0:0,0:0:0:0:
178,276,224972,2,0,P|163:229|153:181,1,97.7500018644333,2|0,1:2|1:2,0:0:0:0:
59,361,225323,1,10,0:0:0:0:
268,225,225498,6,0,B|306:221|331:185|331:185|397:175|432:229,1,195.500003728867,2|0,0:0|0:0,0:0:0:0:
389,381,226024,2,0,P|378:335|360:286,1,97.7500018644333,8|0,0:0|0:0,0:0:0:0:
176,223,226375,2,0,P|177:268|232:308,1,97.7500018644333,0|0,1:2|1:2,0:0:0:0:
243,122,226726,1,10,0:0:0:0:
79,242,226901,6,0,P|99:165|122:40,1,195.500003728867,2|0,0:0|0:0,0:0:0:0:
286,0,227427,2,0,P|238:5|206:41,1,97.7500018644333,10|0,0:0|0:0,0:0:0:0:
287,222,227778,1,2,1:2:0:0:
144,137,227954,1,0,1:2:0:0:
327,72,228129,2,0,P|345:138|362:182,1,97.7500018644333,10|0,0:0|0:0,0:0:0:0:
490,302,228480,6,0,B|414:291|414:291|376:315|376:315|303:304,1,195.500003728867,6|8,1:2|0:0,0:0:0:0:
149,215,229006,1,2,0:0:0:0:
83,376,229182,2,0,P|142:374|172:338,1,97.7500018644333,0|0,1:2|1:2,0:0:0:0:
264,201,229533,2,0,P|285:258|299:330,1,97.7500018644333,8|0,0:0|0:0,0:0:0:0:
451,186,229884,6,0,P|403:105|309:106,1,195.500003728867,2|8,1:2|0:0,0:0:0:0:
182,268,230410,2,0,B|177:230|145:206|145:206|186:73,1,195.500003728867,2|0,0:0|1:2,0:0:0:0:
336,27,230936,1,10,0:0:0:0:
250,169,231112,1,2,0:0:0:0:
437,77,231287,6,0,P|446:124|462:171,1,97.7500018644333,6|0,1:2|0:0,0:0:0:0:
488,2,231638,1,10,0:0:0:0:
359,130,231813,2,0,B|250:182|272:85|160:135,1,195.500003728867,2|2,0:0|1:2,0:0:0:0:
89,275,232340,1,10,0:0:0:0:
4,112,232515,6,0,P|22:175|31:221,1,97.7500018644333,4|0,1:2|0:0,0:0:0:0:
116,360,232866,1,2,1:2:0:0:
205,207,233041,2,0,P|156:179|112:189,1,97.7500018644333,10|0,0:0|0:0,0:0:0:0:
256,301,233392,1,0,1:2:0:0:
362,146,233568,1,8,0:0:0:0:
317,125,233656,1,8,0:0:0:0:
270,108,233744,1,8,3:0:0:0:
224,93,233832,1,8,3:0:0:0:
178,81,233919,2,0,P|137:96|112:96,1,48.8750009322167,4|4,3:0|3:0,0:0:0:0:
8,68,234094,6,0,B|42:61|62:30|62:30|32:162,1,195.500003728867,6|10,1:2|0:0,0:0:0:0:
103,333,234620,1,0,1:2:0:0:
206,183,234796,2,0,P|147:207|91:219,1,97.7500018644333,10|0,0:0|1:2,0:0:0:0:
283,128,235147,5,10,0:0:0:0:
219,286,235322,1,2,1:2:0:0:
130,107,235498,6,0,P|183:58|210:59,1,97.7500018644333,8|0,0:0|1:2,0:0:0:0:
368,205,235848,1,10,0:0:0:0:
297,3,236024,1,0,1:2:0:0:
216,203,236200,5,10,0:0:0:0:
398,67,236375,1,0,1:2:0:0:
184,18,236550,5,10,0:0:0:0:
377,186,236726,1,2,1:2:0:0:
140,122,236901,6,0,B|129:157|99:178|99:178|150:302,1,195.500003728867,12|8,0:2|0:0,0:0:0:0:
261,172,237427,1,0,1:2:0:0:
339,373,237603,5,8,0:0:0:0:
132,307,237778,1,0,1:2:0:0:
363,204,237954,1,10,0:0:0:0:
220,383,238129,6,0,P|230:341|256:170,1,195.500003728867,6|0,1:2|1:2,0:0:0:0:
94,105,238655,1,10,0:0:0:0:
236,5,238831,1,8,0:0:0:0:
236,5,238919,1,8,0:0:0:0:
236,5,239006,2,0,P|290:3|334:53,1,97.7500018644333,10|0,0:0|1:2,0:0:0:0:
377,223,239357,1,6,3:3:0:0:
459,60,239533,1,8,3:3:0:0:
292,147,239708,6,0,P|216:126|178:121,1,97.7500018644333,6|0,1:2|1:2,0:0:0:0:
90,303,240059,1,0,1:2:0:0:
56,88,240234,5,14,0:0:0:0:
206,240,240410,1,0,1:2:0:0:
0,201,240585,1,0,1:2:0:0:
195,108,240761,6,0,P|259:112|289:156,1,97.7500018644333,14|0,0:0|0:0,0:0:0:0:
354,307,241112,1,0,1:2:0:0:
505,141,241287,6,0,P|487:95|474:46,1,97.7500018644333,12|2,0:0|0:0,0:0:0:0:
325,216,241638,1,0,1:2:0:0:
325,216,241726,1,0,1:2:0:0:
325,216,241813,2,0,P|342:170|355:121,1,97.7500018644333,14|0,0:0|1:2,0:0:0:0:
179,42,242164,1,6,3:0:0:0:
220,197,242340,1,6,3:0:0:0:
73,74,242515,6,0,P|41:84|25:233,1,195.500003728867,4|0,1:2|1:2,0:0:0:0:
166,275,243041,1,10,0:0:0:0:
18,373,243217,2,0,P|83:351|140:342,1,97.7500018644333,0|0,0:0|1:2,0:0:0:0:
233,217,243568,1,10,0:0:0:0:
317,376,243743,1,2,0:0:0:0:
409,203,243919,6,0,P|433:250|421:303,1,97.7500018644333,2|8,1:2|0:0,0:0:0:0:
304,146,244270,2,0,P|332:100|384:85,1,97.7500018644333,2|0,1:2|1:2,0:0:0:0:
308,264,244620,2,0,P|254:261|214:224,1,97.7500018644333,10|0,0:0|1:2,0:0:0:0:
98,131,244971,1,10,0:0:0:0:
70,296,245147,1,0,0:0:0:0:
202,137,245322,6,0,P|184:87|170:30,1,97.7500018644333,4|8,1:2|0:0,0:0:0:0:
195,7,245585,1,8,0:0:0:0:
195,7,245673,1,8,0:0:0:0:
295,191,245848,2,0,B|399:220|374:137|486:170,1,195.500003728867,4|0,1:2|1:2,0:0:0:0:
475,344,246375,2,0,P|454:270|437:235,1,97.7500018644333,14|2,0:0|0:0,0:0:0:0:
330,110,246726,5,2,0:0:0:0:
208,244,246901,2,0,P|258:292|305:285,1,97.7500018644333,8|2,0:0|0:0,0:0:0:0:
184,149,247252,1,0,1:2:0:0:
76,291,247427,2,0,P|99:220|104:179,1,97.7500018644333,10|0,0:0|1:2,0:0:0:0:
80,22,247778,2,0,P|32:24|0:60,1,97.7500018644333,6|4,3:0|3:0,0:0:0:0:
168,124,248129,5,4,1:2:0:0:
9,206,248305,1,0,0:0:0:0:
190,111,248481,2,0,P|221:140|226:196,1,97.7500018644333,0|8,1:2|0:0,0:0:0:0:
153,336,248831,1,8,0:0:0:0:
197,315,248919,1,8,0:0:0:0:
242,297,249007,1,8,0:0:0:0:
289,283,249095,1,8,0:0:0:0:
337,273,249182,2,0,P|368:260|392:233,3,48.8750009322167,10|8|10|8,0:0|0:0|0:0|0:0,0:0:0:0:
449,193,249533,6,0,B|477:217|474:263|474:263|498:160|498:160|471:114|471:114|490:27,1,327.250009986878,6|2,1:2|0:0,0:0:0:0:
244,7,252340,5,0,1:2:0:0:
256,36,252428,1,0,1:2:0:0:
265,66,252516,1,8,0:0:0:0:
272,97,252603,1,8,0:0:0:0:
276,128,252691,2,0,P|294:138|313:147,2,42.5,0|8|8,1:2|0:0|0:0,0:0:0:0:
155,50,253042,6,0,P|95:62|74:95,1,85,14|0,0:0|1:2,0:0:0:0:
23,213,253393,1,0,1:2:0:0:
181,216,253568,2,0,P|169:155|136:135,1,85,14|0,0:0|1:2,0:0:0:0:
66,321,253919,1,0,1:2:0:0:
259,268,254095,6,0,P|305:273|335:302,1,85,14|0,0:0|1:2,0:0:0:0:
376,167,254446,1,0,1:2:0:0:
470,305,254621,1,14,0:0:0:0:
508,133,254796,1,0,1:2:0:0:
402,249,254972,1,0,1:2:0:0:
329,95,255147,2,0,P|287:85|247:70,1,85,14|0,0:0|1:2,0:0:0:0:
126,6,255498,1,2,1:2:0:0:
139,46,255585,1,2,1:2:0:0:
150,87,255673,1,2,1:2:0:0:
159,128,255761,1,2,1:2:0:0:
164,171,255849,6,0,P|210:202|259:184,1,85,14|0,0:0|1:2,0:0:0:0:
414,95,256200,1,0,1:2:0:0:
379,295,256375,1,14,0:0:0:0:
249,179,256551,1,0,1:2:0:0:
465,169,256726,1,0,1:2:0:0:
314,363,256901,6,0,P|271:348|228:343,1,85,14|0,0:0|1:2,0:0:0:0:
23,313,257253,1,0,1:2:0:0:
207,255,257428,1,14,0:0:0:0:
18,177,257603,1,0,1:2:0:0:
123,371,257779,1,0,1:2:0:0:
196,155,257954,6,0,P|188:105|150:72,1,85,14|8,0:0|3:0,0:0:0:0:
28,20,258305,2,0,P|80:11|119:-5,1,85,4|4,3:0|3:0,0:0:0:0:
304,2,258656,6,0,P|354:12|396:117,1,170,6|2,1:2|0:0,0:0:0:0:
288,174,259182,2,0,P|287:117|318:89,1,85,10|0,0:0|0:0,0:0:0:0:
378,207,259533,1,2,1:2:0:0:
505,81,259708,6,0,P|491:147|476:269,1,170,10|2,0:0|1:2,0:0:0:0:
392,354,260234,2,0,P|340:351|312:318,1,85,10|0,0:0|0:0,0:0:0:0:
225,228,260586,1,2,1:2:0:0:
148,340,260761,2,0,P|191:323|245:315,1,85,10|0,0:0|0:0,0:0:0:0:
94,216,261112,6,0,B|53:129|134:132|85:25,1,170,6|0,1:2|1:2,0:0:0:0:
223,1,261638,1,0,1:2:0:0:
294,124,261814,2,0,P|328:150|371:151,1,85,8|8,0:0|0:0,0:0:0:0:
497,182,262165,2,0,P|457:198|435:235,1,85,8|8,0:0|0:0,0:0:0:0:
345,328,262516,2,0,P|350:285|329:247,1,85,8|8,0:0|0:0,0:0:0:0:
159,240,262867,5,10,1:2:0:0:
319,115,263030,1,10,1:2:0:0:
117,90,263199,1,10,1:2:0:0:
248,284,263368,1,10,1:2:0:0:
419,44,263744,5,8,0:0:0:0:
380,177,263919,2,0,P|419:162|461:152,1,85,8|4,3:0|3:0,0:0:0:0:
237,84,264270,5,6,1:2:0:0:
256,192,264357,12,0,271287,0:0:0:0:
