osu file format v14

[General]
AudioFilename: audio.ogg
AudioLeadIn: 0
PreviewTime: 63659
Countdown: 0
SampleSet: Soft
StackLeniency: 0.8
Mode: 0
LetterboxInBreaks: 0
WidescreenStoryboard: 1

[Editor]
DistanceSpacing: 0.8
BeatDivisor: 4
GridSize: 8
TimelineZoom: 2.599999

[Metadata]
Title:START!! True dreams (TV Size)
TitleUnicode:START!! True dreams (TV Size)
Artist:Liella!
ArtistUnicode:Liella!
Creator:Riana
Version:Dream
Source:ラブライブ!スーパースター!!
Tags:love live! lovelive! superstar!! japanese opening song op pop j-pop jpop anime tv size idol Shibuya Kanon 澁谷かのん Táng Kěkě Tang Keke Tan Kuukuu 唐 可可 タン クゥクゥ Arashi Chisato 嵐千砂都 Heanna Sumire 平安名すみれ Hazuki Ren 葉月恋 Junko Miyajima 宮嶋淳子 Yasuhiro Obata 小幡康裕 Yuuya Mori 森悠也 imamura いまむら Chinami zyoi arronchu1207 amamya affirmation Neoskylove Matsuyuki Ame RK657
BeatmapID:4320431
BeatmapSetID:2065495

[Difficulty]
HPDrainRate:6
CircleSize:3.8
OverallDifficulty:9
ApproachRate:9.3
SliderMultiplier:1.8
SliderTickRate:1

[Events]
//Background and Video events
0,0,"91183039_p0_waifu2x_art_noise0_scale.jpg",0,0
//Break Periods
//Storyboard Layer 0 (Background)
//Storyboard Layer 1 (Fail)
//Storyboard Layer 2 (Pass)
//Storyboard Layer 3 (Foreground)
//Storyboard Layer 4 (Overlay)
//Storyboard Sound Samples

[TimingPoints]
2817,337.078651685393,4,2,1,25,1,0
3154,-133.333333333333,4,2,1,25,0,0
4165,-133.333333333333,4,2,65,40,0,0
8041,-90.9090909090909,4,2,66,65,0,0
8884,-100,4,2,65,65,0,0
9558,-100,4,2,67,65,0,0
10906,-66.6666666666667,4,2,67,65,0,0
12255,-66.6666666666667,4,2,65,60,0,1
13772,-66.6666666666667,4,2,66,60,0,1
14109,-66.6666666666667,4,2,65,60,0,1
14951,-66.6666666666667,4,2,67,60,0,1
21861,-66.6666666666667,4,2,67,60,0,0
23041,-100,4,2,67,60,0,0
27423,-66.6666666666667,4,2,67,60,0,0
28266,-100,4,2,67,60,0,0
28434,-66.6666666666667,4,2,67,60,0,0
31131,-133.333333333333,4,2,65,45,0,0
40569,-100,4,2,65,45,0,0
41243,-100,4,2,68,45,0,0
41412,-100,4,2,65,45,0,0
41918,-100,4,2,65,55,0,0
42255,-100,4,2,68,55,0,0
42760,-100,4,2,65,55,0,0
43097,-100,4,2,68,55,0,0
43434,-100,4,2,65,55,0,0
43603,-100,4,2,68,55,0,0
43772,-100,4,2,65,55,0,0
44277,-100,4,2,68,55,0,0
44614,-100,4,2,65,55,0,0
44951,-100,4,2,68,55,0,0
45456,-100,4,2,65,55,0,0
45793,-100,4,2,68,55,0,0
46130,-100,4,2,65,55,0,0
46299,-100,4,2,68,55,0,0
46468,-100,4,2,65,55,0,0
46973,-100,4,2,68,55,0,0
47311,-100,4,2,67,55,0,0
47648,-66.6666666666667,4,2,67,55,0,0
47985,-100,4,2,67,55,0,0
48659,-66.6666666666667,4,2,67,55,0,0
48996,-100,4,2,67,55,0,0
50345,-66.6666666666667,4,2,67,55,0,0
52199,-66.6666666666667,4,2,65,55,0,0
52704,-133.333333333333,4,2,65,50,0,0
53378,-133.333333333333,4,2,68,50,0,0
53715,-133.333333333333,4,2,65,50,0,0
54727,-133.333333333333,4,2,68,50,0,0
55401,-133.333333333333,4,2,65,50,0,0
56075,-133.333333333333,4,2,68,50,0,0
56412,-133.333333333333,4,2,65,50,0,0
57086,-133.333333333333,4,2,68,50,0,0
58097,-100,4,2,67,55,0,0
59614,-100,4,2,65,55,0,0
60794,-66.6666666666667,4,2,67,55,0,0
64839,-66.6666666666667,4,2,65,75,0,1
65176,-66.6666666666667,4,2,68,75,0,1
65513,-66.6666666666667,4,2,65,75,0,1
65850,-66.6666666666667,4,2,68,75,0,1
66187,-66.6666666666667,4,2,65,75,0,1
66525,-66.6666666666667,4,2,68,75,0,1
66861,-66.6666666666667,4,2,65,75,0,1
67199,-66.6666666666667,4,2,68,75,0,1
67536,-66.6666666666667,4,2,65,75,0,1
67873,-66.6666666666667,4,2,68,75,0,1
68210,-66.6666666666667,4,2,65,75,0,1
68547,-66.6666666666667,4,2,68,75,0,1
68884,-66.6666666666667,4,2,65,75,0,1
69221,-66.6666666666667,4,2,68,75,0,1
69558,-66.6666666666667,4,2,65,75,0,1
69895,-66.6666666666667,4,2,68,75,0,1
70232,-66.6666666666667,4,2,67,75,0,1
74951,-66.6666666666667,4,2,67,75,0,1
75625,-66.6666666666667,4,2,65,75,0,1
75962,-66.6666666666667,4,2,68,75,0,1
76299,-66.6666666666667,4,2,65,75,0,1
76636,-66.6666666666667,4,2,68,75,0,1
76973,-66.6666666666667,4,2,65,75,0,1
77311,-66.6666666666667,4,2,68,75,0,1
77647,-66.6666666666667,4,2,65,75,0,1
77985,-66.6666666666667,4,2,68,75,0,1
78322,-66.6666666666667,4,2,67,75,0,1
78912,-66.6666666666667,4,2,67,5,0,1
78996,-66.6666666666667,4,2,67,75,0,1
79249,-66.6666666666667,4,2,67,5,0,1
79333,-66.6666666666667,4,2,67,75,0,1
80513,-66.6666666666667,4,2,65,75,0,1
81019,-66.6666666666667,4,2,67,75,0,1
85906,-66.6666666666667,4,2,65,75,0,1
86412,-66.6666666666667,4,2,68,75,0,1
86749,-66.6666666666667,4,2,65,75,0,1
87760,-66.6666666666667,4,2,65,75,0,0
90120,-66.6666666666667,4,2,65,70,0,0
90794,-66.6666666666667,4,2,67,70,0,0
91131,-66.6666666666667,4,2,67,70,0,1
91300,-66.6666666666667,4,2,67,70,0,0

[Colours]
Combo1 : 255,166,77
Combo2 : 240,225,96

[HitObjects]
86,237,3154,6,0,P|170:244|237:253,1,135.000005149842,2|0,2:0|2:0,2:0:0:0:
287,150,3828,2,0,P|298:214|304:240,1,67.5000025749208,2|0,2:0|2:0,2:0:0:0:
298,216,4081,1,2,2:0:0:0:
298,216,4165,1,6,3:2:0:0:
276,373,4670,6,0,P|348:316|401:336,1,135.000005149842,2|0,2:0|2:0,2:0:0:0:
474,346,5176,2,0,P|452:247|440:184,1,135.000005149842,2|2,2:0|2:0,2:0:0:0:
332,80,6019,5,2,2:0:0:0:
332,80,6187,2,0,P|253:66|240:69,1,67.5000025749208,0|0,2:0|2:0,2:0:0:0:
239,155,6524,2,0,P|318:169|331:166,1,67.5000025749208,2|0,2:0|2:0,2:0:0:0:
212,235,6861,6,0,P|196:178|162:87,1,135.000005149842,2|0,2:0|2:0,2:0:0:0:
14,151,7367,2,0,P|29:207|63:298,1,135.000005149842,2|0,2:0|2:0,2:0:0:0:
168,343,7873,1,2,3:2:0:0:
418,355,8041,6,0,B|449:354|473:379|473:379|474:301|417:235|320:281,1,247.500007553101,14|0,2:2|2:0,2:0:0:0:
274,302,8547,2,0,P|282:214|285:169,1,99.0000030212403,8|0,2:0|2:0,2:0:0:0:
339,95,8884,6,0,P|317:102|243:120,1,90,10|4,2:3|2:3,2:0:0:0:
181,230,9221,2,0,P|163:167|70:142,1,135,2|0,3:2|2:0,2:0:0:0:
15,151,9558,5,6,3:2:0:0:
268,128,9727,1,0,3:0:0:0:
57,46,9895,1,0,3:0:0:0:
168,242,10064,1,0,3:0:0:0:
393,55,10232,5,2,3:2:0:0:
261,341,10401,1,0,3:0:0:0:
140,114,10569,1,2,3:2:0:0:
256,361,10738,1,0,3:0:0:0:
512,143,10906,6,0,P|449:161|416:170,1,67.5000025749208,14|0,2:0|2:0,2:0:0:0:
0,205,11581,5,8,2:0:0:0:
4,237,11665,1,8,2:0:0:0:
10,271,11749,1,8,2:0:0:0:
16,303,11833,1,8,2:0:0:0:
22,333,11918,2,0,P|100:347|171:358,1,135.000005149842,8|0,2:0|3:0,2:0:0:0:
424,79,12255,6,0,B|371:99|314:57|367:33|303:-9|248:23,1,202.500007724762,6|0,3:2|2:0,2:0:0:0:
252,23,12592,1,0,3:0:0:0:
437,194,12760,1,2,3:2:0:0:
125,231,12929,5,2,3:2:0:0:
324,182,13097,1,0,3:0:0:0:
159,28,13266,1,0,3:0:0:0:
377,97,13434,1,2,3:2:0:0:
259,249,13603,5,2,3:2:0:0:
10,105,13772,2,0,P|93:125|241:158,1,202.500007724762,12|0,2:0|3:0,2:0:0:0:
208,151,14109,5,10,2:3:0:0:
145,382,14277,1,2,3:2:0:0:
313,159,14446,1,4,2:3:0:0:
161,265,14614,2,0,P|50:282|7:290,1,135.000005149842,0|0,3:0|2:0,2:0:0:0:
422,217,14951,6,0,B|455:205|455:205|397:117|306:162,1,202.500007724762,6|0,3:2|2:0,2:0:0:0:
313,159,15288,1,0,3:0:0:0:
466,305,15457,1,2,3:2:0:0:
493,93,15625,5,2,3:2:0:0:
271,246,15794,1,0,3:0:0:0:
199,34,15963,1,0,3:0:0:0:
406,213,16131,1,2,3:2:0:0:
195,365,16300,6,0,P|180:275|168:175,1,135.000005149842,14|0,2:0|3:0,2:0:0:0:
352,281,16637,1,0,3:0:0:0:
497,0,16805,1,14,2:0:0:0:
291,112,16974,2,0,P|276:202|264:302,1,135.000005149842,2|0,3:2|3:0,2:0:0:0:
135,303,17311,5,8,2:0:0:0:
410,384,17479,1,8,2:0:0:0:
410,384,17564,1,8,2:0:0:0:
410,384,17648,6,0,P|412:308|368:263,1,135.000005149842,6|0,3:2|2:0,2:0:0:0:
203,183,17985,1,2,3:2:0:0:
378,108,18154,1,0,3:0:0:0:
177,319,18322,6,0,P|284:343|362:361,1,135.000005149842,2|0,3:2|3:0,2:0:0:0:
443,220,18659,1,2,3:2:0:0:
340,26,18828,1,0,3:0:0:0:
180,201,18996,6,0,P|255:179|360:145,1,135.000005149842,2|0,3:2|3:0,2:0:0:0:
180,50,19333,5,2,3:2:0:0:
400,155,19502,1,0,3:0:0:0:
114,303,19670,1,2,3:2:0:0:
265,85,19839,1,0,3:0:0:0:
496,303,20008,5,10,2:0:0:0:
496,303,20345,5,2,3:2:0:0:
221,168,20513,2,0,B|201:163|177:180|177:180|211:95|303:116,1,202.500007724762,12|0,2:0|2:0,2:0:0:0:
409,76,20850,5,2,2:0:0:0:
409,76,20934,1,2,2:0:0:0:
409,76,21019,2,0,P|416:26|424:-12,1,67.5000025749208,2|0,0:0|0:0,0:0:0:0:
441,187,21187,2,0,P|491:194|529:202,1,67.5000025749208,2|0,3:2|0:0,0:0:0:0:
327,220,21356,2,0,P|320:270|312:308,1,67.5000025749208,2|0,3:2|0:0,0:0:0:0:
285,109,21524,2,0,P|239:100|193:93,1,67.5000025749208,14|0,2:0|2:0,2:0:0:0:
56,231,21861,5,2,2:2:0:0:
56,231,21946,1,2,2:2:0:0:
56,231,22030,1,2,2:2:0:0:
148,247,22199,1,2,2:2:0:0:
2,300,22367,5,2,2:2:0:0:
157,332,22536,1,2,3:2:0:0:
0,139,22704,5,14,2:2:0:0:
229,181,22873,1,2,2:2:0:0:
0,139,23041,6,0,P|88:122|183:94,1,180,6|8,3:2|2:0,2:0:0:0:
298,0,23547,1,2,2:0:0:0:
351,258,23715,6,0,P|380:173|403:77,1,180,2|8,3:2|2:0,2:0:0:0:
314,0,24221,1,2,2:0:0:0:
0,139,24390,6,0,P|88:156|183:184,1,180,2|8,3:2|2:0,2:0:0:0:
391,99,24896,1,2,2:0:0:0:
475,179,25064,5,2,3:2:0:0:
400,1,25232,1,2,3:2:0:0:
281,150,25401,1,10,2:0:0:0:
491,78,25569,1,2,2:0:0:0:
374,225,25738,6,0,P|287:229|224:295,1,180,2|8,3:2|2:0,2:0:0:0:
82,384,26244,1,2,2:0:0:0:
0,122,26412,5,2,3:2:0:0:
31,217,26581,1,2,3:2:0:0:
147,166,26749,5,10,2:0:0:0:
124,267,26918,1,2,2:0:0:0:
274,151,27086,6,0,B|292:27,1,90,2|0,3:2|3:0,2:0:0:0:
197,12,27339,1,0,3:0:0:0:
197,12,27423,2,0,B|246:-17|312:24|266:53|323:90|371:65,1,202.500007724762,10|0,2:0|2:0,2:0:0:0:
512,128,27761,5,2,3:2:0:0:
353,202,27929,1,0,3:0:0:0:
353,202,28013,1,0,3:0:0:0:
353,202,28098,1,2,3:2:0:0:
473,31,28266,1,2,0:0:0:0:
512,319,28434,6,0,P|406:300|357:295,1,135.000005149842,2|0,3:2|3:0,2:0:0:0:
120,237,28772,2,0,B|56:277|69:350|69:350|112:309|168:332,1,202.500007724762,14|0,2:0|2:0,2:0:0:0:
220,295,29109,6,0,P|209:229|196:163,1,135.000005149842,2|0,3:2|3:0,2:0:0:0:
368,94,29446,2,0,B|431:134|418:207|418:207|375:166|319:189,1,202.500007724762,14|0,2:0|2:0,2:0:0:0:
280,132,29783,6,0,P|291:65|304:-1,1,135.000005149842,2|0,3:2|3:0,2:0:0:0:
97,150,30120,1,14,2:0:0:0:
310,268,30288,1,0,3:0:0:0:
310,268,30373,1,0,3:0:0:0:
310,268,30457,5,14,2:0:0:0:
0,380,30625,1,14,2:0:0:0:
156,203,31131,6,0,P|235:177|310:160,2,135.000005149842,6|0|0,3:2|3:0|2:0,2:0:0:0:
295,313,32142,2,0,P|320:252|338:228,1,67.5000025749208,2|0,3:2|2:0,2:0:0:0:
348,372,32479,6,0,P|269:346|194:329,1,135.000005149842,2|0,3:2|3:0,2:0:0:0:
245,245,32985,1,2,2:0:0:0:
245,245,33154,2,0,P|219:184|201:160,1,67.5000025749208,2|0,3:2|2:0,2:0:0:0:
245,38,33491,2,0,P|205:91|193:118,1,67.5000025749208,2|0,3:2|2:0,2:0:0:0:
1,214,33828,6,0,P|69:221|142:226,1,135.000005149842,2|0,3:2|3:0,2:0:0:0:
104,315,34333,1,2,0:0:0:0:
183,361,34502,2,0,P|241:314|314:309,1,135.000005149842,2|0,3:2|3:0,2:0:0:0:
390,346,35008,5,2,2:0:0:0:
390,346,35176,2,0,P|377:224|374:193,1,135.000005149842,2|0,3:2|3:0,2:0:0:0:
213,235,35682,5,2,2:0:0:0:
213,235,35850,2,0,P|223:190|243:155,1,67.5000025749208,2|0,3:2|2:0,2:0:0:0:
207,24,36187,2,0,P|240:55|260:90,1,67.5000025749208,2|0,3:0|2:0,2:0:0:0:
450,114,36524,6,0,P|341:139|301:139,1,135.000005149842,2|0,3:2|3:0,2:0:0:0:
426,298,37030,1,2,2:0:0:0:
426,298,37199,2,0,P|319:266|284:245,1,135.000005149842,2|0,3:2|3:0,2:0:0:0:
158,309,37704,5,2,2:0:0:0:
158,309,37873,2,0,P|189:202|210:167,1,135.000005149842,2|0,3:2|3:0,2:0:0:0:
11,195,38378,1,2,2:0:0:0:
11,195,38547,2,0,P|92:118|127:98,1,135.000005149842,2|0,3:2|3:0,2:0:0:0:
254,384,39221,6,0,P|364:353|414:346,1,135.000005149842,2|0,3:2|3:0,2:0:0:0:
505,177,39895,2,0,P|440:163|374:143,1,135.000005149842,2|0,3:2|3:0,2:0:0:0:
174,384,40569,6,0,B|158:338|200:293|219:339|270:277|246:235,1,180,2|0,3:2|3:0,2:0:0:0:
181,165,41075,1,2,3:0:0:0:
342,252,41243,1,8,2:0:0:0:
460,27,41412,1,8,2:3:0:0:
301,135,41581,1,4,2:3:0:0:
472,215,41749,1,4,0:3:0:0:
341,352,41918,6,0,P|301:348|165:336,1,135,6|0,3:2|2:0,2:0:0:0:
268,197,42255,5,8,2:0:0:0:
121,171,42423,2,0,P|45:249|65:320,1,180,2|0,2:0|3:0,2:0:0:0:
382,182,42929,1,2,2:0:0:0:
315,23,43097,2,0,P|292:108|265:205,1,180,10|0,2:0|3:0,2:0:0:0:
463,220,43603,1,8,2:0:0:0:
392,93,43772,5,2,3:2:0:0:
216,111,43940,1,2,3:2:0:0:
363,203,44109,1,2,3:2:0:0:
183,221,44277,1,10,2:2:0:0:
335,313,44446,1,2,2:2:0:0:
508,145,44614,6,0,P|496:214|480:309,1,135,2|0,3:2|2:0,2:0:0:0:
422,345,44951,1,10,2:0:0:0:
115,312,45120,6,0,P|167:250|278:253,1,180,2|0,2:0|3:0,2:0:0:0:
396,234,45625,1,2,2:0:0:0:
273,0,45794,2,0,P|301:82|325:183,1,180,10|0,2:0|3:0,2:0:0:0:
482,48,46299,1,8,2:0:0:0:
272,252,46468,5,0,3:0:0:0:
272,252,46552,1,0,3:0:0:0:
272,252,46637,1,2,3:2:0:0:
451,159,46805,1,0,3:0:0:0:
249,346,46973,1,10,2:0:0:0:
169,102,47142,1,0,3:0:0:0:
352,109,47311,6,0,P|295:122|237:136,1,90,6|0,3:2|2:0,2:0:0:0:
167,285,47648,2,0,B|140:374|42:354|42:354|7:273,1,202.500007724762,8|0,2:0|2:0,2:0:0:0:
28,307,47985,6,0,P|39:263|49:219,1,90,2|0,3:2|2:0,2:0:0:0:
0,48,48322,1,10,2:0:0:0:
171,141,48491,1,2,2:0:0:0:
0,49,48659,2,0,B|39:100|91:94|91:94|128:48|177:47,1,202.500007724762,0|0,3:0|2:0,2:0:0:0:
275,204,48996,2,0,P|266:152|251:86,1,90,10|0,2:0|2:0,2:0:0:0:
397,0,49333,6,0,P|331:11|265:24,1,135.000005149842,2|0,3:2|2:0,2:0:0:0:
264,24,49670,1,10,2:0:0:0:
395,212,49839,1,0,3:0:0:0:
138,384,50008,6,0,P|120:308|99:223,1,135,4|0,3:2|2:0,2:0:0:0:
106,252,50345,1,8,0:0:0:0:
277,143,50513,6,0,B|335:166|393:137|339:105|411:75|457:99,1,202.500007724762,4|0,3:2|2:0,2:0:0:0:
458,100,50850,1,0,3:0:0:0:
361,373,51019,1,8,2:0:0:0:
54,134,51356,5,4,3:2:0:0:
292,56,51524,1,0,3:0:0:0:
192,262,51693,1,8,2:0:0:0:
148,179,51861,1,0,3:0:0:0:
148,179,51946,1,0,3:0:0:0:
148,179,52030,5,10,2:0:0:0:
313,245,52199,1,8,2:3:0:0:
49,367,52367,1,2,3:2:0:0:
450,359,52704,6,0,P|396:310|331:322,1,135.000005149842,6|0,3:2|2:0,2:0:0:0:
135,360,53378,2,0,P|123:271|107:201,1,135.000005149842,10|0,2:0|3:0,2:0:0:0:
43,161,53884,2,0,P|51:98|58:64,1,67.5000025749208,2|0,3:2|2:0,2:0:0:0:
304,239,54390,2,0,P|261:196|172:209,2,135.000005149842,2|10|2,2:0|2:0|2:0,2:0:0:0:
62,25,55401,6,0,P|116:74|181:62,1,135.000005149842,2|0,3:2|2:0,2:0:0:0:
424,24,56075,1,10,2:0:0:0:
485,85,56243,1,2,2:0:0:0:
412,135,56412,1,2,3:0:0:0:
469,199,56581,2,0,P|461:262|454:296,1,67.5000025749208,2|0,3:2|2:0,2:0:0:0:
318,382,57086,6,0,P|310:319|303:285,1,67.5000025749208,10|0,2:0|2:0,2:0:0:0:
156,134,57423,1,10,2:0:0:0:
368,223,57592,1,8,2:0:0:0:
51,250,58097,6,0,P|124:242|237:207,1,180,6|0,3:2|3:0,2:0:0:0:
499,384,58772,6,0,P|489:329|457:292,1,90,2|0,3:2|2:0,2:0:0:0:
346,257,59109,1,10,2:0:0:0:
346,257,59277,1,2,2:0:0:0:
468,184,59446,2,0,P|415:164|368:173,1,90,2|8,3:2|2:3,2:0:0:0:
244,255,59783,1,0,3:0:0:0:
244,255,60120,6,0,P|172:240|58:212,1,180,2|0,3:2|3:0,2:0:0:0:
388,0,60794,6,0,P|375:76|361:159,1,135.000005149842,14|0,2:0|2:0,2:0:0:0:
258,257,61131,1,2,3:2:0:0:
497,302,61300,6,0,P|485:234|474:168,1,135.000005149842,14|0,2:0|2:0,2:0:0:0:
274,107,61637,1,2,3:2:0:0:
434,384,61805,6,0,P|351:360|239:348,1,135.000005149842,14|0,2:0|2:0,2:0:0:0:
380,230,62142,1,0,3:0:0:0:
54,216,62311,6,0,P|137:192|249:180,1,135.000005149842,14|0,2:0|2:0,2:0:0:0:
113,63,62648,1,0,3:0:0:0:
434,0,62816,5,10,2:0:0:0:
228,262,62985,1,0,3:0:0:0:
21,0,63154,1,8,2:0:0:0:
317,174,63322,1,2,2:0:0:0:
317,174,63406,1,2,2:0:0:0:
317,174,63491,1,6,3:2:0:0:
13,262,64165,5,0,3:0:0:0:
47,238,64249,1,0,3:0:0:0:
91,238,64333,1,0,3:0:0:0:
128,257,64418,1,0,3:0:0:0:
151,294,64502,1,8,2:0:0:0:
172,329,64587,1,8,2:0:0:0:
209,348,64671,1,8,2:0:0:0:
253,348,64755,1,8,2:0:0:0:
284,318,64839,6,0,B|352:306|405:364|405:364|432:291|501:262,1,270.000010299683,6|8,3:2|2:0,2:0:0:0:
389,77,65345,1,2,2:0:0:0:
249,247,65513,6,0,B|201:284|201:284|236:102,1,202.500007724762,2|0,3:2|2:0,2:0:0:0:
227,144,65850,1,8,2:0:0:0:
370,0,66019,1,2,2:0:0:0:
128,123,66187,6,0,P|46:92|-28:84,1,135.000005149842,2|0,3:2|2:0,2:0:0:0:
384,195,66525,2,0,P|450:167|522:157,1,135.000005149842,10|0,2:0|2:0,2:0:0:0:
130,275,66861,2,0,P|43:289|-23:319,1,135.000005149842,2|0,3:2|3:0,2:0:0:0:
289,97,67199,2,0,P|333:40|389:-6,1,135.000005149842,10|0,2:0|2:0,2:0:0:0:
336,259,67536,6,0,P|236:289|161:315,1,135.000005149842,2|0,3:2|2:0,2:0:0:0:
189,376,67788,1,0,3:0:0:0:
189,376,67873,2,0,P|145:353|152:242,1,135.000005149842,10|0,2:0|2:0,2:0:0:0:
350,172,68210,5,2,3:2:0:0:
156,37,68378,2,0,P|166:69|175:101,1,67.5000025749208,0|0,3:0|2:0,2:0:0:0:
248,236,68547,1,10,2:0:0:0:
251,202,68631,1,2,2:0:0:0:
255,168,68715,1,2,2:0:0:0:
259,135,68799,1,2,2:0:0:0:
265,98,68884,6,0,B|302:25|385:33|385:33|341:41|318:119,1,202.500007724762,0|0,3:0|2:0,2:0:0:0:
419,106,69221,1,10,2:0:0:0:
322,273,69390,1,0,2:0:0:0:
512,137,69558,5,2,3:2:0:0:
327,251,69727,1,0,3:0:0:0:
198,21,69895,1,10,2:0:0:0:
436,223,70064,1,0,3:0:0:0:
488,22,70232,6,0,B|434:-19|331:38|393:77|317:127|253:94,1,270.000010299683,6|8,3:2|2:0,2:0:0:0:
79,19,70738,1,2,2:0:0:0:
171,235,70906,6,0,P|81:211|25:203,1,135.000005149842,2|0,3:2|3:0,2:0:0:0:
348,192,71243,2,0,P|413:126|458:91,1,135.000005149842,8|2,2:0|2:0,2:0:0:0:
257,183,71581,5,2,3:2:0:0:
201,361,71749,1,0,3:0:0:0:
468,250,71918,6,0,B|479:337|397:371|397:371|392:342|361:326,1,202.500007724762,10|0,0:0|2:0,2:0:0:0:
369,331,72255,5,2,3:2:0:0:
274,88,72423,1,0,3:0:0:0:
74,222,72592,6,0,B|126:198|198:239|145:263|202:300|250:276,1,202.500007724762,10|0,0:2|2:0,2:0:0:0:
251,276,72929,5,14,2:0:0:0:
455,120,73097,1,0,3:0:0:0:
169,5,73266,1,10,2:0:0:0:
376,201,73434,1,2,3:2:0:0:
32,350,73603,5,8,2:0:0:0:
376,201,73772,2,0,P|293:182|226:171,1,135.000005149842,2|0,3:2|3:0,2:0:0:0:
64,82,74109,6,0,B|38:60|-7:67|-7:67|52:34|131:46|159:125,1,270.000010299683,14|0,2:0|3:0,2:0:0:0:
170,252,74614,5,10,2:0:0:0:
375,118,74783,2,0,P|383:72|387:31,1,67.5000025749208,8|8,2:0|2:0,2:0:0:0:
510,265,74951,5,0,3:0:0:0:
469,238,75035,1,0,3:0:0:0:
421,237,75119,1,0,3:0:0:0:
379,260,75203,1,0,3:0:0:0:
354,301,75288,1,10,2:0:0:0:
328,339,75373,1,8,2:0:0:0:
288,362,75457,1,8,2:0:0:0:
238,361,75541,1,8,2:0:0:0:
200,331,75625,6,0,B|165:268|215:191|255:252|314:149|267:95,1,270.000010299683,6|8,3:2|2:0,2:0:0:0:
0,192,76131,1,2,2:0:0:0:
134,372,76299,6,0,P|149:370|305:354,1,135.000005149842,2|0,3:2|3:0,2:0:0:0:
90,215,76636,1,8,2:0:0:0:
306,46,76805,1,2,2:0:0:0:
304,172,76973,6,0,P|385:141|459:133,1,135.000005149842,2|0,3:2|2:0,2:0:0:0:
108,234,77311,1,10,2:0:0:0:
0,19,77479,1,2,0:0:0:0:
176,123,77647,6,0,P|134:69|83:26,1,135.000005149842,2|0,3:2|3:0,2:0:0:0:
293,309,77985,1,10,2:0:0:0:
512,184,78154,1,0,3:0:0:0:
230,191,78322,6,0,P|151:163|52:160,1,135.000005149842,6|0,3:2|2:0,2:0:0:0:
23,177,78575,1,2,2:0:0:0:
23,177,78659,1,10,2:0:0:0:
269,0,78828,6,0,P|263:45|260:83,1,67.5000025749208,2|0,3:2|2:0,2:0:0:0:
429,359,79165,6,0,P|423:314|420:276,1,67.5000025749208,2|0,3:2|2:0,2:0:0:0:
153,219,79502,6,0,B|131:216|110:236|110:236|124:170|186:146|238:174,1,202.500007724762,6|0,3:2|2:0,2:0:0:0:
235,174,79839,1,0,3:0:0:0:
449,89,80008,1,8,0:0:0:0:
317,247,80176,1,8,2:0:0:0:
317,247,80260,1,8,2:0:0:0:
317,247,80345,2,0,P|307:292|302:332,1,67.5000025749208,8|0,0:0|0:0,0:0:0:0:
206,72,80513,6,0,L|191:6,1,67.5000025749208,8|8,2:3|2:3,2:3:0:0:
81,141,80682,2,0,B|47:178|92:256|122:210|159:268|133:315,1,202.500007724762,2|0,3:2|2:0,2:0:0:0:
66,366,81019,5,6,3:2:0:0:
232,254,81187,1,0,3:0:0:0:
66,366,81355,2,0,P|81:364|237:348,1,135.000005149842,8|0,2:0|2:0,2:0:0:0:
479,214,81693,5,2,3:2:0:0:
283,97,81862,1,0,3:0:0:0:
479,214,82030,2,0,P|464:212|308:196,1,135.000005149842,10|0,2:0|2:0,2:0:0:0:
77,225,82367,5,2,3:2:0:0:
196,318,82536,1,0,3:0:0:0:
225,156,82704,1,10,2:0:0:0:
113,370,82873,1,0,3:0:0:0:
336,180,83041,5,2,3:2:0:0:
453,356,83210,1,0,3:0:0:0:
508,132,83378,1,10,2:0:0:0:
371,316,83547,1,0,3:0:0:0:
371,316,83631,1,0,3:0:0:0:
371,316,83715,6,0,P|286:340|193:370,1,135.000005149842,6|0,3:2|2:0,2:0:0:0:
354,173,84052,1,8,2:0:0:0:
170,79,84221,1,2,2:0:0:0:
429,253,84390,5,2,3:2:0:0:
260,0,84558,1,2,3:2:0:0:
512,104,84727,1,10,2:0:0:0:
214,243,84895,2,0,P|128:264|32:285,1,135.000005149842,6|0,3:2|2:0,2:0:0:0:
201,75,85232,5,0,3:0:0:0:
312,299,85401,1,8,2:0:0:0:
201,75,85569,1,8,2:0:0:0:
201,75,85654,1,8,2:0:0:0:
201,75,85738,5,10,2:0:0:0:
478,212,85906,1,8,2:3:0:0:
238,365,86075,1,6,2:3:0:0:
327,183,86243,1,0,3:0:0:0:
151,329,86412,6,0,P|133:243|120:182,1,135.000005149842,10|0,2:0|2:0,2:0:0:0:
389,111,86749,1,0,3:0:0:0:
299,289,86918,1,8,2:3:0:0:
287,32,87086,5,2,2:0:0:0:
216,249,87255,1,4,3:3:0:0:
389,0,87423,1,2,3:2:0:0:
512,283,87592,1,0,3:0:0:0:
172,65,87760,2,0,L|153:-14,1,67.5000025749208,6|0,3:2|0:0,0:0:0:0:
256,192,89109,12,12,90794,2:0:0:0:
369,230,91131,5,10,2:0:0:0:
144,149,91300,1,10,2:0:0:0:
