osu file format v14

[General]
AudioFilename: audio.ogg
AudioLeadIn: 0
PreviewTime: 60632
Countdown: 0
SampleSet: Soft
StackLeniency: 0.7
Mode: 3
LetterboxInBreaks: 0
SpecialStyle: 0
WidescreenStoryboard: 1

[Editor]
Bookmarks: 28104,38890,49677,61812
DistanceSpacing: 0.5
BeatDivisor: 4
GridSize: 16
TimelineZoom: 1.2

[Metadata]
Title:START!! True dreams (TV Size)
TitleUnicode:START!! True dreams (TV Size)
Artist:Liella!
ArtistUnicode:Liella!
Creator:ML-ysg
Version:Slowpoke104's 7K Easy
Source:ラブライブ!スーパースター!!
Tags:Slowpoke104 japanese pop j-pop jpop anime op opening Love Live! Superstar!! lovelive ラブライブ!スクールアイドルフェスティバル2 MIRACLE LIVE! School idol festival 2 sif2 sif bushiroad video game Shibuya Kanon 澁谷かのん Date Sayuri 伊達 さゆりTáng Kěkě Tang Keke Tan Kuukuu 唐 可可 タン クゥクゥ Liyuu 黎狱 Arashi Chisato 嵐千砂都 Misaki Nako 岬 なこ Heanna Sumire 平安名すみれ Payton Naomi ペイトン 尚未 Hazuki Ren 葉月恋 Aoyama Nagisa 青山 なぎさ Aki Hata 畑亜貴 Yasuhiro Obata 小幡康裕 Yosuke Yamashita 山下洋介 LACM-24140
BeatmapID:4367623
BeatmapSetID:2084908

[Difficulty]
HPDrainRate:6.5
CircleSize:7
OverallDifficulty:6.5
ApproachRate:5
SliderMultiplier:1.4
SliderTickRate:1

[Events]
//Background and Video events
0,0,"START!! True dreams.jpg",0,0
//Break Periods
//Storyboard Layer 0 (Background)
//Storyboard Layer 1 (Fail)
//Storyboard Layer 2 (Pass)
//Storyboard Layer 3 (Foreground)
//Storyboard Layer 4 (Overlay)
//Storyboard Sound Samples
Sample,6868,0,"Tom3.wav",50
Sample,7205,0,"Tom3.wav",50
Sample,7542,0,"Tom3.wav",50
Sample,9564,0,"soft-hitclap.wav",30
Sample,9902,0,"soft-hitclap.wav",40
Sample,10239,0,"soft-hitclap.wav",50
Sample,12261,0,"soft-hitclap.wav",30
Sample,12261,0,"Tom3.wav",50
Sample,12598,0,"soft-hitclap.wav",40
Sample,12598,0,"Tom3.wav",50
Sample,12935,0,"soft-hitclap.wav",50
Sample,12935,0,"Tom3.wav",50
Sample,14284,0,"Tom3.wav",50
Sample,14958,0,"soft-hitclap.wav",30
Sample,14958,0,"Tom3.wav",50
Sample,15295,0,"soft-hitclap.wav",40
Sample,15295,0,"Tom3.wav",50
Sample,15632,0,"soft-hitclap.wav",50
Sample,15632,0,"Tom3.wav",50
Sample,15969,0,"Tom3.wav",50
Sample,16306,0,"Tom3.wav",50
Sample,16643,0,"Tom3.wav",50
Sample,19677,0,"Hat Open.wav",40
Sample,20351,0,"Hat Open.wav",40
Sample,20688,0,"Hat Open.wav",40
Sample,21025,0,"Hat Open.wav",40
Sample,21362,0,"Hat Open.wav",40
Sample,21699,0,"Hat Open.wav",40
Sample,22036,0,"Hat Open.wav",40
Sample,22373,0,"Hat Open.wav",40
Sample,22711,0,"Hat Open.wav",40
Sample,23048,0,"Hat Open.wav",40
Sample,23385,0,"Hat Open.wav",40
Sample,23722,0,"Hat Open.wav",40
Sample,24059,0,"Hat Open.wav",40
Sample,24396,0,"Hat Open.wav",40
Sample,25407,0,"Hat Open.wav",40
Sample,26081,0,"Hat Open.wav",40
Sample,26755,0,"Hat Open.wav",40
Sample,27430,0,"Tom3.wav",50
Sample,27598,0,"Tom3.wav",50
Sample,31137,0,"Hat Close.wav",50
Sample,31475,0,"Hat Close.wav",50
Sample,32149,0,"Hat Close.wav",50
Sample,33497,0,"Hat Close.wav",50
Sample,34508,0,"Hat Close.wav",50
Sample,34845,0,"Hat Close.wav",50
Sample,35182,0,"Hat Close.wav",50
Sample,35520,0,"Hat Close.wav",50
Sample,35857,0,"Hat Close.wav",50
Sample,36194,0,"Hat Close.wav",50
Sample,36868,0,"Hat Close.wav",50
Sample,37205,0,"Hat Close.wav",50
Sample,37542,0,"Hat Close.wav",50
Sample,37879,0,"Hat Open.wav",40
Sample,39227,0,"Hat Close.wav",50
Sample,39564,0,"Hat Close.wav",50
Sample,40576,0,"Hat Close.wav",50
Sample,40913,0,"Hat Close.wav",50
Sample,41250,0,"Hat Close.wav",50
Sample,41587,0,"Hat Close.wav",50
Sample,41924,0,"Hat Close.wav",50
Sample,42261,0,"Hat Close.wav",50
Sample,43272,0,"Hat Close.wav",50
Sample,43609,0,"Hat Close.wav",50
Sample,43946,0,"Hat Close.wav",50
Sample,44621,0,"Hat Close.wav",50
Sample,44958,0,"Hat Close.wav",50
Sample,45295,0,"Hat Close.wav",50
Sample,45632,0,"Hat Close.wav",50
Sample,45969,0,"Hat Close.wav",50
Sample,46306,0,"Hat Close.wav",50
Sample,46643,0,"Hat Close.wav",50
Sample,47317,0,"Hat Open.wav",40
Sample,47991,0,"Hat Open.wav",40
Sample,48666,0,"Tom2.wav",50
Sample,49340,0,"Tom3.wav",50
Sample,50351,0,"Hat Close.wav",50
Sample,50688,0,"Hat Close.wav",50
Sample,51699,0,"Hat Close.wav",50
Sample,52373,0,"Hat Close.wav",50
Sample,53048,0,"Hat Close.wav",50
Sample,53385,0,"Hat Close.wav",50
Sample,54396,0,"Tom3.wav",50
Sample,54564,0,"Tom3.wav",50
Sample,55407,0,"Hat Close.wav",50
Sample,55744,0,"Hat Close.wav",50
Sample,56081,0,"Hat Close.wav",50
Sample,56418,0,"Hat Close.wav",50
Sample,57430,0,"Tom3.wav",50
Sample,59789,0,"Tom2.wav",50
Sample,60126,0,"Tom2.wav",50
Sample,62149,0,"Hat Open.wav",40
Sample,62486,0,"Hat Open.wav",40
Sample,62823,0,"Hat Open.wav",40
Sample,63160,0,"Hat Open.wav",40
Sample,63497,0,"Hat Open.wav",40
Sample,63834,0,"Hat Open.wav",40
Sample,64171,0,"Hat Open.wav",40
Sample,64508,0,"Hat Open.wav",40
Sample,64845,0,"Hat Open.wav",40
Sample,65182,0,"Hat Open.wav",40
Sample,65520,0,"Hat Open.wav",40
Sample,65857,0,"Hat Open.wav",40
Sample,66194,0,"Hat Open.wav",40
Sample,66531,0,"Hat Open.wav",40
Sample,66868,0,"Hat Open.wav",40
Sample,67542,0,"Hat Open.wav",40
Sample,67879,0,"Hat Open.wav",40
Sample,68216,0,"Hat Open.wav",40
Sample,68553,0,"Hat Open.wav",40
Sample,68890,0,"Hat Open.wav",40
Sample,69227,0,"Hat Open.wav",40
Sample,69564,0,"Hat Open.wav",40
Sample,70239,0,"Hat Open.wav",40
Sample,70576,0,"Hat Open.wav",40
Sample,70913,0,"Hat Open.wav",40
Sample,71587,0,"Hat Open.wav",40
Sample,71924,0,"Tom2.wav",50
Sample,72935,0,"Hat Open.wav",40
Sample,73272,0,"Hat Open.wav",40
Sample,73609,0,"Hat Open.wav",40
Sample,73946,0,"Hat Open.wav",40
Sample,74284,0,"Hat Open.wav",40
Sample,74621,0,"Hat Open.wav",40
Sample,74958,0,"Hat Open.wav",40
Sample,75800,0,"Hat Open.wav",40
Sample,76137,0,"Hat Open.wav",40
Sample,76980,0,"Hat Open.wav",40
Sample,78329,0,"Hat Open.wav",40
Sample,78666,0,"Hat Open.wav",40
Sample,79003,0,"Hat Open.wav",40
Sample,79340,0,"Hat Open.wav",40
Sample,79677,0,"Hat Open.wav",40
Sample,80014,0,"Hat Open.wav",40
Sample,80351,0,"Hat Open.wav",40
Sample,81025,0,"Hat Open.wav",40
Sample,81362,0,"Hat Open.wav",40
Sample,81699,0,"Hat Open.wav",40
Sample,82373,0,"Hat Open.wav",40
Sample,88104,0,"Tom3.wav",50
Sample,88272,0,"Tom3.wav",50

[TimingPoints]
1138,337.078651685393,4,2,1,60,1,0
61812,-100.0,4,2,1,60,0,1
84733,-100.0,4,2,1,60,0,0

[HitObjects]
256,192,126,1,0,0:0:0:0:
109,192,463,1,0,0:0:0:0:
402,192,800,1,0,0:0:0:0:
36,192,1138,128,2,2486:0:0:0:0:
182,192,1138,1,4,0:0:0:0:
402,192,2486,128,0,3160:0:0:0:0:
256,192,3160,128,0,3834:0:0:0:0:
109,192,3834,128,0,4340:0:0:0:0:
475,192,4340,128,0,4845:0:0:0:0:
329,192,4845,1,2,0:0:0:0:
36,192,5014,1,4,0:0:0:0:
182,192,5014,1,8,0:0:0:0:
402,192,5351,1,2,0:0:0:0:
182,192,5520,1,8,0:0:0:0:
329,192,5520,1,4,0:0:0:0:
109,192,5857,1,0,0:0:0:50:Tom1.wav
256,192,6194,1,0,0:0:0:50:Tom3.wav
36,192,6531,1,12,0:0:0:0:
475,192,6531,1,2,0:0:0:0:
329,192,6868,1,8,0:0:0:0:
109,192,7205,128,8,7542:0:0:0:0:
256,192,7542,128,8,7879:0:0:0:0:
329,192,7879,1,2,0:0:0:0:
475,192,7879,1,0,0:0:0:40:Hat Open.wav
256,192,8553,128,0,8890:0:0:0:50:Tom1.wav
402,192,8890,128,8,9227:0:0:0:0:
36,192,9227,1,4,0:0:0:0:
182,192,9227,1,2,0:0:0:0:
329,192,9564,1,2,0:0:0:0:
109,192,9902,1,2,0:0:0:0:
329,192,10239,1,2,0:0:0:0:
36,192,10576,1,10,0:0:0:0:
256,192,10744,1,4,0:0:0:0:
475,192,10744,1,8,0:0:0:0:
182,192,11081,1,0,0:0:0:50:Tom1.wav
329,192,11418,1,0,0:0:0:50:Tom2.wav
475,192,11755,1,0,0:0:0:50:Tom3.wav
36,192,11924,1,4,0:0:0:0:
256,192,11924,1,2,0:0:0:0:
402,192,12261,1,2,0:0:0:0:
109,192,12598,1,2,0:0:0:0:
256,192,12935,1,2,0:0:0:0:
329,192,13272,1,12,0:0:0:0:
475,192,13272,128,2,13609:0:0:0:0:
36,192,13778,128,8,14115:0:0:0:0:
182,192,13778,1,4,0:0:0:0:
109,192,14284,1,10,0:0:0:0:
256,192,14452,1,8,0:0:0:0:
402,192,14621,1,4,0:0:0:0:
475,192,14621,128,2,14958:0:0:0:0:
182,192,14958,128,2,15295:0:0:0:0:
256,192,15295,128,2,15632:0:0:0:0:
329,192,15632,128,2,15969:0:0:0:0:
36,192,15969,128,10,16306:0:0:0:0:
329,192,16306,128,10,16643:0:0:0:0:
256,192,16643,128,10,16980:0:0:0:0:
182,192,16980,128,8,17317:0:0:0:0:
475,192,17317,1,2,0:0:0:0:
36,192,17486,1,8,0:0:0:0:
329,192,17486,1,4,0:0:0:0:
182,192,17823,1,0,0:0:0:50:Tom2.wav
109,192,17991,1,0,0:0:0:50:Tom2.wav
329,192,18160,1,2,0:0:0:0:
402,192,18329,1,0,0:0:0:50:Tom3.wav
36,192,18497,1,2,0:0:0:0:
475,192,18497,1,0,0:0:0:40:Hat Open.wav
182,192,18834,128,0,19340:0:0:0:0:
329,192,19340,128,0,19677:0:0:0:0:
475,192,19677,128,8,20014:0:0:0:0:
36,192,20014,1,4,0:0:0:0:
256,192,20014,1,2,0:0:0:0:
329,192,20351,1,8,0:0:0:0:
182,192,20688,1,2,0:0:0:0:
475,192,21025,1,8,0:0:0:0:
329,192,21362,1,2,0:0:0:0:
109,192,21699,1,8,0:0:0:0:
402,192,22036,1,2,0:0:0:0:
256,192,22373,1,8,0:0:0:0:
36,192,22711,1,2,0:0:0:0:
329,192,23048,1,8,0:0:0:0:
182,192,23385,1,2,0:0:0:0:
475,192,23722,1,8,0:0:0:0:
329,192,24059,128,2,24396:0:0:0:0:
182,192,24396,128,8,24733:0:0:0:0:
402,192,24733,128,10,25070:0:0:0:0:
109,192,25070,128,2,25407:0:0:0:0:
329,192,25407,1,2,0:0:0:0:
36,192,25744,1,8,0:0:0:0:
182,192,25744,128,4,26081:0:0:0:0:
402,192,26081,1,2,0:0:0:0:
109,192,26418,1,4,0:0:0:0:
256,192,26418,128,8,26755:0:0:0:0:
475,192,26755,1,2,0:0:0:0:
182,192,27093,1,8,0:0:0:0:
329,192,27093,128,4,27430:0:0:0:0:
109,192,27430,1,8,0:0:0:0:
402,192,27598,1,8,0:0:0:0:
256,192,28104,1,4,0:0:0:0:
475,192,28104,1,2,0:0:0:0:
36,192,28441,1,2,0:0:0:0:
329,192,28778,1,2,0:0:0:0:
109,192,29115,1,2,0:0:0:0:
402,192,29452,1,2,0:0:0:0:
182,192,29789,1,2,0:0:0:0:
475,192,30126,1,2,0:0:0:0:
256,192,30463,1,2,0:0:0:0:
36,192,30800,1,2,0:0:0:0:
329,192,31137,1,2,0:0:0:0:
109,192,31475,1,2,0:0:0:0:
402,192,31812,1,2,0:0:0:0:
182,192,32149,1,2,0:0:0:0:
475,192,32486,1,2,0:0:0:0:
182,192,32823,128,2,33160:0:0:0:0:
329,192,33160,128,2,33497:0:0:0:0:
36,192,33497,128,2,33834:0:0:0:0:
475,192,33834,1,2,0:0:0:0:
329,192,34171,1,2,0:0:0:0:
36,192,34508,1,2,0:0:0:0:
182,192,34845,1,2,0:0:0:0:
402,192,35182,1,2,0:0:0:0:
109,192,35520,1,2,0:0:0:0:
329,192,35857,1,2,0:0:0:0:
36,192,36194,128,2,36531:0:0:0:0:
182,192,36531,128,2,36868:0:0:0:0:
475,192,36868,128,2,37205:0:0:0:0:
329,192,37205,128,2,37542:0:0:0:0:
256,192,37542,128,2,38216:0:0:0:0:
36,192,37879,128,2,38216:0:0:0:0:
475,192,38216,1,8,0:0:0:0:
329,192,38553,1,0,0:0:0:50:Tom3.wav
36,192,38890,1,4,0:0:0:0:
182,192,38890,1,2,0:0:0:0:
475,192,39227,1,8,0:0:0:0:
109,192,39564,1,2,0:0:0:0:
256,192,39733,1,2,0:0:0:0:
402,192,40070,1,8,0:0:0:0:
36,192,40407,1,2,0:0:0:0:
182,192,40576,1,8,0:0:0:0:
475,192,40913,1,2,0:0:0:0:
402,192,41081,1,2,0:0:0:0:
329,192,41250,1,8,0:0:0:0:
109,192,41587,1,2,0:0:0:0:
475,192,41924,1,8,0:0:0:0:
182,192,42261,1,2,0:0:0:0:
329,192,42430,1,2,0:0:0:0:
109,192,42767,1,8,0:0:0:0:
402,192,43104,1,2,0:0:0:0:
256,192,43272,1,8,0:0:0:0:
36,192,43609,1,2,0:0:0:0:
109,192,43778,1,2,0:0:0:0:
182,192,43946,1,8,0:0:0:0:
256,192,44284,1,2,0:0:0:0:
475,192,44284,1,4,0:0:0:0:
329,192,44621,1,8,0:0:0:0:
109,192,44958,1,2,0:0:0:0:
402,192,45295,1,8,0:0:0:0:
182,192,45632,1,2,0:0:0:0:
475,192,45969,1,8,0:0:0:0:
256,192,46306,1,2,0:0:0:0:
36,192,46643,1,8,0:0:0:0:
402,192,46980,1,2,0:0:0:0:
475,192,46980,128,4,47317:0:0:0:0:
182,192,47317,1,8,0:0:0:0:
109,192,47486,128,6,47823:0:0:0:0:
329,192,47823,1,2,0:0:0:0:
402,192,47991,128,8,48329:0:0:0:0:
36,192,48329,128,4,48666:0:0:0:0:
109,192,48329,1,2,0:0:0:0:
475,192,48666,1,0,0:0:0:50:Tom1.wav
182,192,49003,1,0,0:0:0:50:Hat Close.wav
256,192,49340,1,0,0:0:0:50:Hat Close.wav
329,192,49677,1,2,0:0:0:0:
475,192,49677,1,4,0:0:0:0:
329,192,50351,1,8,0:0:0:0:
36,192,50688,1,2,0:0:0:0:
256,192,50857,1,2,0:0:0:0:
109,192,51362,1,0,0:0:0:50:Hat Close.wav
329,192,51699,1,8,0:0:0:0:
256,192,52036,1,0,0:0:0:50:Hat Close.wav
182,192,52373,1,2,0:0:0:0:
329,192,52711,1,0,0:0:0:50:Hat Close.wav
36,192,53048,1,8,0:0:0:0:
475,192,53385,1,2,0:0:0:0:
256,192,53553,1,2,0:0:0:0:
402,192,54059,1,0,0:0:0:50:Hat Close.wav
182,192,54396,1,8,0:0:0:0:
256,192,54564,1,8,0:0:0:0:
329,192,54733,1,0,0:0:0:0:
36,192,55070,1,4,0:0:0:0:
475,192,55070,1,2,0:0:0:0:
256,192,55407,1,2,0:0:0:0:
109,192,55744,1,2,0:0:0:0:
402,192,56081,1,10,0:0:0:0:
36,192,56418,1,2,0:0:0:0:
182,192,56755,1,2,0:0:0:0:
475,192,57093,1,2,0:0:0:0:
329,192,57430,1,2,0:0:0:0:
109,192,57767,1,8,0:0:0:0:
402,192,57767,1,4,0:0:0:0:
256,192,58104,1,2,0:0:0:0:
182,192,58272,1,8,0:0:0:0:
329,192,58272,1,4,0:0:0:0:
256,192,58609,1,2,0:0:0:0:
109,192,58778,1,4,0:0:0:0:
402,192,58778,1,8,0:0:0:0:
256,192,59115,1,2,0:0:0:0:
36,192,59284,1,8,0:0:0:0:
475,192,59284,1,4,0:0:0:0:
329,192,59621,1,2,0:0:0:0:
109,192,59789,1,8,0:0:0:0:
256,192,60126,1,8,0:0:0:0:
402,192,60295,1,2,0:0:0:0:
36,192,60463,1,4,0:0:0:0:
182,192,60463,1,2,0:0:0:0:
256,192,60800,128,0,61137:0:0:0:0:
109,192,61137,128,0,61475:0:0:0:50:Tom2.wav
402,192,61475,128,8,61812:0:0:0:0:
36,192,61812,128,4,62149:0:0:0:0:
256,192,61812,1,2,0:0:0:0:
329,192,62149,1,8,0:0:0:0:
475,192,62486,128,2,62823:0:0:0:0:
36,192,62823,1,8,0:0:0:0:
329,192,63160,128,2,63497:0:0:0:0:
182,192,63497,128,8,63834:0:0:0:0:
256,192,63834,128,2,64171:0:0:0:0:
109,192,64171,128,8,64508:0:0:0:0:
475,192,64508,128,2,64845:0:0:0:0:
329,192,64845,128,8,65182:0:0:0:0:
182,192,65182,128,2,65520:0:0:0:0:
36,192,65520,128,8,65857:0:0:0:0:
475,192,65857,1,2,0:0:0:0:
109,192,66194,128,8,66531:0:0:0:0:
256,192,66531,128,2,66868:0:0:0:0:
402,192,66868,128,8,67205:0:0:0:0:
109,192,67205,1,2,0:0:0:0:
475,192,67205,128,4,67542:0:0:0:0:
182,192,67542,1,8,0:0:0:0:
36,192,67879,128,2,68216:0:0:0:0:
475,192,68216,1,8,0:0:0:0:
182,192,68553,128,2,68890:0:0:0:0:
329,192,68890,128,8,69227:0:0:0:0:
256,192,69227,128,2,69564:0:0:0:0:
402,192,69564,128,8,69902:0:0:0:0:
36,192,69902,128,8,70239:0:0:0:0:
182,192,69902,1,4,0:0:0:0:
475,192,70239,1,8,0:0:0:0:
256,192,70407,1,2,0:0:0:0:
109,192,70576,128,8,70913:0:0:0:0:
182,192,70913,1,8,0:0:0:0:
329,192,71081,1,2,0:0:0:0:
475,192,71081,128,4,71587:0:0:0:0:
36,192,71587,128,8,71924:0:0:0:0:
182,192,71924,128,2,72261:0:0:0:0:
329,192,72261,128,10,72598:0:0:0:0:
36,192,72598,1,4,0:0:0:0:
475,192,72598,128,2,72935:0:0:0:0:
256,192,72935,1,8,0:0:0:0:
109,192,73272,128,2,73609:0:0:0:0:
402,192,73609,1,8,0:0:0:0:
329,192,73946,128,2,74284:0:0:0:0:
182,192,74284,128,8,74621:0:0:0:0:
256,192,74621,128,2,74958:0:0:0:0:
109,192,74958,128,8,75295:0:0:0:0:
329,192,75295,1,2,0:0:0:0:
475,192,75295,128,4,75632:0:0:0:0:
256,192,75632,1,8,0:0:0:0:
109,192,75800,1,2,0:0:0:0:
402,192,76137,1,2,0:0:0:0:
36,192,76475,128,2,76812:0:0:0:0:
329,192,76475,1,4,0:0:0:0:
182,192,76812,1,2,0:0:0:0:
475,192,76980,1,8,0:0:0:0:
109,192,77317,1,10,0:0:0:0:
402,192,77654,1,0,0:0:0:50:Tom3.wav
329,192,77823,1,2,0:0:0:0:
109,192,77991,128,2,78329:0:0:0:0:
256,192,77991,1,4,0:0:0:0:
475,192,78329,1,8,0:0:0:0:
36,192,78666,128,2,79003:0:0:0:0:
182,192,79003,128,8,79340:0:0:0:0:
329,192,79340,128,2,79677:0:0:0:0:
402,192,79677,128,8,80014:0:0:0:0:
256,192,80014,128,2,80351:0:0:0:0:
329,192,80351,128,8,80688:0:0:0:0:
36,192,80688,128,2,81025:0:0:0:0:
182,192,80688,1,4,0:0:0:0:
475,192,81025,1,8,0:0:0:0:
109,192,81362,1,2,0:0:0:0:
256,192,81699,1,8,0:0:0:0:
329,192,81868,1,4,0:0:0:0:
475,192,81868,128,2,82373:0:0:0:0:
36,192,82373,1,8,0:0:0:0:
329,192,82711,1,10,0:0:0:0:
182,192,83048,1,0,0:0:0:50:Tom3.wav
402,192,83385,1,8,0:0:0:0:
182,192,83553,1,2,0:0:0:0:
329,192,83890,1,0,0:0:0:50:Tom1.wav
109,192,84059,1,2,0:0:0:0:
36,192,84396,1,0,0:0:0:50:Tom3.wav
182,192,84564,1,2,0:0:0:0:
329,192,84733,1,4,0:0:0:0:
475,192,84733,1,2,0:0:0:0:
109,192,86081,1,4,0:0:0:0:
402,192,86081,1,2,0:0:0:0:
256,192,86587,1,0,0:0:0:50:Tom2.wav
256,192,87093,1,0,0:0:0:50:Tom3.wav
402,192,87430,1,0,0:0:0:50:Tom3.wav
109,192,87767,1,8,0:0:0:0:
329,192,87767,1,4,0:0:0:0:
182,192,88104,1,8,0:0:0:0:
475,192,88272,1,10,0:0:0:0:
