osu file format v14

[General]
AudioFilename: audio.ogg
AudioLeadIn: 0
PreviewTime: 60632
Countdown: 0
SampleSet: Soft
StackLeniency: 0.7
Mode: 3
LetterboxInBreaks: 0
SpecialStyle: 0
WidescreenStoryboard: 1

[Editor]
Bookmarks: 28104,38890,49677,61812
DistanceSpacing: 0.5
BeatDivisor: 4
GridSize: 16
TimelineZoom: 1.5

[Metadata]
Title:START!! True dreams (TV Size)
TitleUnicode:START!! True dreams (TV Size)
Artist:Liella!
ArtistUnicode:Liella!
Creator:ML-ysg
Version:4K True dreams
Source:ラブライブ!スーパースター!!
Tags:Slowpoke104 japanese pop j-pop jpop anime op opening Love Live! Superstar!! lovelive ラブライブ!スクールアイドルフェスティバル2 MIRACLE LIVE! School idol festival 2 sif2 sif bushiroad video game Shibuya Kanon 澁谷かのん Date Sayuri 伊達 さゆりTáng Kěkě Tang Keke Tan Kuukuu 唐 可可 タン クゥクゥ Liyuu 黎狱 Arashi Chisato 嵐千砂都 Misaki Nako 岬 なこ Heanna Sumire 平安名すみれ Payton Naomi ペイトン 尚未 Hazuki Ren 葉月恋 Aoyama Nagisa 青山 なぎさ Aki Hata 畑亜貴 Yasuhiro Obata 小幡康裕 Yosuke Yamashita 山下洋介 LACM-24140
BeatmapID:4367282
BeatmapSetID:2084908

[Difficulty]
HPDrainRate:8
CircleSize:4
OverallDifficulty:8
ApproachRate:5
SliderMultiplier:1.4
SliderTickRate:1

[Events]
//Background and Video events
0,0,"START!! True dreams.jpg",0,0
//Break Periods
//Storyboard Layer 0 (Background)
//Storyboard Layer 1 (Fail)
//Storyboard Layer 2 (Pass)
//Storyboard Layer 3 (Foreground)
//Storyboard Layer 4 (Overlay)
//Storyboard Sound Samples
Sample,12261,0,"Tom3.wav",50
Sample,12430,0,"Tom3.wav",50
Sample,13946,0,"Tom3.wav",50

[TimingPoints]
1138,337.078651685393,4,2,1,60,1,0
61812,-100,4,2,1,60,0,1
84733,-100,4,2,1,60,0,0

[HitObjects]
64,192,126,128,0,463:0:0:0:0:
320,192,463,128,0,800:0:0:0:0:
64,192,800,128,0,1138:0:0:0:0:
192,192,1138,128,2,1475:0:0:0:0:
320,192,1138,1,4,0:0:0:0:
448,192,1138,128,0,2486:0:0:0:0:
320,192,1643,128,0,2149:0:0:0:0:
64,192,2149,128,0,2486:0:0:0:0:
192,192,2486,128,0,3160:0:0:0:0:
320,192,2486,128,0,2823:0:0:0:0:
448,192,2991,128,0,3497:0:0:0:0:
64,192,3160,1,0,0:0:0:0:
320,192,3160,128,0,3834:0:0:0:0:
192,192,3497,128,0,3834:0:0:0:0:
64,192,3834,128,0,4340:0:0:0:0:
448,192,3834,1,0,0:0:0:0:
192,192,4340,128,0,4845:0:0:0:0:
320,192,4340,1,0,0:0:0:0:
448,192,4508,1,0,0:0:0:0:
320,192,4845,1,2,0:0:0:0:
448,192,4845,1,0,0:0:0:0:
64,192,5014,128,4,5351:0:0:0:0:
192,192,5014,1,8,0:0:0:0:
448,192,5014,128,0,5351:0:0:0:0:
192,192,5351,1,2,0:0:0:0:
320,192,5351,1,0,0:0:0:0:
64,192,5520,1,8,0:0:0:0:
320,192,5520,1,4,0:0:0:0:
448,192,5520,1,0,0:0:0:0:
64,192,5772,1,0,0:0:0:50:Tom1.wav
192,192,5772,1,0,0:0:0:0:
320,192,5857,1,0,0:0:0:50:Tom1.wav
448,192,5857,1,0,0:0:0:0:
192,192,6025,1,0,0:0:0:50:Tom3.wav
320,192,6025,1,0,0:0:0:0:
64,192,6194,1,0,0:0:0:50:Tom3.wav
192,192,6194,1,0,0:0:0:0:
320,192,6362,1,0,0:0:0:0:
64,192,6531,1,4,0:0:0:0:
192,192,6531,1,8,0:0:0:0:
448,192,6531,128,2,6868:0:0:0:0:
64,192,6868,1,8,0:0:0:0:
192,192,6868,1,0,0:0:0:50:Tom3.wav
320,192,7036,1,8,0:0:0:0:
448,192,7036,1,0,0:0:0:50:Tom3.wav
64,192,7205,1,8,0:0:0:0:
192,192,7205,1,0,0:0:0:50:Tom3.wav
448,192,7205,1,0,0:0:0:0:
64,192,7373,1,8,0:0:0:0:
192,192,7373,1,0,0:0:0:50:Tom3.wav
448,192,7373,1,0,0:0:0:0:
64,192,7542,1,8,0:0:0:0:
320,192,7542,1,0,0:0:0:50:Tom3.wav
448,192,7542,1,0,0:0:0:0:
64,192,7711,1,8,0:0:0:0:
320,192,7711,1,0,0:0:0:50:Tom3.wav
448,192,7711,1,0,0:0:0:0:
64,192,7879,128,2,8048:0:0:0:0:
192,192,7879,128,0,8216:0:0:0:40:Hat Open.wav
320,192,8216,128,0,8553:0:0:0:0:
64,192,8553,1,0,0:0:0:50:Tom1.wav
320,192,8637,1,8,0:0:0:0:
448,192,8637,1,0,0:0:0:0:
64,192,8722,1,8,0:0:0:0:
192,192,8722,1,0,0:0:0:0:
320,192,8806,1,8,0:0:0:0:
448,192,8806,1,0,0:0:0:0:
64,192,8890,1,8,0:0:0:0:
192,192,8890,1,0,0:0:0:0:
448,192,8975,1,0,0:0:0:50:Tom2.wav
320,192,9059,1,0,0:0:0:50:Tom3.wav
192,192,9143,1,0,0:0:0:50:Tom3.wav
64,192,9227,1,4,0:0:0:0:
320,192,9227,128,2,9564:0:0:0:0:
448,192,9227,128,0,9564:0:0:0:0:
64,192,9564,1,2,0:0:0:0:
192,192,9564,1,8,0:0:0:30:soft-hitclap.wav
192,192,9733,1,8,0:0:0:30:soft-hitclap.wav
64,192,9902,1,2,0:0:0:0:
320,192,9902,1,8,0:0:0:40:soft-hitclap.wav
448,192,9902,1,0,0:0:0:0:
320,192,10070,1,8,0:0:0:40:soft-hitclap.wav
448,192,10070,1,0,0:0:0:0:
64,192,10239,1,2,0:0:0:0:
192,192,10239,1,8,0:0:0:50:soft-hitclap.wav
448,192,10239,1,0,0:0:0:0:
64,192,10407,1,8,0:0:0:50:soft-hitclap.wav
192,192,10407,1,0,0:0:0:0:
64,192,10576,1,8,0:0:0:0:
320,192,10576,1,2,0:0:0:0:
448,192,10576,1,0,0:0:0:0:
192,192,10744,1,4,0:0:0:0:
320,192,10744,1,8,0:0:0:0:
448,192,10744,1,0,0:0:0:0:
64,192,10913,1,2,0:0:0:0:
192,192,10913,1,0,0:0:0:0:
64,192,11081,1,0,0:0:0:50:Tom1.wav
448,192,11081,1,0,0:0:0:0:
192,192,11250,1,2,0:0:0:0:
320,192,11250,1,0,0:0:0:0:
192,192,11418,1,0,0:0:0:50:Tom2.wav
448,192,11418,1,0,0:0:0:0:
320,192,11587,1,2,0:0:0:0:
448,192,11587,1,0,0:0:0:0:
64,192,11755,1,0,0:0:0:50:Tom3.wav
192,192,11755,1,0,0:0:0:0:
320,192,11840,1,0,0:0:0:50:Tom3.wav
64,192,11924,128,4,12261:0:0:0:0:
192,192,11924,128,2,12261:0:0:0:0:
448,192,11924,1,0,0:0:0:0:
320,192,12261,1,2,0:0:0:0:
448,192,12261,1,8,0:0:0:30:soft-hitclap.wav
320,192,12430,1,8,0:0:0:30:soft-hitclap.wav
64,192,12598,1,2,0:0:0:0:
192,192,12598,1,8,0:0:0:40:soft-hitclap.wav
448,192,12598,1,0,0:0:0:50:Tom3.wav
64,192,12767,1,8,0:0:0:40:soft-hitclap.wav
192,192,12767,1,0,0:0:0:50:Tom3.wav
64,192,12935,1,2,0:0:0:0:
320,192,12935,1,8,0:0:0:50:soft-hitclap.wav
448,192,12935,1,0,0:0:0:50:Tom3.wav
320,192,13104,1,8,0:0:0:50:soft-hitclap.wav
448,192,13104,1,0,0:0:0:50:Tom3.wav
64,192,13272,1,8,0:0:0:0:
192,192,13272,1,4,0:0:0:0:
448,192,13272,1,2,0:0:0:0:
64,192,13441,1,8,0:0:0:30:soft-hitclap.wav
192,192,13441,1,0,0:0:0:0:
64,192,13609,1,2,0:0:0:0:
320,192,13609,1,8,0:0:0:30:soft-hitclap.wav
448,192,13609,1,0,0:0:0:50:Tom3.wav
192,192,13778,1,8,0:0:0:0:
320,192,13778,1,4,0:0:0:0:
448,192,13778,1,0,0:0:0:0:
64,192,13946,1,2,0:0:0:0:
192,192,13946,1,8,0:0:0:30:soft-hitclap.wav
320,192,14115,1,8,0:0:0:30:soft-hitclap.wav
448,192,14115,1,0,0:0:0:0:
64,192,14284,1,8,0:0:0:0:
320,192,14284,1,2,0:0:0:0:
448,192,14284,1,0,0:0:0:50:Tom3.wav
64,192,14452,1,8,0:0:0:0:
192,192,14452,1,0,0:0:0:0:
320,192,14536,1,8,0:0:0:0:
64,192,14621,128,4,14958:0:0:0:0:
192,192,14621,1,2,0:0:0:0:
448,192,14621,1,0,0:0:0:0:
192,192,14958,1,2,0:0:0:0:
320,192,14958,1,8,0:0:0:30:soft-hitclap.wav
448,192,14958,1,0,0:0:0:50:Tom3.wav
192,192,15126,1,8,0:0:0:30:soft-hitclap.wav
320,192,15126,1,0,0:0:0:50:Tom3.wav
64,192,15295,1,2,0:0:0:0:
192,192,15295,1,8,0:0:0:40:soft-hitclap.wav
448,192,15295,1,0,0:0:0:50:Tom3.wav
64,192,15463,1,8,0:0:0:40:soft-hitclap.wav
448,192,15463,1,0,0:0:0:50:Tom3.wav
192,192,15632,1,2,0:0:0:0:
320,192,15632,1,8,0:0:0:50:soft-hitclap.wav
448,192,15632,1,0,0:0:0:50:Tom3.wav
192,192,15800,1,8,0:0:0:50:soft-hitclap.wav
320,192,15800,1,0,0:0:0:50:Tom3.wav
64,192,15969,1,8,0:0:0:0:
320,192,15969,1,2,0:0:0:0:
448,192,15969,1,0,0:0:0:50:Tom3.wav
64,192,16137,1,8,0:0:0:0:
320,192,16137,1,0,0:0:0:50:Tom3.wav
448,192,16137,1,0,0:0:0:0:
64,192,16306,1,8,0:0:0:0:
192,192,16306,1,2,0:0:0:0:
448,192,16306,1,0,0:0:0:50:Tom3.wav
64,192,16475,1,8,0:0:0:0:
192,192,16475,1,0,0:0:0:50:Tom3.wav
448,192,16475,1,0,0:0:0:0:
192,192,16643,1,8,0:0:0:0:
320,192,16643,1,2,0:0:0:0:
448,192,16643,1,0,0:0:0:50:Tom3.wav
64,192,16812,1,2,0:0:0:0:
320,192,16812,1,0,0:0:0:0:
64,192,16980,1,8,0:0:0:0:
192,192,16980,1,0,0:0:0:0:
448,192,16980,1,0,0:0:0:0:
192,192,17149,1,2,0:0:0:0:
320,192,17149,1,0,0:0:0:0:
320,192,17317,1,2,0:0:0:0:
448,192,17317,1,0,0:0:0:0:
64,192,17486,1,8,0:0:0:0:
192,192,17486,1,4,0:0:0:0:
448,192,17486,1,0,0:0:0:0:
192,192,17654,1,2,0:0:0:0:
320,192,17654,1,0,0:0:0:0:
320,192,17823,1,0,0:0:0:50:Tom2.wav
448,192,17823,1,0,0:0:0:0:
64,192,17991,1,0,0:0:0:50:Tom2.wav
192,192,17991,1,0,0:0:0:0:
64,192,18160,1,2,0:0:0:0:
448,192,18160,1,0,0:0:0:0:
320,192,18329,1,0,0:0:0:50:Tom3.wav
448,192,18329,1,0,0:0:0:0:
64,192,18497,128,2,18666:0:0:0:0:
192,192,18497,128,0,18666:0:0:0:40:Hat Open.wav
320,192,18834,128,0,18918:0:0:0:0:
448,192,18834,128,0,18918:0:0:0:0:
192,192,19003,128,0,19087:0:0:0:0:
320,192,19003,128,0,19087:0:0:0:0:
64,192,19171,128,0,19255:0:0:0:0:
192,192,19171,128,0,19255:0:0:0:0:
320,192,19340,128,0,19424:0:0:0:0:
448,192,19340,128,0,19424:0:0:0:0:
64,192,19508,128,2,19593:0:0:0:0:
192,192,19508,128,0,19593:0:0:0:0:
64,192,19677,128,8,19761:0:0:0:0:
320,192,19677,1,0,0:0:0:40:Hat Open.wav
448,192,19677,128,0,19761:0:0:0:0:
192,192,19845,128,0,19930:0:0:0:0:
320,192,19845,128,0,19930:0:0:0:0:
64,192,20014,128,4,20520:0:0:0:0:
192,192,20014,1,2,0:0:0:0:
448,192,20014,1,0,0:0:0:0:
192,192,20351,1,8,0:0:0:0:
320,192,20351,1,0,0:0:0:40:Hat Open.wav
448,192,20351,1,0,0:0:0:0:
320,192,20520,1,0,0:0:0:0:
64,192,20688,1,2,0:0:0:0:
448,192,20688,128,0,21194:0:0:0:40:Hat Open.wav
192,192,20857,1,2,0:0:0:0:
320,192,20857,1,0,0:0:0:0:
64,192,21025,1,8,0:0:0:0:
320,192,21025,1,0,0:0:0:40:Hat Open.wav
64,192,21194,1,0,0:0:0:0:
192,192,21362,128,2,21868:0:0:0:0:
320,192,21362,1,0,0:0:0:40:Hat Open.wav
64,192,21531,1,2,0:0:0:0:
448,192,21531,1,0,0:0:0:0:
320,192,21699,1,8,0:0:0:0:
448,192,21699,1,0,0:0:0:40:Hat Open.wav
320,192,21868,1,0,0:0:0:0:
64,192,22036,1,2,0:0:0:0:
448,192,22036,128,0,22542:0:0:0:40:Hat Open.wav
192,192,22205,1,2,0:0:0:0:
320,192,22205,1,0,0:0:0:0:
64,192,22373,1,8,0:0:0:0:
320,192,22373,1,0,0:0:0:40:Hat Open.wav
64,192,22542,1,2,0:0:0:0:
192,192,22542,1,0,0:0:0:0:
192,192,22711,128,2,23216:0:0:0:0:
320,192,22711,1,0,0:0:0:40:Hat Open.wav
64,192,23048,1,8,0:0:0:0:
320,192,23048,1,0,0:0:0:40:Hat Open.wav
448,192,23048,1,0,0:0:0:0:
448,192,23216,1,0,0:0:0:0:
192,192,23385,1,2,0:0:0:0:
320,192,23385,128,0,24059:0:0:0:40:Hat Open.wav
64,192,23553,1,2,0:0:0:0:
448,192,23553,1,0,0:0:0:0:
64,192,23722,1,8,0:0:0:0:
192,192,23722,1,0,0:0:0:40:Hat Open.wav
192,192,23890,1,0,0:0:0:0:
64,192,24059,128,2,24396:0:0:0:0:
448,192,24059,1,0,0:0:0:40:Hat Open.wav
192,192,24227,1,2,0:0:0:0:
320,192,24227,1,0,0:0:0:0:
320,192,24396,1,8,0:0:0:0:
448,192,24396,1,0,0:0:0:40:Hat Open.wav
192,192,24480,1,8,0:0:0:20:soft-hitclap.wav
64,192,24564,1,8,0:0:0:30:soft-hitclap.wav
448,192,24564,1,0,0:0:0:0:
320,192,24649,1,8,0:0:0:45:soft-hitclap.wav
64,192,24733,1,8,0:0:0:0:
192,192,24733,1,2,0:0:0:0:
448,192,24733,1,0,0:0:0:0:
320,192,24902,1,0,0:0:0:50:Tom1.wav
192,192,24986,1,0,0:0:0:50:Tom1.wav
64,192,25070,1,2,0:0:0:0:
448,192,25070,1,0,0:0:0:0:
192,192,25239,1,0,0:0:0:50:Tom3.wav
320,192,25323,1,0,0:0:0:50:Tom3.wav
64,192,25407,1,2,0:0:0:0:
192,192,25407,1,0,0:0:0:40:Hat Open.wav
320,192,25576,1,2,0:0:0:0:
448,192,25576,1,0,0:0:0:0:
64,192,25744,128,8,26081:0:0:0:0:
192,192,25744,128,4,26081:0:0:0:0:
448,192,25744,1,0,0:0:0:0:
320,192,26081,1,2,0:0:0:0:
448,192,26081,1,0,0:0:0:40:Hat Open.wav
64,192,26250,1,2,0:0:0:0:
192,192,26250,1,0,0:0:0:0:
64,192,26418,1,4,0:0:0:0:
320,192,26418,128,8,26755:0:0:0:0:
448,192,26418,128,0,26755:0:0:0:0:
64,192,26755,1,2,0:0:0:0:
192,192,26755,1,0,0:0:0:40:Hat Open.wav
192,192,26924,1,2,0:0:0:0:
320,192,26924,1,0,0:0:0:0:
64,192,27093,1,8,0:0:0:0:
320,192,27093,1,4,0:0:0:0:
448,192,27093,1,0,0:0:0:0:
64,192,27261,1,2,0:0:0:0:
192,192,27261,1,0,0:0:0:0:
320,192,27345,1,2,0:0:0:0:
64,192,27430,1,8,0:0:0:0:
192,192,27430,1,0,0:0:0:50:Tom3.wav
448,192,27430,1,0,0:0:0:0:
64,192,27598,1,8,0:0:0:0:
192,192,27598,1,0,0:0:0:50:Tom3.wav
448,192,27598,1,0,0:0:0:0:
320,192,27935,1,0,0:0:0:0:
64,192,28104,128,4,29452:0:0:0:0:
192,192,28104,128,2,28441:0:0:0:0:
448,192,28104,1,0,0:0:0:0:
320,192,28441,1,2,0:0:0:0:
448,192,28441,1,0,0:0:0:0:
320,192,28609,1,0,0:0:0:0:
192,192,28778,1,2,0:0:0:0:
448,192,28778,128,0,29115:0:0:0:0:
192,192,29115,1,2,0:0:0:0:
320,192,29115,1,0,0:0:0:0:
192,192,29284,128,0,29621:0:0:0:0:
320,192,29452,128,2,30126:0:0:0:0:
448,192,29452,1,0,0:0:0:0:
64,192,29789,1,2,0:0:0:0:
448,192,29789,1,0,0:0:0:0:
192,192,29958,128,0,30295:0:0:0:0:
64,192,30126,1,2,0:0:0:0:
448,192,30126,128,0,30800:0:0:0:0:
320,192,30295,1,0,0:0:0:0:
64,192,30463,1,2,0:0:0:0:
192,192,30463,1,0,0:0:0:0:
320,192,30632,1,0,0:0:0:50:Hat Close.wav
64,192,30800,128,2,31306:0:0:0:0:
192,192,30800,128,0,31137:0:0:0:0:
320,192,31137,1,2,0:0:0:0:
448,192,31137,1,0,0:0:0:50:Hat Close.wav
192,192,31306,128,0,31643:0:0:0:0:
320,192,31306,128,0,31812:0:0:0:0:
64,192,31475,1,2,0:0:0:0:
448,192,31475,1,0,0:0:0:50:Hat Close.wav
64,192,31812,1,2,0:0:0:0:
448,192,31812,128,0,32149:0:0:0:0:
320,192,31980,128,0,32317:0:0:0:0:
64,192,32149,128,2,32486:0:0:0:0:
192,192,32149,1,0,0:0:0:50:Hat Close.wav
320,192,32486,1,2,0:0:0:0:
448,192,32486,1,0,0:0:0:0:
64,192,32654,128,0,32823:0:0:0:50:Hat Close.wav
192,192,32823,1,2,0:0:0:0:
448,192,32823,128,0,32991:0:0:0:0:
320,192,32991,128,0,33160:0:0:0:50:Hat Close.wav
64,192,33160,1,2,0:0:0:0:
192,192,33160,128,0,33329:0:0:0:0:
320,192,33329,128,0,33497:0:0:0:50:Hat Close.wav
192,192,33413,1,0,0:0:0:50:Hat Close.wav
64,192,33497,1,2,0:0:0:0:
448,192,33497,128,0,34003:0:0:0:50:Hat Close.wav
64,192,33834,128,2,34171:0:0:0:0:
192,192,33834,1,0,0:0:0:0:
320,192,34003,1,0,0:0:0:0:
192,192,34171,1,2,0:0:0:0:
320,192,34171,128,0,34508:0:0:0:0:
64,192,34508,1,2,0:0:0:0:
448,192,34508,1,0,0:0:0:50:Hat Close.wav
192,192,34677,1,0,0:0:0:0:
192,192,34845,128,2,35351:0:0:0:0:
320,192,34845,1,0,0:0:0:50:Hat Close.wav
64,192,35182,1,2,0:0:0:0:
320,192,35182,128,0,35520:0:0:0:50:Hat Close.wav
448,192,35351,1,0,0:0:0:0:
64,192,35520,128,2,35857:0:0:0:0:
448,192,35520,1,0,0:0:0:50:Hat Close.wav
192,192,35857,1,2,0:0:0:0:
320,192,35857,1,0,0:0:0:50:Hat Close.wav
448,192,36025,1,0,0:0:0:50:Hat Close.wav
320,192,36109,1,0,0:0:0:50:Hat Close.wav
64,192,36194,1,2,0:0:0:0:
192,192,36194,128,0,36531:0:0:0:50:Hat Close.wav
448,192,36362,1,0,0:0:0:0:
320,192,36531,128,2,36868:0:0:0:0:
448,192,36531,1,0,0:0:0:0:
64,192,36699,1,0,0:0:0:0:
64,192,36868,128,2,37205:0:0:0:0:
192,192,36868,1,0,0:0:0:50:Hat Close.wav
320,192,37036,1,0,0:0:0:0:
448,192,37205,1,2,0:0:0:0:
320,192,37205,128,0,37542:0:0:0:50:Hat Close.wav
192,192,37373,1,0,0:0:0:0:
192,192,37542,1,2,0:0:0:0:
448,192,37542,128,0,37879:0:0:0:50:Hat Close.wav
64,192,37879,1,2,0:0:0:0:
320,192,37879,1,0,0:0:0:40:Hat Open.wav
192,192,38048,1,0,0:0:0:0:
64,192,38216,1,8,0:0:0:0:
320,192,38216,1,0,0:0:0:0:
448,192,38216,1,0,0:0:0:0:
192,192,38385,1,0,0:0:0:50:Tom2.wav
64,192,38385,1,0,0:0:0:0:
448,192,38553,1,0,0:0:0:50:Tom3.wav
320,192,38553,1,0,0:0:0:0:
192,192,38722,1,0,0:0:0:0:
64,192,38890,1,4,0:0:0:0:
320,192,38890,1,2,0:0:0:0:
448,192,38890,128,0,39227:0:0:0:0:
64,192,39227,1,8,0:0:0:0:
192,192,39227,1,0,0:0:0:50:Hat Close.wav
320,192,39227,1,0,0:0:0:0:
64,192,39396,128,0,39733:0:0:0:0:
192,192,39564,1,2,0:0:0:0:
448,192,39564,1,0,0:0:0:50:Hat Close.wav
320,192,39733,1,2,0:0:0:0:
448,192,39733,1,0,0:0:0:0:
192,192,39902,1,0,0:0:0:50:Hat Close.wav
64,192,40070,1,8,0:0:0:0:
320,192,40070,128,0,40407:0:0:0:0:
448,192,40070,1,0,0:0:0:0:
192,192,40239,1,0,0:0:0:50:Hat Close.wav
64,192,40407,1,2,0:0:0:0:
448,192,40407,1,0,0:0:0:0:
64,192,40576,1,8,0:0:0:0:
192,192,40576,1,0,0:0:0:50:Hat Close.wav
320,192,40576,1,0,0:0:0:0:
448,192,40744,1,8,0:0:0:25:soft-hitclap.wav
320,192,40829,1,8,0:0:0:25:soft-hitclap.wav
64,192,40913,1,2,0:0:0:0:
192,192,40913,1,0,0:0:0:50:Hat Close.wav
192,192,41081,1,2,0:0:0:0:
320,192,41081,1,0,0:0:0:0:
64,192,41250,1,8,0:0:0:0:
320,192,41250,1,0,0:0:0:50:Hat Close.wav
448,192,41250,1,0,0:0:0:0:
192,192,41418,1,0,0:0:0:0:
64,192,41587,1,2,0:0:0:0:
448,192,41587,128,0,41924:0:0:0:50:Hat Close.wav
64,192,41924,1,8,0:0:0:0:
192,192,41924,1,0,0:0:0:50:Hat Close.wav
320,192,41924,1,0,0:0:0:0:
192,192,42093,128,0,42430:0:0:0:0:
320,192,42261,1,2,0:0:0:0:
448,192,42261,1,0,0:0:0:50:Hat Close.wav
64,192,42430,1,2,0:0:0:0:
448,192,42430,1,0,0:0:0:0:
320,192,42598,1,0,0:0:0:50:Hat Close.wav
64,192,42767,128,8,43104:0:0:0:0:
192,192,42767,1,0,0:0:0:0:
448,192,42767,1,0,0:0:0:0:
320,192,42935,1,0,0:0:0:50:Hat Close.wav
192,192,43104,1,2,0:0:0:0:
448,192,43104,1,0,0:0:0:0:
64,192,43272,1,8,0:0:0:0:
320,192,43272,1,0,0:0:0:50:Hat Close.wav
448,192,43272,1,0,0:0:0:0:
192,192,43441,1,0,0:0:0:0:
320,192,43525,1,0,0:0:0:0:
64,192,43609,1,2,0:0:0:0:
448,192,43609,128,0,43946:0:0:0:50:Hat Close.wav
192,192,43778,1,2,0:0:0:0:
320,192,43778,1,0,0:0:0:0:
64,192,43946,1,8,0:0:0:0:
192,192,43946,128,0,44284:0:0:0:50:Hat Close.wav
320,192,43946,1,0,0:0:0:0:
64,192,44284,1,2,0:0:0:0:
320,192,44284,128,4,44621:0:0:0:0:
448,192,44284,1,0,0:0:0:0:
64,192,44621,1,8,0:0:0:0:
192,192,44621,1,0,0:0:0:50:Hat Close.wav
448,192,44621,1,0,0:0:0:0:
192,192,44958,128,2,45295:0:0:0:0:
320,192,44958,1,0,0:0:0:50:Hat Close.wav
64,192,45126,1,2,0:0:0:0:
448,192,45126,1,0,0:0:0:0:
64,192,45295,1,8,0:0:0:0:
320,192,45295,1,0,0:0:0:50:Hat Close.wav
448,192,45295,1,0,0:0:0:0:
192,192,45463,1,0,0:0:0:0:
320,192,45632,128,2,45969:0:0:0:0:
448,192,45632,1,0,0:0:0:50:Hat Close.wav
64,192,45800,1,2,0:0:0:0:
192,192,45800,1,0,0:0:0:0:
64,192,45969,1,8,0:0:0:0:
192,192,45969,128,0,46306:0:0:0:50:Hat Close.wav
448,192,45969,1,0,0:0:0:0:
64,192,46306,1,2,0:0:0:0:
320,192,46306,1,0,0:0:0:50:Hat Close.wav
192,192,46475,1,2,0:0:0:0:
320,192,46475,1,0,0:0:0:0:
64,192,46643,1,8,0:0:0:0:
192,192,46643,1,0,0:0:0:50:Hat Close.wav
448,192,46643,1,0,0:0:0:0:
320,192,46812,1,0,0:0:0:0:
64,192,46980,1,2,0:0:0:0:
192,192,46980,128,4,47317:0:0:0:0:
448,192,46980,1,0,0:0:0:0:
64,192,47317,1,8,0:0:0:0:
320,192,47317,1,0,0:0:0:40:Hat Open.wav
448,192,47317,1,0,0:0:0:0:
192,192,47486,1,2,0:0:0:0:
320,192,47486,1,4,0:0:0:0:
448,192,47486,128,0,47823:0:0:0:0:
64,192,47823,1,2,0:0:0:0:
192,192,47823,1,0,0:0:0:0:
64,192,47991,128,8,48329:0:0:0:0:
320,192,47991,1,0,0:0:0:40:Hat Open.wav
448,192,47991,1,0,0:0:0:0:
192,192,48329,1,4,0:0:0:0:
320,192,48329,128,2,48666:0:0:0:0:
448,192,48329,1,0,0:0:0:0:
64,192,48666,1,0,0:0:0:50:Tom1.wav
192,192,48666,1,0,0:0:0:50:Tom2.wav
448,192,48834,1,0,0:0:0:50:Tom3.wav
64,192,48834,1,0,0:0:0:0:
192,192,49003,128,0,49340:0:0:0:50:Hat Close.wav
448,192,49171,1,0,0:0:0:50:Tom3.wav
320,192,49171,1,0,0:0:0:0:
448,192,49340,128,0,49677:0:0:0:50:Hat Close.wav
64,192,49340,1,0,0:0:0:50:Tom3.wav
64,192,49677,128,2,50014:0:0:0:0:
192,192,49677,1,4,0:0:0:0:
320,192,49677,1,0,0:0:0:0:
320,192,49845,1,2,0:0:0:0:
448,192,49845,1,0,0:0:0:0:
192,192,50014,1,0,0:0:0:50:Hat Close.wav
320,192,50182,1,0,0:0:0:0:
64,192,50351,128,8,50688:0:0:0:0:
192,192,50351,1,0,0:0:0:50:Hat Close.wav
448,192,50351,1,0,0:0:0:0:
320,192,50688,1,2,0:0:0:0:
448,192,50688,1,0,0:0:0:50:Hat Close.wav
64,192,50857,128,2,51194:0:0:0:0:
448,192,50857,1,0,0:0:0:0:
192,192,51025,1,0,0:0:0:50:Hat Close.wav
192,192,51194,1,8,0:0:0:0:
320,192,51194,1,0,0:0:0:0:
448,192,51194,1,0,0:0:0:0:
448,192,51362,128,0,51699:0:0:0:50:Hat Close.wav
64,192,51531,1,2,0:0:0:0:
192,192,51531,1,0,0:0:0:0:
64,192,51699,1,8,0:0:0:0:
192,192,51699,128,0,52036:0:0:0:50:Hat Close.wav
320,192,51699,1,0,0:0:0:0:
320,192,51868,1,2,0:0:0:0:
448,192,51868,1,0,0:0:0:0:
448,192,52036,128,0,52373:0:0:0:50:Hat Close.wav
64,192,52205,1,8,0:0:0:0:
192,192,52205,1,0,0:0:0:0:
64,192,52373,128,2,52711:0:0:0:0:
320,192,52373,1,0,0:0:0:50:Hat Close.wav
192,192,52542,1,2,0:0:0:0:
320,192,52542,1,0,0:0:0:0:
448,192,52711,1,0,0:0:0:50:Hat Close.wav
192,192,52879,1,0,0:0:0:0:
64,192,53048,1,8,0:0:0:0:
320,192,53048,128,0,53385:0:0:0:50:Hat Close.wav
448,192,53048,1,0,0:0:0:0:
192,192,53216,1,0,0:0:0:0:
64,192,53385,1,2,0:0:0:0:
448,192,53385,1,0,0:0:0:50:Hat Close.wav
64,192,53553,1,2,0:0:0:0:
320,192,53553,128,0,53890:0:0:0:0:
192,192,53722,1,0,0:0:0:50:Hat Close.wav
64,192,53890,1,8,0:0:0:30:soft-hitclap.wav
448,192,53890,1,0,0:0:0:0:
192,192,54059,1,0,0:0:0:50:Hat Close.wav
320,192,54227,1,2,0:0:0:0:
448,192,54227,1,0,0:0:0:0:
192,192,54312,1,2,0:0:0:0:
64,192,54396,1,8,0:0:0:0:
320,192,54396,1,0,0:0:0:50:Tom3.wav
448,192,54396,1,0,0:0:0:0:
64,192,54564,1,8,0:0:0:0:
320,192,54564,1,0,0:0:0:50:Tom3.wav
448,192,54564,1,0,0:0:0:0:
64,192,55070,1,4,0:0:0:0:
192,192,55070,1,2,0:0:0:0:
448,192,55070,128,0,55407:0:0:0:0:
64,192,55407,1,2,0:0:0:0:
192,192,55407,1,0,0:0:0:50:Hat Close.wav
64,192,55744,1,2,0:0:0:0:
192,192,55744,128,0,56081:0:0:0:50:Hat Close.wav
64,192,56081,1,2,0:0:0:0:
320,192,56081,1,8,0:0:0:0:
448,192,56081,128,0,56418:0:0:0:50:Hat Close.wav
192,192,56418,1,2,0:0:0:0:
320,192,56418,1,0,0:0:0:50:Hat Close.wav
192,192,56587,1,0,0:0:0:50:Tom1.wav
448,192,56587,1,0,0:0:0:0:
64,192,56755,1,2,0:0:0:0:
320,192,56755,1,0,0:0:0:0:
192,192,56924,1,0,0:0:0:50:Tom3.wav
320,192,56924,1,0,0:0:0:0:
64,192,57093,1,2,0:0:0:0:
448,192,57093,1,0,0:0:0:0:
320,192,57261,1,0,0:0:0:50:Tom2.wav
448,192,57261,1,0,0:0:0:0:
64,192,57430,1,2,0:0:0:0:
192,192,57430,1,0,0:0:0:50:Tom3.wav
64,192,57598,1,0,0:0:0:50:Tom3.wav
448,192,57598,1,0,0:0:0:0:
192,192,57767,128,8,58104:0:0:0:0:
320,192,57767,128,4,58104:0:0:0:0:
448,192,57767,1,0,0:0:0:0:
64,192,58104,1,2,0:0:0:0:
448,192,58104,1,0,0:0:0:0:
64,192,58272,128,8,58609:0:0:0:0:
192,192,58272,128,4,58609:0:0:0:0:
320,192,58272,1,0,0:0:0:0:
320,192,58609,1,2,0:0:0:0:
448,192,58609,1,0,0:0:0:0:
64,192,58778,128,4,59115:0:0:0:0:
192,192,58778,1,8,0:0:0:0:
448,192,58778,128,0,59115:0:0:0:0:
192,192,59115,1,2,0:0:0:0:
320,192,59115,1,0,0:0:0:0:
64,192,59284,1,8,0:0:0:0:
320,192,59284,128,4,59621:0:0:0:0:
448,192,59284,1,0,0:0:0:0:
64,192,59452,1,2,0:0:0:0:
192,192,59452,1,0,0:0:0:0:
192,192,59621,1,2,0:0:0:0:
448,192,59621,1,0,0:0:0:0:
64,192,59789,1,8,0:0:0:0:
320,192,59789,1,0,0:0:0:50:Tom2.wav
448,192,59789,1,0,0:0:0:0:
192,192,59958,1,2,0:0:0:0:
320,192,59958,1,0,0:0:0:0:
64,192,60126,1,8,0:0:0:0:
192,192,60126,1,0,0:0:0:50:Tom2.wav
448,192,60126,1,0,0:0:0:0:
320,192,60295,1,2,0:0:0:0:
448,192,60295,1,0,0:0:0:0:
64,192,60463,1,4,0:0:0:0:
192,192,60463,1,2,0:0:0:0:
320,192,60463,128,0,61137:0:0:0:0:
448,192,60800,128,0,61137:0:0:0:0:
64,192,61137,1,0,0:0:0:50:Tom2.wav
320,192,61222,1,8,0:0:0:0:
448,192,61222,1,0,0:0:0:0:
64,192,61306,1,8,0:0:0:0:
192,192,61306,1,0,0:0:0:0:
320,192,61390,1,8,0:0:0:0:
448,192,61390,1,0,0:0:0:0:
64,192,61475,1,8,0:0:0:0:
192,192,61475,1,0,0:0:0:0:
320,192,61559,1,8,0:0:0:0:
448,192,61559,1,0,0:0:0:0:
64,192,61643,1,8,0:0:0:0:
192,192,61643,1,0,0:0:0:0:
320,192,61727,1,8,0:0:0:0:
64,192,61812,1,4,0:0:0:0:
192,192,61812,1,2,0:0:0:0:
448,192,61812,128,0,62149:0:0:0:0:
64,192,62149,1,8,0:0:0:0:
192,192,62149,1,0,0:0:0:40:Hat Open.wav
320,192,62149,1,0,0:0:0:0:
320,192,62317,1,0,0:0:0:0:
64,192,62486,1,2,0:0:0:0:
192,192,62486,128,0,62823:0:0:0:40:Hat Open.wav
320,192,62654,1,2,0:0:0:0:
448,192,62654,1,0,0:0:0:0:
64,192,62823,1,8,0:0:0:0:
320,192,62823,1,0,0:0:0:40:Hat Open.wav
448,192,62823,1,0,0:0:0:0:
192,192,62991,1,0,0:0:0:0:
320,192,63160,128,2,63497:0:0:0:0:
448,192,63160,1,0,0:0:0:40:Hat Open.wav
64,192,63497,1,8,0:0:0:0:
192,192,63497,1,0,0:0:0:40:Hat Open.wav
448,192,63497,128,0,63834:0:0:0:0:
192,192,63834,128,2,64171:0:0:0:0:
320,192,63834,1,0,0:0:0:40:Hat Open.wav
64,192,64003,1,2,0:0:0:0:
448,192,64003,1,0,0:0:0:0:
64,192,64171,128,8,64508:0:0:0:0:
320,192,64171,1,0,0:0:0:40:Hat Open.wav
448,192,64171,1,0,0:0:0:0:
192,192,64340,1,2,0:0:0:0:
320,192,64340,1,0,0:0:0:0:
192,192,64508,1,2,0:0:0:0:
448,192,64508,128,0,64845:0:0:0:40:Hat Open.wav
64,192,64845,1,8,0:0:0:0:
192,192,64845,128,0,65182:0:0:0:40:Hat Open.wav
320,192,64845,1,0,0:0:0:0:
320,192,65182,128,2,65520:0:0:0:0:
448,192,65182,1,0,0:0:0:40:Hat Open.wav
64,192,65351,1,2,0:0:0:0:
192,192,65351,1,0,0:0:0:0:
64,192,65520,1,8,0:0:0:0:
192,192,65520,128,0,65857:0:0:0:40:Hat Open.wav
448,192,65520,1,0,0:0:0:0:
320,192,65857,1,2,0:0:0:0:
448,192,65857,1,0,0:0:0:40:Hat Open.wav
192,192,66025,1,2,0:0:0:0:
320,192,66025,1,0,0:0:0:0:
64,192,66194,128,8,66531:0:0:0:0:
192,192,66194,1,0,0:0:0:40:Hat Open.wav
448,192,66194,1,0,0:0:0:0:
192,192,66531,1,2,0:0:0:0:
320,192,66531,128,0,66868:0:0:0:40:Hat Open.wav
64,192,66699,1,2,0:0:0:0:
448,192,66699,1,0,0:0:0:0:
64,192,66868,128,8,67205:0:0:0:0:
192,192,66868,1,0,0:0:0:40:Hat Open.wav
448,192,66868,1,0,0:0:0:0:
192,192,67205,1,2,0:0:0:0:
320,192,67205,128,4,67542:0:0:0:0:
448,192,67205,1,0,0:0:0:0:
64,192,67542,1,8,0:0:0:0:
192,192,67542,1,0,0:0:0:40:Hat Open.wav
448,192,67542,1,0,0:0:0:0:
192,192,67711,1,0,0:0:0:0:
64,192,67879,1,2,0:0:0:0:
448,192,67879,128,0,68216:0:0:0:40:Hat Open.wav
192,192,68048,1,2,0:0:0:0:
320,192,68048,1,0,0:0:0:0:
64,192,68216,1,8,0:0:0:0:
192,192,68216,1,0,0:0:0:40:Hat Open.wav
320,192,68216,1,0,0:0:0:0:
448,192,68385,1,0,0:0:0:0:
64,192,68553,128,2,68890:0:0:0:0:
320,192,68553,1,0,0:0:0:40:Hat Open.wav
192,192,68890,128,8,69227:0:0:0:0:
320,192,68890,1,0,0:0:0:40:Hat Open.wav
448,192,68890,1,0,0:0:0:0:
64,192,69227,1,2,0:0:0:0:
448,192,69227,128,0,69564:0:0:0:40:Hat Open.wav
192,192,69396,1,2,0:0:0:0:
320,192,69396,1,0,0:0:0:0:
64,192,69564,1,8,0:0:0:0:
192,192,69564,1,0,0:0:0:40:Hat Open.wav
320,192,69564,128,0,69902:0:0:0:0:
64,192,69902,128,8,70239:0:0:0:0:
192,192,69902,1,4,0:0:0:0:
448,192,69902,1,0,0:0:0:0:
192,192,70239,1,8,0:0:0:0:
320,192,70239,1,0,0:0:0:40:Hat Open.wav
448,192,70239,1,0,0:0:0:0:
64,192,70407,1,2,0:0:0:0:
320,192,70407,1,0,0:0:0:0:
64,192,70576,1,8,0:0:0:0:
192,192,70576,1,0,0:0:0:40:Hat Open.wav
448,192,70576,1,0,0:0:0:0:
192,192,70744,1,2,0:0:0:0:
320,192,70744,1,0,0:0:0:0:
64,192,70913,1,8,0:0:0:0:
320,192,70913,1,0,0:0:0:40:Hat Open.wav
448,192,70913,1,0,0:0:0:0:
64,192,71081,1,2,0:0:0:0:
192,192,71081,128,4,71418:0:0:0:0:
448,192,71081,1,0,0:0:0:0:
320,192,71418,1,2,0:0:0:0:
448,192,71418,1,0,0:0:0:0:
64,192,71587,1,8,0:0:0:0:
192,192,71587,1,0,0:0:0:40:Hat Open.wav
448,192,71587,1,0,0:0:0:0:
192,192,71755,1,8,0:0:0:0:
320,192,71755,1,0,0:0:0:0:
64,192,71840,1,8,0:0:0:0:
448,192,71840,1,0,0:0:0:0:
192,192,71924,1,2,0:0:0:0:
320,192,71924,1,0,0:0:0:50:Tom2.wav
64,192,72008,1,0,0:0:0:30:soft-hitclap.wav
320,192,72093,1,8,0:0:0:0:
448,192,72093,1,0,0:0:0:0:
192,192,72177,1,8,0:0:0:0:
64,192,72261,1,8,0:0:0:0:
320,192,72261,1,2,0:0:0:0:
448,192,72261,1,0,0:0:0:0:
192,192,72345,1,8,0:0:0:0:
64,192,72430,1,8,0:0:0:0:
448,192,72430,1,0,0:0:0:0:
320,192,72514,1,8,0:0:0:0:
64,192,72598,1,4,0:0:0:0:
192,192,72598,128,2,72935:0:0:0:0:
448,192,72598,1,0,0:0:0:0:
64,192,72935,1,8,0:0:0:0:
320,192,72935,1,0,0:0:0:40:Hat Open.wav
448,192,72935,1,0,0:0:0:0:
320,192,73104,1,0,0:0:0:0:
64,192,73272,128,2,73609:0:0:0:0:
192,192,73272,1,0,0:0:0:40:Hat Open.wav
320,192,73441,1,2,0:0:0:0:
448,192,73441,1,0,0:0:0:0:
192,192,73609,1,8,0:0:0:0:
320,192,73609,1,0,0:0:0:40:Hat Open.wav
448,192,73609,1,0,0:0:0:0:
64,192,73778,1,0,0:0:0:0:
192,192,73946,1,2,0:0:0:0:
448,192,73946,128,0,74284:0:0:0:40:Hat Open.wav
64,192,74284,1,8,0:0:0:0:
192,192,74284,128,0,74621:0:0:0:40:Hat Open.wav
320,192,74284,1,0,0:0:0:0:
320,192,74621,128,2,74958:0:0:0:0:
448,192,74621,1,0,0:0:0:40:Hat Open.wav
64,192,74789,1,2,0:0:0:0:
192,192,74789,1,0,0:0:0:0:
64,192,74958,128,8,75295:0:0:0:0:
192,192,74958,1,0,0:0:0:40:Hat Open.wav
448,192,74958,1,0,0:0:0:0:
192,192,75295,1,2,0:0:0:0:
320,192,75295,1,4,0:0:0:0:
448,192,75295,128,0,75632:0:0:0:0:
64,192,75632,1,8,0:0:0:0:
192,192,75632,1,0,0:0:0:0:
320,192,75632,1,0,0:0:0:0:
64,192,75800,128,2,75969:0:0:0:0:
192,192,75800,128,0,75969:0:0:0:40:Hat Open.wav
192,192,76137,128,2,76306:0:0:0:0:
320,192,76137,128,0,76306:0:0:0:40:Hat Open.wav
64,192,76475,1,2,0:0:0:0:
320,192,76475,128,4,76812:0:0:0:0:
448,192,76475,128,0,76812:0:0:0:0:
64,192,76812,1,2,0:0:0:0:
192,192,76812,1,0,0:0:0:0:
64,192,76980,1,8,0:0:0:0:
320,192,76980,1,0,0:0:0:40:Hat Open.wav
448,192,76980,1,0,0:0:0:0:
192,192,77149,1,8,0:0:0:0:
320,192,77149,1,0,0:0:0:0:
64,192,77233,1,8,0:0:0:0:
448,192,77233,1,0,0:0:0:0:
192,192,77317,128,8,77654:0:0:0:0:
320,192,77317,1,2,0:0:0:0:
64,192,77486,1,0,0:0:0:50:Tom2.wav
448,192,77486,1,0,0:0:0:0:
320,192,77654,1,0,0:0:0:50:Tom3.wav
448,192,77654,128,0,77991:0:0:0:0:
64,192,77823,1,2,0:0:0:0:
192,192,77823,1,0,0:0:0:0:
64,192,77991,1,2,0:0:0:0:
192,192,77991,1,4,0:0:0:0:
320,192,77991,128,0,78329:0:0:0:0:
64,192,78329,1,8,0:0:0:0:
192,192,78329,1,0,0:0:0:40:Hat Open.wav
448,192,78329,1,0,0:0:0:0:
192,192,78666,128,2,79003:0:0:0:0:
320,192,78666,1,0,0:0:0:40:Hat Open.wav
64,192,78834,1,2,0:0:0:0:
448,192,78834,1,0,0:0:0:0:
64,192,79003,128,8,79340:0:0:0:0:
320,192,79003,1,0,0:0:0:40:Hat Open.wav
448,192,79003,1,0,0:0:0:0:
192,192,79340,1,2,0:0:0:0:
448,192,79340,128,0,79677:0:0:0:40:Hat Open.wav
64,192,79677,1,8,0:0:0:0:
192,192,79677,1,0,0:0:0:40:Hat Open.wav
320,192,79677,128,0,80014:0:0:0:0:
64,192,80014,128,2,80351:0:0:0:0:
448,192,80014,1,0,0:0:0:40:Hat Open.wav
192,192,80182,1,2,0:0:0:0:
320,192,80182,1,0,0:0:0:0:
192,192,80351,128,8,80688:0:0:0:0:
320,192,80351,1,0,0:0:0:40:Hat Open.wav
448,192,80351,1,0,0:0:0:0:
64,192,80520,1,2,0:0:0:0:
448,192,80520,1,0,0:0:0:0:
64,192,80688,1,2,0:0:0:0:
320,192,80688,128,4,81025:0:0:0:0:
448,192,80688,1,0,0:0:0:0:
64,192,81025,1,8,0:0:0:0:
192,192,81025,1,0,0:0:0:40:Hat Open.wav
448,192,81025,1,0,0:0:0:0:
192,192,81194,1,0,0:0:0:0:
64,192,81362,128,2,81699:0:0:0:0:
320,192,81362,1,0,0:0:0:40:Hat Open.wav
192,192,81531,1,2,0:0:0:0:
448,192,81531,1,0,0:0:0:0:
192,192,81699,1,8,0:0:0:0:
320,192,81699,1,0,0:0:0:40:Hat Open.wav
448,192,81699,1,0,0:0:0:0:
64,192,81868,1,4,0:0:0:0:
320,192,81868,128,2,82205:0:0:0:0:
448,192,81868,128,0,82205:0:0:0:0:
64,192,82205,1,2,0:0:0:0:
192,192,82205,1,0,0:0:0:0:
64,192,82373,1,8,0:0:0:0:
320,192,82373,1,0,0:0:0:40:Hat Open.wav
448,192,82373,1,0,0:0:0:0:
192,192,82542,1,8,0:0:0:0:
320,192,82542,1,0,0:0:0:0:
64,192,82626,1,8,0:0:0:0:
448,192,82626,1,0,0:0:0:0:
192,192,82711,1,8,0:0:0:0:
320,192,82711,1,2,0:0:0:0:
64,192,82879,1,0,0:0:0:50:Tom2.wav
448,192,82879,1,0,0:0:0:0:
192,192,83048,1,0,0:0:0:50:Tom3.wav
320,192,83048,1,0,0:0:0:0:
320,192,83216,1,2,0:0:0:0:
448,192,83216,1,0,0:0:0:0:
64,192,83385,1,8,0:0:0:0:
192,192,83385,1,0,0:0:0:0:
448,192,83385,1,0,0:0:0:0:
192,192,83553,1,2,0:0:0:0:
320,192,83553,1,0,0:0:0:0:
320,192,83722,1,2,0:0:0:0:
448,192,83722,1,0,0:0:0:0:
64,192,83890,1,0,0:0:0:50:Tom1.wav
448,192,83890,1,0,0:0:0:0:
64,192,84059,1,2,0:0:0:0:
192,192,84059,1,0,0:0:0:0:
192,192,84227,1,2,0:0:0:0:
320,192,84227,1,0,0:0:0:50:Tom2.wav
64,192,84396,1,0,0:0:0:50:Tom3.wav
448,192,84396,1,0,0:0:0:0:
192,192,84564,1,2,0:0:0:0:
448,192,84564,1,0,0:0:0:0:
64,192,84733,128,4,85070:0:0:0:0:
192,192,84733,128,2,85070:0:0:0:0:
320,192,84733,1,0,0:0:0:0:
448,192,85070,128,0,85407:0:0:0:0:
320,192,85407,128,0,85744:0:0:0:0:
448,192,85744,128,0,86081:0:0:0:0:
64,192,86081,128,4,87598:0:0:0:0:
192,192,86081,128,2,86418:0:0:0:0:
320,192,86081,1,0,0:0:0:0:
448,192,86587,1,0,0:0:0:50:Tom2.wav
320,192,86629,1,0,0:0:0:50:Tom2.wav
192,192,86755,128,0,87598:0:0:0:0:
448,192,86924,1,0,0:0:0:50:Tom3.wav
320,192,87093,1,0,0:0:0:50:Tom3.wav
448,192,87261,1,0,0:0:0:50:Tom3.wav
320,192,87430,1,0,0:0:0:50:Tom3.wav
320,192,87598,1,2,0:0:0:0:
448,192,87598,1,0,0:0:0:0:
192,192,87682,1,2,0:0:0:0:
64,192,87767,1,8,0:0:0:0:
320,192,87767,1,4,0:0:0:0:
448,192,87767,1,0,0:0:0:0:
64,192,88104,1,8,0:0:0:0:
192,192,88104,1,0,0:0:0:50:Tom3.wav
448,192,88104,1,0,0:0:0:0:
64,192,88272,1,8,0:0:0:0:
192,192,88272,1,2,0:0:0:0:
448,192,88272,1,0,0:0:0:50:Tom3.wav
