osu file format v14

[General]
AudioFilename: audio.ogg
AudioLeadIn: 0
PreviewTime: 48872
Countdown: 0
SampleSet: Soft
StackLeniency: 0.3
Mode: 0
LetterboxInBreaks: 0
WidescreenStoryboard: 0

[Editor]
Bookmarks: 4621,16049,27478,38907,50335,67478
DistanceSpacing: 0.2
BeatDivisor: 12
GridSize: 32
TimelineZoom: 1.9

[Metadata]
Title:Primary (TV Size)
TitleUnicode:Primary (TV Size)
Artist:Liella!
ArtistUnicode:Liella!
Creator:Lulu-
Version:Stargazing
Source:ラブライブ!スーパースター!!
Tags:nextplay my angel kanan noctiam caps stcapricorn nhk liella no uta リエラのうた love live! lovelive! superstar!! school idol idols japanese pop j-pop jpop anime insert ending Shibuya Kanon 澁谷かのん Táng Kěkě Tang Keke Tan Kuukuu 唐 可可 タン クゥクゥ Arashi Chisato 嵐千砂都 Heanna Sumire 平安名すみれ Hazuki Ren 葉月恋 Date Sayuri 伊達さゆり Liyuu 黎狱 Payton Naomi ペイトン尚未 Misaki Nako 岬 なこ Aoyama Nagisa 青山なぎさ Junko Miyajima 宮嶋淳子 Yasuhiro Obata 小幡康裕 Yuuya Mori 森悠也 imamura いまむら Chinami
BeatmapID:3107724
BeatmapSetID:1518121

[Difficulty]
HPDrainRate:6
CircleSize:5
OverallDifficulty:8
ApproachRate:7.8
SliderMultiplier:3
SliderTickRate:0.5

[Events]
//Background and Video events
0,0,"primary.jpg",0,0
Video,0,"primary.mp4"
//Break Periods
//Storyboard Layer 0 (Background)
//Storyboard Layer 1 (Fail)
//Storyboard Layer 2 (Pass)
//Storyboard Layer 3 (Foreground)
//Storyboard Layer 4 (Overlay)
//Storyboard Sound Samples

[TimingPoints]
220,681.818181818182,4,2,1,50,1,0
773,631.578947368421,4,2,1,50,1,0
1088,-133.333333333333,4,2,1,50,0,0
1787,681.818181818182,4,2,1,50,1,0
1787,-123.456790123457,4,2,1,50,0,0
2102,697.674418604651,4,2,1,50,1,0
2450,-133.333333333333,4,2,1,50,0,0
3192,697.674418604651,4,2,1,50,1,0
3192,-102.669404517454,4,2,1,50,0,0
4536,714.285714285714,4,2,1,50,1,0
4625,714.285714285714,4,2,1,50,1,0
5339,-200,4,2,1,50,0,0
5875,-100,4,2,1,50,0,0
7482,-200,4,2,1,50,0,0
8196,-100,4,2,1,50,0,0
9267,-133.333333333333,4,2,1,50,0,0
10330,705.882352941176,4,2,1,50,1,0
11035,-200,4,2,1,50,0,0
11565,-100,4,2,1,50,0,0
13160,714.285714285714,4,2,1,50,1,0
14962,666.666666666666,4,2,1,50,1,0
14962,-200,4,2,1,50,0,0
15628,-186.219739292365,4,2,1,50,0,0
16092,697.674418604651,4,2,1,50,1,0
16789,-200,4,2,1,50,0,0
17312,-100,4,2,1,50,0,0
18882,-133.333333333333,4,2,1,50,0,0
19929,-200,4,2,1,50,0,0
21012,714.285714285714,4,2,1,50,1,0
21012,-200,4,2,1,50,0,0
21547,-100,4,2,1,50,0,0
21726,714.285714285714,4,2,1,50,1,0
23154,-200,4,2,1,50,0,0
24217,566.037735849057,4,2,1,50,1,0
24217,-400,4,2,1,50,0,0
24646,714.285714285714,4,2,1,50,1,0
24646,-200,4,2,1,50,0,0
25026,714.285714285714,4,2,1,50,1,0
25335,-100,4,2,1,50,0,0
25338,731.70731707317,4,2,1,50,1,0
26072,714.285714285714,4,2,1,50,1,0
26429,-133.333333333333,4,2,1,50,0,0
27464,714.285714285714,4,2,1,50,1,0
27478,-133.333333333333,4,2,1,60,0,0
28714,-100,4,2,1,60,0,0
30302,714.285714285714,4,2,1,60,1,0
30302,-133.333333333333,4,2,1,60,0,0
31016,-100,4,2,1,60,0,0
32087,-133.333333333333,4,2,1,60,0,0
34409,-100,4,2,1,60,0,0
36004,714.285714285714,4,2,1,60,1,0
36004,-80,4,2,1,60,0,0
37789,-200,4,2,1,60,0,0
38146,-100,4,2,1,60,0,0
38504,-66.6666666666667,4,2,1,60,0,0
38925,697.674418604651,4,2,1,60,1,0
39622,-133.333333333333,4,2,1,60,0,0
40145,-100,4,2,1,60,0,0
41715,714.285714285714,4,2,1,60,1,0
41715,-133.333333333333,4,2,1,60,0,0
42786,-86.9565217391304,4,2,1,60,0,0
43857,-133.333333333333,4,2,1,60,0,0
44393,-109.289617486339,4,2,1,60,0,0
44572,714.285714285714,4,2,1,60,1,0
44713,714.285714285714,4,2,1,60,1,0
44977,714.285714285714,4,2,1,60,1,0
45298,714.285714285714,4,2,1,60,1,0
45665,714.285714285714,4,2,1,60,1,0
46020,714.285714285714,4,2,1,60,1,0
46020,-133.333333333333,4,2,1,60,0,0
46747,714.285714285714,4,2,1,60,1,0
46747,-100,4,2,1,60,0,0
47104,714.285714285714,4,2,1,60,1,0
47104,-133.333333333333,4,2,1,60,0,0
47461,705.882352941176,4,2,1,60,1,0
48872,705.882352941176,4,2,1,65,1,0
49224,-80,4,2,1,70,0,0
49577,-66.6666666666667,4,2,1,75,0,0
49930,-57.1428571428571,4,2,1,80,0,0
50284,722.89156626506,4,2,1,85,1,1
50284,-80,4,2,1,85,0,1
51006,-100,4,2,1,85,0,1
51729,-133.333333333333,4,2,1,85,0,1
52000,-133.333333333333,4,2,1,5,0,1
52091,-80,4,2,1,85,0,1
52452,-57.1428571428571,4,2,1,85,0,1
52723,-57.1428571428571,4,2,1,5,0,1
52814,-80,4,2,1,85,0,1
53175,714.285714285714,4,2,1,85,1,1
53175,-100,4,2,1,85,0,1
53710,-133.333333333333,4,2,1,85,0,1
54871,-133.333333333333,4,2,1,5,0,1
54960,-80,4,2,1,85,0,1
55317,-57.1428571428571,4,2,1,85,0,1
55585,-57.1428571428571,4,2,1,5,0,1
55675,-44.4444444444445,4,2,1,85,0,1
56032,-80,4,2,1,85,0,1
56746,-100,4,2,1,85,0,1
57460,-133.333333333333,4,2,1,85,0,1
57728,-133.333333333333,4,2,1,5,0,1
57817,-80,4,2,1,85,0,1
58175,-57.1428571428571,4,2,1,85,0,1
58442,-57.1428571428571,4,2,1,5,0,1
58532,-80,4,2,1,85,0,1
60317,-133.333333333333,4,2,1,85,0,1
60585,-133.333333333333,4,2,1,5,0,1
60675,-80,4,2,1,85,0,1
61032,-57.1428571428571,4,2,1,85,0,1
61300,-57.1428571428571,4,2,1,5,0,1
61389,-44.4444444444445,4,2,1,85,0,1
61746,722.89156626506,4,2,1,85,1,1
61746,-66.6666666666667,4,2,1,85,0,1
62468,-100,4,2,1,85,0,1
63191,705.882352941176,4,2,1,85,1,1
63191,-133.333333333333,4,2,1,85,0,1
63455,-133.333333333333,4,2,1,5,0,1
63543,-80,4,2,1,85,0,1
63896,-57.1428571428571,4,2,1,85,0,1
64161,-57.1428571428571,4,2,1,5,0,1
64249,-80,4,2,1,85,0,1
64973,674.157303370786,4,2,1,85,1,1
64973,-160,4,2,1,85,0,1
65310,-160,4,2,1,85,0,0
65651,714.285714285714,4,2,1,85,1,1
65651,-57.1428571428571,4,2,1,85,0,1
66365,714.285714285714,4,2,1,60,1,1
66722,714.285714285714,4,2,1,60,1,0
67079,714.285714285714,4,2,1,60,1,0
67436,1071.42857142857,4,2,1,60,1,0
67436,-100,4,2,1,60,0,0
67971,-100,4,2,1,5,0,0
68507,625,4,2,1,60,1,0
68864,555.555555555555,4,2,1,60,1,0
68864,-133.333333333333,4,2,1,60,0,0
70292,714.285714285714,4,2,1,60,1,0
70292,-90.9090909090909,4,2,1,60,0,0
71720,-90.9090909090909,4,2,1,5,0,0

[Colours]
Combo1 : 121,243,98
Combo2 : 244,180,237
Combo3 : 255,255,0
Combo4 : 139,73,174
Combo5 : 0,0,160
Combo6 : 252,124,37
Combo7 : 160,255,249
Combo8 : 255,108,142

[HitObjects]
411,167,773,5,2,2:0:0:0:
337,152,1088,2,0,B|312:145|289:159|281:184|281:184|306:190|313:166,1,112.500004291535,2|0,0:2|2:0,2:0:0:0:
456,110,1787,2,0,B|473:91|473:65|455:46|455:46|438:64|455:82,1,112.500004291535,2|0,0:2|2:0,2:0:0:0:
433,234,2450,2,0,B|440:258|463:271|488:265|488:265|481:241|457:247,1,112.500004291535,2|0,0:2|2:0,2:0:0:0:
337,152,3192,22,0,B|291:110|206:116|131:171|260:238|161:333|-38:376|-128:128|87:43|189:85|202:229|160:304,1,600,2|0,2:0|1:2,2:0:0:0:
171,270,4982,5,2,2:0:0:0:
280,284,5339,2,0,P|289:247|279:211,1,75,2|0,2:0|2:0,2:0:0:0:
353,180,5875,70,0,B|236:205|264:101|146:125,1,225,2|0,2:0|2:0,2:0:0:0:
41,183,6767,1,0,2:0:0:0:
15,276,7124,1,0,2:0:0:0:
52,343,7482,38,0,P|80:386|128:367,1,112.5,2|0,1:2|2:0,2:0:0:0:
110,288,8196,70,0,P|109:213|73:148,1,150,2|0,2:0|2:0,2:0:0:0:
90,70,8732,1,2,2:0:0:0:
90,70,8910,2,0,P|52:71|20:89,1,75,2|0,2:0|2:0,2:0:0:0:
74,149,9267,2,0,P|129:150|178:177,2,112.5,2|0|0,2:0|2:0|2:0,2:0:0:0:
168,79,10330,1,0,1:2:0:0:
178,68,10682,37,2,2:0:0:0:
267,0,11035,2,0,P|305:1|337:19,1,75,2|2,2:0|2:0,2:0:0:0:
389,71,11565,70,0,B|407:25|486:3|528:33|528:33|497:42|482:79,1,225,2|0,2:0|2:0,2:0:0:0:
511,192,12447,1,0,2:0:0:0:
415,182,12800,1,0,2:0:0:0:
355,230,13160,37,2,1:2:0:0:
348,291,13517,1,2,2:0:0:0:
317,237,13874,1,0,2:0:0:0:
374,264,14231,1,0,2:0:0:0:
313,276,14588,1,0,2:0:0:0:
417,331,14962,70,0,P|449:313|486:312,1,75,0|0,2:0|2:0,2:0:0:0:
323,157,15628,2,0,P|274:130|218:128,1,112.5,0|0,2:0|1:2,2:0:0:0:
205,134,16440,69,2,2:0:0:0:
109,194,16789,2,0,P|100:159|108:123,1,75,2|0,2:0|2:0,2:0:0:0:
160,51,17312,38,0,B|97:49|73:-10|73:-10|82:53|30:84,1,225,2|2,2:0|2:0,2:0:0:0:
13,204,18185,1,2,2:0:0:0:
109,194,18533,1,2,2:0:0:0:
169,241,18882,70,0,P|217:215|273:212,2,112.5,2|0|0,1:2|2:0|2:0,2:0:0:0:
159,321,19929,38,0,P|100:346|100:283,1,150,2|0,1:2|2:0,2:0:0:0:
169,241,21012,70,0,P|206:241|238:259,1,75,0|0,2:0|2:0,2:0:0:0:
263,338,21547,38,0,B|380:363|352:259|470:283,1,225,2|2,2:0|2:0,2:0:0:0:
511,170,22440,1,2,2:0:0:0:
471,83,22797,1,2,2:0:0:0:
399,56,23154,70,0,B|378:18|323:1|284:64|326:93|355:96,1,150,2|0,2:0|2:0,2:0:0:0:
352,99,24217,86,0,L|355:136,1,37.5,2|0,2:0|2:0,2:0:0:0:
434,204,24646,2,0,P|397:204|365:222,1,75,2|0,1:2|2:0,2:0:0:0:
296,185,25338,22,0,P|222:179|159:139,1,150,2|0,2:0|2:0,2:0:0:0:
81,155,25886,1,2,2:0:0:0:
81,155,26072,2,0,P|81:117|99:85,1,75,2|0,2:0|2:0,2:0:0:0:
104,6,26429,2,0,P|49:7|0:34,2,112.5,2|0|0,1:2|1:2|1:2,2:0:0:0:
171,50,27464,21,4,1:2:0:0:
81,155,27821,1,2,2:0:0:0:
216,180,28178,2,0,P|256:148|231:103,1,112.5,2|2,2:0|2:0,2:0:0:0:
160,139,28714,6,0,B|124:190|151:252|200:225|227:287|192:338,1,225,2|2,2:0|2:0,2:0:0:0:
136,297,29606,1,8,2:0:0:0:
216,180,29964,1,0,2:0:0:0:
24,285,30302,102,0,P|64:215|145:217,1,168.75,2|0,1:2|2:0,2:0:0:0:
206,270,31016,2,0,B|267:264|267:264|284:245|284:245|346:238,1,150,2|0,2:0|2:0,2:0:0:0:
412,189,31552,1,2,2:0:0:0:
412,189,31730,2,0,P|412:152|394:120,1,75,2|0,2:0|2:0,2:0:0:0:
353,317,32087,2,0,P|402:345|457:346,2,112.5,2|8|0,2:0|2:0|2:0,2:0:0:0:
271,203,33159,5,0,1:2:0:0:
393,120,33516,1,2,2:0:0:0:
261,56,33873,2,0,B|305:49|305:49|321:59|321:59|368:52,1,112.5,10|2,2:0|2:0,2:0:0:0:
441,57,34409,102,0,P|481:138|393:120,1,225,2|2,2:0|2:0,2:0:0:0:
261,56,35302,1,8,2:0:0:0:
151,95,35659,1,0,2:0:0:0:
110,179,36004,6,0,B|90:190|67:184|55:164|55:164|75:153|86:172,1,93.75,2|0,1:2|2:0,2:0:0:0:
177,243,36362,2,0,B|181:265|168:285|146:289|146:289|141:267|163:263,1,93.75,2|2,2:0|2:0,2:0:0:0:
259,200,36719,2,0,B|281:202|296:221|294:243|294:243|271:241|274:218,1,93.75,0|0,1:2|2:0,2:0:0:0:
243,108,37075,2,0,B|252:87|274:78|295:87|295:87|286:108|265:99,1,93.75,0|0,2:0|2:0,2:0:0:0:
151,95,37433,2,0,B|134:79|132:55|148:39|148:39|164:54|149:71,1,93.75,0|0,1:2|2:0,2:0:0:0:
192,168,37790,38,0,B|192:171|187:171|187:171|183:171|183:166|183:166|183:162|187:162|187:162|192:162|192:166,3,18.75,0|0|0|0,1:2|2:0|2:0|2:0,2:0:0:0:
107,182,38147,22,0,B|110:185|104:191|104:191|100:198|93:191|93:191|87:185|93:179|93:179|100:175|103:178,3,50,0|0|0|0,1:2|2:0|2:0|2:0,2:0:0:0:
52,255,38623,22,0,B|60:252|60:265|60:265|60:277|48:277|48:277|36:277|36:265|36:265|36:252|47:255,2,75.000002861023,0|0|0,2:0|2:0|2:0,2:0:0:0:
62,346,38925,101,4,1:2:0:0:
72,356,39273,1,2,2:0:0:0:
174,246,39622,2,0,P|221:217|277:216,1,112.5,2|2,2:0|2:0,2:0:0:0:
329,269,40145,22,0,B|378:207|493:234|467:356|382:337|382:291,1,225,2|2,2:0|2:0,2:0:0:0:
277,216,41018,1,10,2:0:0:0:
361,132,41366,1,0,2:0:0:0:
456,132,41715,86,0,P|498:167|520:219,2,112.5,2|0|0,1:2|2:0|2:0,2:0:0:0:
361,132,42786,22,0,B|329:79|297:143|226:68|291:-15|344:36|344:36|375:-30|465:26|424:120|372:71|369:111,1,345,2|8,1:2|2:0,2:0:0:0:
301,184,43857,2,0,L|188:174,1,112.5,2|2,2:0|2:0,2:0:0:0:
141,238,44393,54,0,B|166:121|62:149|86:31,1,225,2|2,2:0|2:0,2:0:0:0:
163,70,45298,1,2,2:0:0:0:
66,203,45665,1,2,2:0:0:0:
86,333,46020,2,0,P|141:334|189:362,1,112.5,2|0,1:2|2:0,2:0:0:0:
189,174,46747,22,0,P|217:198|235:231,1,75,2|0,2:0|2:0,2:0:0:0:
311,205,47104,2,0,P|313:232|309:260,1,56.2500000000001,2|0,2:0|2:0,2:0:0:0:
336,92,47461,21,0,1:2:0:0:
336,92,47637,1,0,2:0:0:0:
380,199,47813,1,0,2:0:0:0:
380,199,47990,1,0,2:0:0:0:
283,141,48166,1,0,2:0:0:0:
283,141,48343,1,0,2:0:0:0:
397,130,48519,1,0,2:0:0:0:
397,130,48696,1,0,2:0:0:0:
273,271,48872,38,0,B|235:294|235:294|249:265,1,75,2|0,1:2|2:0,2:0:0:0:
465,101,49224,22,0,B|518:104|518:104|479:118,1,93.75,2|0,1:2|2:0,2:0:0:0:
209,126,49577,22,0,B|158:87|158:87|206:103,1,112.5,2|0,1:2|2:0,2:0:0:0:
431,255,49930,102,0,B|448:325|448:325|419:274,1,131.25,2|0,1:2|2:0,2:0:0:0:
328,19,50284,86,0,B|343:-20|343:-20|362:124,1,187.5,6|0,1:2|2:0,2:0:0:0:
384,192,50826,1,2,2:0:0:0:
431,255,51006,2,0,B|351:266|373:199|295:211,1,150,10|0,2:0|2:0,2:0:0:0:
295,210,51549,1,0,2:0:0:0:
176,340,51729,102,0,P|211:362|252:362,1,84.3750000000002,2|0,1:2|2:0,2:0:0:0:
266,375,52091,22,0,P|306:352|324:309,1,93.75,2|0,1:2|2:0,2:0:0:0:
209,200,52452,22,0,P|119:216|80:133,1,196.875,10|0,2:0|2:0,2:0:0:0:
62,130,52814,102,0,P|73:84|108:55,1,93.75,2|0,2:0|2:0,2:0:0:0:
223,0,53175,86,0,L|237:73,1,75,2|0,1:2|2:0,2:0:0:0:
248,142,53532,1,0,2:0:0:0:
209,200,53710,2,0,P|153:199|106:228,1,112.5,2|0,2:0|2:0,2:0:0:0:
95,297,54246,1,0,2:0:0:0:
53,186,54425,1,0,2:0:0:0:
45,344,54603,102,0,P|86:340|123:360,1,84.3750000000002,2|0,1:2|2:0,2:0:0:0:
136,373,54960,22,0,P|182:375|220:349,1,93.75,2|0,1:2|2:0,2:0:0:0:
281,208,55317,22,0,P|370:187|412:268,1,196.875,10|0,2:0|2:0,2:0:0:0:
406,286,55675,102,0,P|353:326|338:254,1,168.75,2|0,2:0|2:0,2:0:0:0:
419,104,56032,86,0,B|473:67|461:-39|352:-15|366:54|392:62,1,187.5,6|0,1:2|2:0,2:0:0:0:
438,182,56567,1,0,2:0:0:0:
495,126,56746,2,0,P|422:140|369:191,1,150,10|0,2:0|2:0,2:0:0:0:
368,191,57282,1,0,2:0:0:0:
248,142,57460,102,0,P|206:137|170:157,1,84.3750000000002,2|0,1:2|2:0,2:0:0:0:
156,170,57817,22,0,P|105:145|108:85,1,93.75,2|0,1:2|2:0,2:0:0:0:
189,0,58175,22,0,P|271:42|266:135,1,196.875,10|0,2:0|2:0,2:0:0:0:
248,142,58532,102,0,P|226:182|232:228,1,93.75,2|0,1:2|2:0,2:0:0:0:
339,253,58889,86,0,B|242:222|255:309|162:277,1,187.5,2|0,1:2|2:0,2:0:0:0:
106,221,59425,1,0,2:0:0:0:
102,384,59603,2,0,P|79:343|85:297,1,93.75,10|0,2:0|2:0,2:0:0:0:
228,219,59960,2,0,P|204:258|162:277,1,93.75,0|0,2:0|2:0,2:0:0:0:
15,176,60317,102,0,P|56:176|92:198,1,84.3750000000002,2|0,1:2|2:0,2:0:0:0:
106,221,60675,22,0,L|122:128,1,93.75,2|0,1:2|2:0,2:0:0:0:
189,0,61032,22,0,P|230:81|319:60,1,196.875,10|0,2:0|2:0,2:0:0:0:
344,64,61389,102,0,P|333:-8|262:12,1,168.75,2|0,1:2|2:0,2:0:0:0:
228,219,61746,86,0,B|341:186|356:354|221:277|303:207,1,225,6|0,1:2|2:0,2:0:0:0:
363,159,62288,1,0,2:0:0:0:
424,108,62468,2,0,P|440:141|439:178,1,75,10|0,2:0|2:0,2:0:0:0:
387,239,62830,1,0,2:0:0:0:
488,342,63011,1,0,2:0:0:0:
512,275,63191,102,0,P|470:275|434:297,1,84.3750000000002,2|0,1:2|2:0,2:0:0:0:
428,314,63543,22,0,P|381:340|326:323,1,93.75,2|0,1:2|2:0,2:0:0:0:
195,285,63896,22,0,P|156:201|226:143,1,196.875,10|0,2:0|2:0,2:0:0:0:
242,149,64249,102,0,P|260:190|227:219,1,93.75,2|0,1:2|2:0,2:0:0:0:
14,129,64602,54,0,B|-7:120|-21:96|-14:77|-14:77|-1:84|0:102,1,93.75,2|0,1:2|2:0,2:0:0:0:
167,86,64973,2,0,B|181:67|181:39|165:27|165:27|157:39|165:55,1,93.75,0|0,1:2|2:0,2:0:0:0:
112,185,65651,86,0,B|82:135|117:143|87:93|87:93|78:62|78:62|67:81|67:81|12:63|0:16|0:16|41:14|76:54|76:54|87:1|124:-17|124:-17|136:30|98:73,1,525,10|0,2:0|2:0,2:0:0:0:
201,119,66722,1,0,2:0:0:0:
319,59,67079,1,2,2:0:0:0:
308,69,67257,1,2,2:0:0:0:
297,79,67436,22,0,L|272:227,1,150,2|0,2:0|2:0,2:0:0:0:
288,335,68507,101,2,2:0:0:0:
288,335,68864,2,0,B|267:349|267:349|262:373|262:373|243:358|243:358|218:361|218:361|225:338|225:338|215:315|215:315|241:316|241:316|258:299|258:299|266:323,1,225.000000000001,2|2,2:0|2:0,2:0:0:0:
288,335,69975,5,2,2:0:0:0:
288,335,70292,2,0,B|383:394|513:342|499:94|193:-78|77:141|240:275,1,660,2|0,2:0|2:0,2:0:0:0:
