osu file format v14

[General]
AudioFilename: audio.ogg
AudioLeadIn: 0
PreviewTime: 60820
Countdown: 0
SampleSet: Soft
StackLeniency: 0.7
Mode: 3
LetterboxInBreaks: 0
SpecialStyle: 0
WidescreenStoryboard: 0

[Editor]
DistanceSpacing: 1.6
BeatDivisor: 8
GridSize: 4
TimelineZoom: 1.5

[Metadata]
Title:Mirai Yohou Hallelujah! (TV Size)
TitleUnicode:未来予報ハレルヤ! (TV Size)
Artist:Liella!
ArtistUnicode:Liella!
Creator:Nabi-
Version:<3
Source:ラブライブ!スーパースター!!
Tags:ml-ysg [HD]draftz draftz Love Live! Superstar!! Kanon Shibuya 澁谷かのん Keke Tang 唐可可 Ren Hazuki 葉月恋 Sumire Heanna 平安名すみれ Chisato Arashi 嵐千砂都 Date Sayuri 伊達さゆり Liyuu 黎狱 Aoyama Nagisa 青山なぎさ Payton Naomi ペイトン尚未 Misaki Nako 岬なこ Future Forecast EFFY Junko Miyajima 宮嶋淳子 Yosuke Yamashita 山下洋輔 Insert Song Anime Japanese Pop J-Pop JPop Episode1 LACM-24141 LLSIFAS LLAS SIFAS All Stars Allstars All-stars School Idol Festival スクールアイドルフェスティバル
BeatmapID:3223474
BeatmapSetID:1578719

[Difficulty]
HPDrainRate:8
CircleSize:4
OverallDifficulty:8
ApproachRate:5
SliderMultiplier:1.4
SliderTickRate:1

[Events]
//Background and Video events
0,0,"BG.jpg",0,0
Video,69,"newvideoo.mp4"
//Break Periods
//Storyboard Layer 0 (Background)
//Storyboard Layer 1 (Fail)
//Storyboard Layer 2 (Pass)
//Storyboard Layer 3 (Foreground)
//Storyboard Layer 4 (Overlay)
//Storyboard Sound Samples
Sample,45398,0,"Tom2.wav",50
Sample,53488,0,"Tom3.wav",50
Sample,78769,0,"Ride.wav",30
Sample,84163,0,"Hat Open.wav",60
Sample,84837,0,"Hat Open.wav",60
Sample,85679,0,"Hat Open.wav",60
Sample,122252,0,"Tom2.wav",50
Sample,132533,0,"Tom2.wav",50

[TimingPoints]
2590,337.078651685393,4,2,1,50,1,0
61915,-100,4,2,1,50,0,1
80792,-100,4,2,1,50,0,0
103713,-100,4,2,1,50,0,1
122589,-100,4,2,1,50,0,0

[HitObjects]
64,192,7477,5,2,0:0:0:0:
192,192,7477,1,0,0:0:0:0:
320,192,7561,1,0,0:0:0:0:
64,192,7646,1,8,0:0:0:0:
192,192,7646,1,4,0:0:0:0:
448,192,7646,1,0,0:0:0:0:
320,192,7814,128,0,7983:0:0:0:0:
64,192,7983,128,2,8151:0:0:0:0:
192,192,7983,1,4,0:0:0:0:
448,192,7983,1,0,0:0:0:0:
192,192,8320,128,8,8488:0:0:0:0:
320,192,8320,1,0,0:0:0:0:
448,192,8320,1,0,0:0:0:0:
64,192,8488,1,2,0:0:0:0:
320,192,8488,1,4,0:0:0:0:
448,192,8488,128,0,8657:0:0:0:0:
192,192,8825,1,2,0:0:0:0:
320,192,8825,128,0,8994:0:0:0:0:
64,192,8994,1,8,0:0:0:0:
192,192,8994,1,0,0:0:0:40:Hat Close.wav
448,192,8994,1,0,0:0:0:0:
64,192,9163,1,2,0:0:0:0:
320,192,9163,1,4,0:0:0:0:
448,192,9163,128,0,9500:0:0:0:0:
64,192,9500,1,0,0:0:0:50:Tom2.wav
192,192,9500,1,0,0:0:0:0:
192,192,9668,1,0,0:0:0:50:Tom3.wav
320,192,9668,128,0,9837:0:0:0:0:
64,192,9837,1,2,0:0:0:0:
448,192,9837,1,0,0:0:0:0:
192,192,10005,128,8,10089:0:0:0:0:
320,192,10005,128,0,10089:0:0:0:0:
448,192,10005,128,0,10089:0:0:0:0:
64,192,10174,128,2,10258:0:0:0:0:
192,192,10174,128,0,10258:0:0:0:50:Hat Open.wav
320,192,10174,128,0,10258:0:0:0:0:
64,192,10679,128,2,11185:0:0:0:0:
192,192,10679,1,4,0:0:0:0:
448,192,10679,1,0,0:0:0:0:
64,192,11354,128,0,11522:0:0:0:0:
192,192,11522,128,0,11691:0:0:0:0:
320,192,11691,128,0,11859:0:0:0:0:
64,192,11859,1,2,0:0:0:0:
192,192,11859,1,4,0:0:0:0:
448,192,11859,128,0,12702:0:0:0:0:
320,192,12533,1,0,0:0:0:0:
192,192,12618,1,0,0:0:0:0:
64,192,12702,128,0,13039:0:0:0:30:Ride.wav
448,192,12870,1,0,0:0:0:30:Ride.wav
192,192,13039,128,0,13376:0:0:0:30:Ride.wav
64,192,13376,1,2,0:0:0:0:
320,192,13376,128,4,13713:0:0:0:0:
448,192,13376,1,0,0:0:0:0:
192,192,13713,128,0,14050:0:0:0:0:
64,192,14050,128,0,14387:0:0:0:50:Tom1.wav
448,192,14050,1,0,0:0:0:0:
320,192,14219,1,0,0:0:0:50:Tom2.wav
192,192,14387,1,0,0:0:0:50:Tom3.wav
448,192,14387,1,0,0:0:0:0:
320,192,14472,1,0,0:0:0:0:
64,192,14556,1,0,0:0:0:0:
192,192,14556,1,0,0:0:0:0:
320,192,14640,1,0,0:0:0:0:
64,192,14724,1,2,0:0:0:0:
192,192,14724,1,4,0:0:0:0:
448,192,14724,128,0,15061:0:0:0:0:
64,192,15061,128,8,15230:0:0:0:0:
192,192,15061,1,0,0:0:0:0:
320,192,15061,1,0,0:0:0:0:
192,192,15230,1,2,0:0:0:0:
320,192,15230,128,4,15567:0:0:0:0:
448,192,15230,1,0,0:0:0:0:
192,192,15567,128,0,15736:0:0:0:0:
64,192,15736,1,8,0:0:0:0:
320,192,15736,1,0,0:0:0:50:Tom3.wav
448,192,15736,1,0,0:0:0:0:
192,192,15904,128,2,15988:0:0:0:0:
320,192,15988,128,0,16073:0:0:0:0:
64,192,16073,1,4,0:0:0:0:
192,192,16073,1,2,0:0:0:0:
448,192,16073,128,0,16241:0:0:0:0:
320,192,16241,128,0,16410:0:0:0:0:
64,192,16410,128,8,16578:0:0:0:0:
192,192,16410,1,0,0:0:0:40:Hat Close.wav
448,192,16410,1,0,0:0:0:0:
192,192,16578,1,2,0:0:0:0:
320,192,16578,1,4,0:0:0:0:
448,192,16578,128,0,16915:0:0:0:0:
192,192,16915,1,2,0:0:0:0:
320,192,16915,128,0,17084:0:0:0:0:
64,192,17084,1,8,0:0:0:0:
192,192,17084,128,0,17252:0:0:0:40:Hat Close.wav
448,192,17084,1,0,0:0:0:0:
64,192,17252,128,2,17589:0:0:0:0:
320,192,17252,1,4,0:0:0:0:
448,192,17252,1,0,0:0:0:0:
320,192,17589,128,2,17674:0:0:0:0:
448,192,17589,128,0,17674:0:0:0:0:
64,192,17758,128,8,17842:0:0:0:0:
192,192,17758,128,0,17842:0:0:0:40:Hat Close.wav
448,192,17758,1,0,0:0:0:0:
192,192,17927,128,8,18011:0:0:0:0:
320,192,17927,128,0,18011:0:0:0:0:
320,192,18095,128,2,18179:0:0:0:0:
448,192,18095,128,0,18179:0:0:0:40:Hat Close.wav
64,192,18264,128,0,18348:0:0:0:50:Tom1.wav
448,192,18264,128,0,18348:0:0:0:0:
64,192,18432,128,0,18516:0:0:0:40:Hat Close.wav
192,192,18432,128,0,18516:0:0:0:50:Tom2.wav
192,192,18601,128,0,18685:0:0:0:50:Tom3.wav
320,192,18601,128,0,18685:0:0:0:0:
64,192,18769,1,4,0:0:0:0:
320,192,18769,1,2,0:0:0:0:
448,192,18769,128,0,18938:0:0:0:0:
192,192,18938,128,0,19106:0:0:0:0:
64,192,19106,1,8,0:0:0:0:
320,192,19106,128,0,19275:0:0:0:40:Hat Close.wav
448,192,19106,1,0,0:0:0:0:
64,192,19275,128,2,19612:0:0:0:0:
192,192,19275,1,4,0:0:0:0:
448,192,19275,1,0,0:0:0:0:
320,192,19612,1,2,0:0:0:0:
192,192,19612,128,0,19781:0:0:0:0:
64,192,19781,1,8,0:0:0:0:
320,192,19781,128,0,19949:0:0:0:40:Hat Close.wav
448,192,19781,1,0,0:0:0:0:
64,192,19949,1,2,0:0:0:0:
192,192,19949,1,4,0:0:0:0:
448,192,19949,128,0,20792:0:0:0:0:
192,192,20286,1,0,0:0:0:50:Tom1.wav
64,192,20328,1,0,0:0:0:0:
320,192,20455,1,0,0:0:0:50:Tom3.wav
192,192,20623,1,2,0:0:0:0:
64,192,20792,128,8,20876:0:0:0:0:
192,192,20792,128,0,20876:0:0:0:50:Tom3.wav
320,192,20792,128,0,20876:0:0:0:0:
64,192,20960,128,8,21045:0:0:0:0:
192,192,20960,128,0,21045:0:0:0:50:Tom3.wav
320,192,20960,128,0,21045:0:0:0:0:
64,192,21466,1,4,0:0:0:0:
192,192,21466,1,2,0:0:0:0:
448,192,21466,1,0,0:0:0:0:
64,192,21803,128,8,21972:0:0:0:0:
320,192,21803,1,0,0:0:0:40:Hat Close.wav
448,192,21803,1,0,0:0:0:0:
192,192,21972,128,0,22140:0:0:0:0:
320,192,22140,1,2,0:0:0:0:
448,192,22140,1,0,0:0:0:40:Hat Close.wav
64,192,22309,1,2,0:0:0:0:
320,192,22309,128,0,22477:0:0:0:0:
64,192,22477,1,8,0:0:0:0:
192,192,22477,1,0,0:0:0:40:Hat Close.wav
448,192,22477,1,0,0:0:0:0:
320,192,22646,1,2,0:0:0:0:
448,192,22646,128,0,22983:0:0:0:0:
64,192,22814,1,0,0:0:0:40:Hat Close.wav
192,192,22983,1,2,0:0:0:0:
320,192,22983,1,0,0:0:0:0:
64,192,23151,1,8,0:0:0:0:
192,192,23151,1,0,0:0:0:40:Hat Close.wav
448,192,23151,1,0,0:0:0:0:
320,192,23488,128,2,23657:0:0:0:0:
448,192,23488,1,0,0:0:0:40:Hat Close.wav
64,192,23657,1,2,0:0:0:0:
192,192,23657,1,0,0:0:0:0:
64,192,23825,128,8,23994:0:0:0:0:
320,192,23825,1,0,0:0:0:40:Hat Close.wav
448,192,23825,1,0,0:0:0:0:
192,192,24163,1,2,0:0:0:0:
320,192,24163,128,0,24500:0:0:0:40:Hat Close.wav
64,192,24500,1,8,0:0:0:0:
192,192,24500,1,0,0:0:0:40:Hat Close.wav
448,192,24500,128,0,24668:0:0:0:0:
320,192,24668,128,0,24837:0:0:0:0:
64,192,24837,1,2,0:0:0:0:
192,192,24837,1,0,0:0:0:40:Hat Close.wav
192,192,25005,128,2,25174:0:0:0:0:
448,192,25005,1,0,0:0:0:0:
64,192,25174,1,8,0:0:0:0:
320,192,25174,1,0,0:0:0:40:Hat Close.wav
448,192,25174,1,0,0:0:0:0:
64,192,25342,128,2,25679:0:0:0:0:
192,192,25342,1,0,0:0:0:0:
448,192,25511,1,0,0:0:0:40:Hat Close.wav
192,192,25679,1,2,0:0:0:0:
320,192,25679,1,0,0:0:0:0:
64,192,25848,1,8,0:0:0:0:
320,192,25848,1,0,0:0:0:40:Hat Close.wav
448,192,25848,1,0,0:0:0:0:
64,192,26185,128,2,26354:0:0:0:0:
192,192,26185,1,0,0:0:0:40:Hat Close.wav
320,192,26354,128,2,26522:0:0:0:0:
448,192,26354,1,0,0:0:0:0:
64,192,26522,1,8,0:0:0:0:
192,192,26522,1,0,0:0:0:40:Hat Close.wav
448,192,26522,128,0,26691:0:0:0:0:
192,192,26691,128,0,26859:0:0:0:0:
64,192,26859,1,2,0:0:0:0:
320,192,26859,1,0,0:0:0:40:Hat Close.wav
448,192,27028,1,0,0:0:0:0:
64,192,27196,1,8,0:0:0:0:
192,192,27196,128,0,27533:0:0:0:40:Hat Close.wav
448,192,27196,1,0,0:0:0:0:
320,192,27533,1,2,0:0:0:0:
448,192,27533,1,0,0:0:0:40:Hat Close.wav
64,192,27702,1,2,0:0:0:0:
192,192,27702,1,0,0:0:0:0:
64,192,27870,128,8,28039:0:0:0:0:
320,192,27870,1,0,0:0:0:40:Hat Close.wav
448,192,27870,1,0,0:0:0:0:
320,192,28039,128,0,28207:0:0:0:0:
64,192,28207,1,2,0:0:0:0:
448,192,28207,1,0,0:0:0:40:Hat Close.wav
192,192,28376,1,0,0:0:0:0:
192,192,28545,128,8,28882:0:0:0:0:
320,192,28545,1,0,0:0:0:40:Hat Close.wav
448,192,28545,1,0,0:0:0:0:
64,192,28713,1,2,0:0:0:0:
448,192,28713,1,0,0:0:0:0:
320,192,28882,1,0,0:0:0:40:Hat Close.wav
64,192,29050,1,2,0:0:0:0:
448,192,29050,1,0,0:0:0:0:
192,192,29219,1,8,0:0:0:0:
320,192,29219,1,0,0:0:0:40:Hat Close.wav
448,192,29219,1,0,0:0:0:0:
320,192,29387,128,0,29556:0:0:0:0:
64,192,29556,1,2,0:0:0:0:
448,192,29556,1,0,0:0:0:40:Hat Close.wav
64,192,29724,128,0,29893:0:0:0:0:
192,192,29893,1,8,0:0:0:0:
320,192,29893,1,0,0:0:0:40:Hat Close.wav
448,192,29893,1,0,0:0:0:0:
192,192,30061,128,0,30230:0:0:0:0:
64,192,30230,1,2,0:0:0:0:
448,192,30230,1,0,0:0:0:40:Hat Close.wav
192,192,30398,1,2,0:0:0:0:
320,192,30398,128,0,30567:0:0:0:0:
64,192,30567,1,8,0:0:0:0:
192,192,30567,1,0,0:0:0:40:Hat Close.wav
448,192,30567,1,0,0:0:0:0:
64,192,30736,1,2,0:0:0:0:
320,192,30736,1,4,0:0:0:0:
448,192,30736,128,0,31073:0:0:0:0:
64,192,31073,1,2,0:0:0:0:
192,192,31073,1,0,0:0:0:0:
64,192,31241,128,8,31410:0:0:0:0:
320,192,31241,1,0,0:0:0:40:Hat Close.wav
448,192,31241,1,0,0:0:0:0:
192,192,31410,1,0,0:0:0:0:
320,192,31578,128,2,31747:0:0:0:0:
448,192,31578,1,0,0:0:0:40:Hat Close.wav
64,192,31747,1,2,0:0:0:0:
192,192,31747,1,0,0:0:0:0:
192,192,31915,128,8,32084:0:0:0:0:
320,192,31915,1,0,0:0:0:40:Hat Close.wav
448,192,31915,1,0,0:0:0:0:
64,192,32252,128,4,32421:0:0:0:0:
192,192,32252,1,2,0:0:0:0:
448,192,32252,1,0,0:0:0:0:
64,192,32589,1,8,0:0:0:0:
320,192,32589,128,0,32758:0:0:0:40:Hat Close.wav
448,192,32589,1,0,0:0:0:0:
192,192,32758,128,0,32927:0:0:0:0:
320,192,32927,1,2,0:0:0:0:
448,192,32927,1,0,0:0:0:40:Hat Close.wav
64,192,33095,1,2,0:0:0:0:
192,192,33095,1,0,0:0:0:0:
64,192,33264,1,8,0:0:0:0:
320,192,33264,1,0,0:0:0:40:Hat Close.wav
448,192,33264,1,0,0:0:0:0:
192,192,33432,1,2,0:0:0:0:
320,192,33432,128,0,33769:0:0:0:0:
448,192,33601,1,0,0:0:0:40:Hat Close.wav
64,192,33769,1,2,0:0:0:0:
192,192,33769,1,0,0:0:0:0:
64,192,33938,1,8,0:0:0:0:
320,192,33938,1,0,0:0:0:40:Hat Close.wav
448,192,33938,1,0,0:0:0:0:
192,192,34106,128,0,34275:0:0:0:0:
64,192,34275,1,2,0:0:0:0:
448,192,34275,128,0,34443:0:0:0:40:Hat Close.wav
192,192,34443,1,2,0:0:0:0:
320,192,34443,1,0,0:0:0:0:
64,192,34612,128,8,34781:0:0:0:0:
320,192,34612,1,0,0:0:0:40:Hat Close.wav
448,192,34612,1,0,0:0:0:0:
192,192,34949,1,2,0:0:0:0:
320,192,34949,128,0,35118:0:0:0:40:Hat Close.wav
64,192,35286,128,8,35455:0:0:0:0:
192,192,35286,1,0,0:0:0:40:Hat Close.wav
448,192,35286,1,0,0:0:0:0:
448,192,35455,128,0,35623:0:0:0:0:
64,192,35623,1,2,0:0:0:0:
192,192,35623,1,0,0:0:0:40:Hat Close.wav
320,192,35792,128,2,35960:0:0:0:0:
448,192,35792,1,0,0:0:0:0:
64,192,35960,1,8,0:0:0:0:
192,192,35960,1,0,0:0:0:40:Hat Close.wav
448,192,35960,1,0,0:0:0:0:
192,192,36129,128,2,36466:0:0:0:0:
320,192,36129,1,0,0:0:0:0:
64,192,36297,1,0,0:0:0:40:Hat Close.wav
320,192,36466,1,2,0:0:0:0:
448,192,36466,1,0,0:0:0:0:
64,192,36634,1,8,0:0:0:0:
192,192,36634,1,0,0:0:0:40:Hat Close.wav
448,192,36634,1,0,0:0:0:0:
192,192,36803,1,0,0:0:0:0:
320,192,36972,1,2,0:0:0:0:
448,192,36972,1,0,0:0:0:40:Hat Close.wav
192,192,37140,1,2,0:0:0:0:
320,192,37140,1,0,0:0:0:0:
64,192,37309,1,8,0:0:0:0:
192,192,37309,1,0,0:0:0:50:Hat Open.wav
448,192,37309,1,0,0:0:0:0:
320,192,37477,1,0,0:0:0:0:
64,192,37646,1,2,0:0:0:0:
192,192,37646,1,4,0:0:0:0:
448,192,37646,1,0,0:0:0:0:
320,192,37814,1,0,0:0:0:0:
64,192,37983,128,8,38151:0:0:0:0:
320,192,37983,1,0,0:0:0:40:Hat Close.wav
448,192,37983,1,0,0:0:0:0:
192,192,38151,128,0,38320:0:0:0:0:
320,192,38320,128,2,38488:0:0:0:0:
448,192,38320,1,0,0:0:0:40:Hat Close.wav
64,192,38488,1,2,0:0:0:0:
192,192,38488,1,0,0:0:0:0:
64,192,38657,128,8,38825:0:0:0:0:
320,192,38657,1,0,0:0:0:40:Hat Close.wav
448,192,38657,1,0,0:0:0:0:
320,192,38825,128,0,38994:0:0:0:0:
64,192,38994,1,2,0:0:0:0:
192,192,38994,1,4,0:0:0:0:
448,192,38994,1,0,0:0:0:0:
320,192,39163,1,0,0:0:0:0:
64,192,39331,1,8,0:0:0:0:
192,192,39331,1,0,0:0:0:0:
320,192,39331,1,0,0:0:0:0:
64,192,39500,1,2,0:0:0:0:
192,192,39500,1,4,0:0:0:0:
448,192,39500,128,0,39837:0:0:0:0:
192,192,39837,1,2,0:0:0:0:
320,192,39837,128,0,40005:0:0:0:0:
64,192,40005,1,8,0:0:0:0:
192,192,40005,128,0,40342:0:0:0:50:Hat Open.wav
448,192,40005,1,0,0:0:0:0:
320,192,40174,128,0,40342:0:0:0:0:
64,192,40342,1,2,0:0:0:0:
448,192,40342,128,4,40511:0:0:0:0:
64,192,40511,128,2,40679:0:0:0:0:
192,192,40511,1,0,0:0:0:0:
192,192,40679,1,8,0:0:0:0:
320,192,40679,1,0,0:0:0:0:
448,192,40679,1,0,0:0:0:0:
64,192,40848,128,2,41016:0:0:0:0:
448,192,40848,128,0,41016:0:0:0:50:Hat Open.wav
192,192,41185,128,2,41354:0:0:0:0:
320,192,41185,128,0,41354:0:0:0:50:Hat Open.wav
64,192,41522,128,2,42028:0:0:0:0:
192,192,41522,128,4,41859:0:0:0:0:
448,192,41522,1,0,0:0:0:0:
320,192,41859,128,2,42028:0:0:0:0:
448,192,41859,1,0,0:0:0:0:
192,192,42028,128,8,42196:0:0:0:0:
448,192,42028,1,0,0:0:0:50:Hat Open.wav
64,192,42196,128,8,42365:0:0:0:0:
320,192,42196,1,0,0:0:0:0:
192,192,42281,1,8,0:0:0:0:
320,192,42365,128,2,42449:0:0:0:0:
448,192,42365,128,8,42449:0:0:0:0:
64,192,42533,128,0,42618:0:0:0:50:Tom1.wav
448,192,42533,128,0,42618:0:0:0:0:
64,192,42702,128,0,42786:0:0:0:50:Tom2.wav
192,192,42702,128,0,42786:0:0:0:0:
192,192,42870,128,0,42955:0:0:0:50:Tom3.wav
320,192,42870,128,0,42955:0:0:0:0:
64,192,43039,128,4,43207:0:0:0:0:
320,192,43039,128,2,43207:0:0:0:0:
448,192,43039,128,0,43207:0:0:0:0:
64,192,43376,1,2,0:0:0:0:
192,192,43376,128,0,43545:0:0:0:0:
448,192,43545,1,0,0:0:0:0:
64,192,43713,1,2,0:0:0:0:
448,192,43713,128,0,43882:0:0:0:25:Hat Close.wav
192,192,43882,1,0,0:0:0:25:Hat Close.wav
64,192,44050,1,2,0:0:0:0:
320,192,44050,1,8,0:0:0:0:
448,192,44050,1,0,0:0:0:40:Hat Close.wav
320,192,44219,128,0,44387:0:0:0:0:
64,192,44387,1,2,0:0:0:0:
192,192,44387,1,0,0:0:0:40:Hat Close.wav
448,192,44556,1,0,0:0:0:0:
64,192,44724,1,2,0:0:0:0:
448,192,44724,1,0,0:0:0:40:Hat Close.wav
64,192,44893,1,0,0:0:0:0:
192,192,45061,1,2,0:0:0:0:
448,192,45061,128,0,45398:0:0:0:25:Hat Close.wav
64,192,45230,1,0,0:0:0:25:Hat Close.wav
320,192,45230,1,0,0:0:0:50:Tom1.wav
64,192,45398,1,2,0:0:0:0:
192,192,45398,128,0,45736:0:0:0:40:Hat Close.wav
320,192,45567,128,0,45736:0:0:0:0:
64,192,45736,128,2,45904:0:0:0:0:
448,192,45736,1,0,0:0:0:25:Hat Close.wav
448,192,45904,128,0,46073:0:0:0:25:Hat Close.wav
64,192,46073,1,2,0:0:0:0:
192,192,46073,1,0,0:0:0:40:Hat Close.wav
320,192,46241,128,0,46578:0:0:0:0:
64,192,46410,1,2,0:0:0:0:
448,192,46410,1,0,0:0:0:40:Hat Close.wav
192,192,46578,128,0,46747:0:0:0:0:
64,192,46747,1,2,0:0:0:0:
320,192,46747,1,8,0:0:0:0:
448,192,46747,1,0,0:0:0:40:Hat Close.wav
448,192,46915,128,0,47084:0:0:0:0:
64,192,47084,1,2,0:0:0:0:
192,192,47084,1,0,0:0:0:40:Hat Close.wav
320,192,47252,128,0,47421:0:0:0:0:
192,192,47421,1,2,0:0:0:0:
448,192,47421,1,0,0:0:0:40:Hat Close.wav
64,192,47589,1,0,0:0:0:0:
64,192,47758,128,2,47927:0:0:0:0:
320,192,47758,128,0,47927:0:0:0:40:Hat Close.wav
192,192,47927,1,2,0:0:0:0:
448,192,47927,1,0,0:0:0:0:
64,192,48095,1,8,0:0:0:0:
320,192,48095,128,0,48264:0:0:0:40:Hat Close.wav
448,192,48095,128,0,48264:0:0:0:0:
64,192,48432,128,2,48769:0:0:0:0:
192,192,48432,128,4,48601:0:0:0:0:
448,192,48432,1,0,0:0:0:0:
320,192,48769,128,2,48938:0:0:0:0:
448,192,48769,1,0,0:0:0:40:Hat Close.wav
192,192,48938,1,0,0:0:0:0:
64,192,49106,128,2,49275:0:0:0:0:
192,192,49106,1,0,0:0:0:40:Hat Close.wav
448,192,49275,1,0,0:0:0:0:
64,192,49443,1,2,0:0:0:0:
192,192,49443,1,8,0:0:0:0:
320,192,49443,1,0,0:0:0:40:Hat Close.wav
320,192,49612,128,0,49781:0:0:0:0:
192,192,49781,1,2,0:0:0:0:
448,192,49781,1,0,0:0:0:40:Hat Close.wav
64,192,49949,128,0,50118:0:0:0:0:
192,192,50118,128,2,50286:0:0:0:0:
320,192,50118,1,0,0:0:0:40:Hat Close.wav
448,192,50286,1,0,0:0:0:0:
64,192,50455,1,2,0:0:0:0:
448,192,50455,128,0,50792:0:0:0:40:Hat Close.wav
192,192,50623,1,0,0:0:0:50:Tom1.wav
320,192,50623,1,0,0:0:0:0:
64,192,50792,1,2,0:0:0:0:
192,192,50792,1,0,0:0:0:50:Tom2.wav
320,192,50960,128,0,51129:0:0:0:50:Tom3.wav
64,192,51129,1,2,0:0:0:0:
192,192,51129,1,4,0:0:0:0:
448,192,51129,1,0,0:0:0:0:
448,192,51297,128,0,51466:0:0:0:0:
64,192,51466,1,2,0:0:0:0:
320,192,51466,1,0,0:0:0:0:
192,192,51634,128,0,51803:0:0:0:0:
64,192,51803,1,2,0:0:0:0:
448,192,51803,1,0,0:0:0:40:Hat Close.wav
320,192,51972,128,0,52140:0:0:0:0:
64,192,52140,1,2,0:0:0:0:
448,192,52140,1,0,0:0:0:40:Hat Close.wav
64,192,52309,1,4,0:0:0:0:
192,192,52309,128,8,52646:0:0:0:0:
320,192,52309,1,0,0:0:0:0:
320,192,52477,1,2,0:0:0:0:
64,192,52646,1,0,0:0:0:50:Tom1.wav
448,192,52646,1,0,0:0:0:0:
192,192,52814,1,2,0:0:0:0:
320,192,52814,128,0,52983:0:0:0:40:Hat Close.wav
64,192,52983,1,0,0:0:0:50:Tom2.wav
448,192,52983,128,0,53151:0:0:0:0:
64,192,53151,1,2,0:0:0:0:
192,192,53151,128,0,53320:0:0:0:40:Hat Close.wav
320,192,53320,128,0,53488:0:0:0:50:Tom3.wav
448,192,53320,1,0,0:0:0:0:
64,192,53488,128,2,53657:0:0:0:0:
448,192,53488,1,0,0:0:0:40:Hat Close.wav
192,192,53657,128,0,53825:0:0:0:0:
64,192,53825,1,4,0:0:0:0:
320,192,53825,1,2,0:0:0:0:
448,192,53825,128,0,53994:0:0:0:0:
320,192,53994,128,0,54163:0:0:0:0:
64,192,54163,1,8,0:0:0:0:
192,192,54163,1,0,0:0:0:50:Hat Open.wav
448,192,54163,1,0,0:0:0:0:
192,192,54331,128,0,54500:0:0:0:0:
64,192,54500,1,2,0:0:0:0:
320,192,54500,1,0,0:0:0:50:Hat Open.wav
192,192,54668,1,2,0:0:0:0:
320,192,54668,128,0,54837:0:0:0:0:
64,192,54837,1,8,0:0:0:0:
192,192,54837,1,0,0:0:0:50:Hat Open.wav
448,192,54837,1,0,0:0:0:0:
64,192,55005,128,2,55342:0:0:0:0:
320,192,55005,1,4,0:0:0:0:
448,192,55005,128,0,55342:0:0:0:0:
192,192,55342,1,2,0:0:0:0:
320,192,55342,1,0,0:0:0:0:
64,192,55511,1,8,0:0:0:0:
192,192,55511,1,0,0:0:0:50:Hat Open.wav
448,192,55511,128,0,55679:0:0:0:0:
320,192,55679,1,8,0:0:0:0:
192,192,55764,1,8,0:0:0:0:
64,192,55848,1,8,0:0:0:0:
320,192,55848,128,2,56016:0:0:0:0:
192,192,56016,1,0,0:0:0:50:Tom1.wav
448,192,56016,1,0,0:0:0:0:
64,192,56185,1,2,0:0:0:0:
448,192,56185,1,0,0:0:0:50:Tom2.wav
192,192,56354,1,0,0:0:0:50:Tom3.wav
320,192,56354,1,0,0:0:0:0:
64,192,56522,1,2,0:0:0:0:
448,192,56522,1,0,0:0:0:0:
64,192,56691,128,8,56859:0:0:0:0:
320,192,56691,128,4,56859:0:0:0:0:
448,192,56691,128,0,56859:0:0:0:0:
64,192,57028,128,8,57365:0:0:0:0:
320,192,57028,128,4,57365:0:0:0:0:
448,192,57028,128,0,57365:0:0:0:0:
192,192,57365,1,0,0:0:0:50:Tom3.wav
320,192,57533,1,2,0:0:0:0:
64,192,57702,128,8,57870:0:0:0:0:
192,192,57702,128,4,57870:0:0:0:0:
448,192,57702,128,0,57870:0:0:0:0:
64,192,58039,128,8,58376:0:0:0:0:
192,192,58039,128,4,58376:0:0:0:0:
448,192,58039,128,0,58376:0:0:0:0:
320,192,58376,1,2,0:0:0:0:
192,192,58460,1,2,0:0:0:0:
64,192,58545,128,8,58629:0:0:0:0:
320,192,58545,1,0,0:0:0:50:Tom2.wav
448,192,58545,128,0,58629:0:0:0:0:
192,192,58713,1,2,0:0:0:0:
320,192,58797,1,2,0:0:0:0:
64,192,58882,128,8,59219:0:0:0:0:
192,192,58882,128,4,59219:0:0:0:0:
448,192,58882,1,0,0:0:0:0:
320,192,59219,1,2,0:0:0:0:
448,192,59219,1,0,0:0:0:0:
64,192,59387,1,8,0:0:0:0:
192,192,59387,1,0,0:0:0:50:Tom1.wav
448,192,59387,1,0,0:0:0:0:
64,192,59556,1,8,0:0:0:0:
192,192,59556,1,0,0:0:0:50:Tom1.wav
448,192,59556,1,0,0:0:0:0:
320,192,59724,1,2,0:0:0:0:
64,192,59893,1,8,0:0:0:0:
192,192,59893,1,0,0:0:0:50:Tom3.wav
448,192,59893,1,0,0:0:0:0:
64,192,60061,1,8,0:0:0:0:
320,192,60061,1,0,0:0:0:50:Tom3.wav
448,192,60061,1,0,0:0:0:0:
192,192,60230,1,2,0:0:0:0:
64,192,60398,1,8,0:0:0:0:
192,192,60398,1,4,0:0:0:0:
320,192,60398,128,2,61241:0:0:0:0:
448,192,60398,128,0,61578:0:0:0:0:
64,192,60904,128,0,61241:0:0:0:0:
192,192,61241,128,0,61578:0:0:0:0:
320,192,61578,128,0,61915:0:0:0:0:
64,192,61915,1,2,0:0:0:0:
192,192,61915,1,4,0:0:0:0:
448,192,61915,128,0,62589:0:0:0:0:
192,192,62252,1,8,0:0:0:0:
320,192,62252,1,0,0:0:0:30:Ride.wav
64,192,62589,128,2,63264:0:0:0:0:
320,192,62589,1,0,0:0:0:30:Ride.wav
192,192,62758,1,2,0:0:0:0:
448,192,62758,1,0,0:0:0:0:
320,192,62927,1,8,0:0:0:0:
448,192,62927,1,0,0:0:0:30:Ride.wav
192,192,63264,1,2,0:0:0:0:
320,192,63264,128,0,63938:0:0:0:0:
64,192,63432,1,2,0:0:0:0:
448,192,63432,1,0,0:0:0:0:
64,192,63601,1,8,0:0:0:0:
192,192,63601,1,0,0:0:0:30:Ride.wav
192,192,63938,128,2,64612:0:0:0:0:
448,192,63938,1,0,0:0:0:30:Ride.wav
64,192,64106,1,2,0:0:0:0:
320,192,64106,1,0,0:0:0:0:
64,192,64275,1,8,0:0:0:0:
448,192,64275,1,0,0:0:0:30:Ride.wav
320,192,64612,128,2,64949:0:0:0:0:
448,192,64612,1,0,0:0:0:0:
64,192,64949,128,8,65118:0:0:0:0:
192,192,64949,1,0,0:0:0:30:Ride.wav
448,192,64949,1,0,0:0:0:0:
192,192,65118,128,2,65455:0:0:0:0:
320,192,65118,1,0,0:0:0:0:
64,192,65286,1,0,0:0:0:30:Ride.wav
320,192,65455,1,2,0:0:0:0:
448,192,65455,1,0,0:0:0:0:
64,192,65623,1,8,0:0:0:0:
192,192,65623,1,0,0:0:0:30:Ride.wav
448,192,65623,1,0,0:0:0:0:
320,192,65792,1,0,0:0:0:0:
192,192,65960,1,2,0:0:0:0:
320,192,65960,128,0,66297:0:0:0:0:
64,192,66297,1,8,0:0:0:0:
192,192,66297,1,0,0:0:0:30:Ride.wav
448,192,66297,128,0,66634:0:0:0:0:
192,192,66466,128,0,66634:0:0:0:0:
64,192,66634,1,2,0:0:0:0:
320,192,66634,1,0,0:0:0:30:Ride.wav
192,192,66803,1,2,0:0:0:0:
320,192,66803,128,0,66972:0:0:0:0:
64,192,66972,1,8,0:0:0:0:
192,192,66972,1,0,0:0:0:30:Ride.wav
448,192,66972,1,0,0:0:0:0:
64,192,67140,128,0,67983:0:0:0:0:
192,192,67309,1,2,0:0:0:0:
320,192,67309,1,4,0:0:0:0:
448,192,67309,128,0,67983:0:0:0:0:
192,192,67646,128,8,67814:0:0:0:0:
320,192,67646,1,0,0:0:0:30:Ride.wav
320,192,67814,128,0,67983:0:0:0:0:
192,192,67983,128,2,68151:0:0:0:0:
320,192,68151,1,2,0:0:0:0:
448,192,68151,1,0,0:0:0:0:
64,192,68320,1,8,0:0:0:0:
192,192,68320,1,0,0:0:0:30:Ride.wav
448,192,68320,128,0,68657:0:0:0:0:
64,192,68657,128,4,68994:0:0:0:0:
192,192,68657,1,2,0:0:0:0:
320,192,68657,1,0,0:0:0:0:
320,192,68825,1,2,0:0:0:0:
448,192,68825,1,0,0:0:0:0:
192,192,68994,1,8,0:0:0:0:
448,192,68994,1,0,0:0:0:30:Ride.wav
64,192,69163,1,2,0:0:0:0:
192,192,69163,1,4,0:0:0:0:
320,192,69163,128,0,69500:0:0:0:0:
192,192,69500,1,2,0:0:0:0:
448,192,69500,1,0,0:0:0:0:
64,192,69668,1,8,0:0:0:0:
320,192,69668,1,0,0:0:0:30:Ride.wav
448,192,69668,1,0,0:0:0:0:
192,192,69837,128,0,70005:0:0:0:0:
64,192,70005,1,2,0:0:0:0:
320,192,70005,1,4,0:0:0:0:
448,192,70005,128,0,70174:0:0:0:0:
192,192,70174,1,2,0:0:0:0:
320,192,70174,128,0,70342:0:0:0:0:
64,192,70342,1,8,0:0:0:0:
192,192,70342,1,0,0:0:0:0:
448,192,70342,1,0,0:0:0:0:
64,192,70511,128,2,70679:0:0:0:0:
448,192,70511,128,0,70679:0:0:0:50:Hat Open.wav
320,192,70679,1,0,0:0:0:0:
64,192,70848,128,2,71016:0:0:0:0:
192,192,70848,128,0,71016:0:0:0:50:Hat Open.wav
320,192,71016,1,0,0:0:0:0:
64,192,71185,128,2,71522:0:0:0:0:
192,192,71185,1,4,0:0:0:0:
448,192,71185,128,0,71522:0:0:0:0:
192,192,71522,1,2,0:0:0:0:
320,192,71522,1,0,0:0:0:0:
64,192,71691,1,8,0:0:0:0:
320,192,71691,1,4,0:0:0:0:
448,192,71691,1,0,0:0:0:0:
192,192,71859,1,0,0:0:0:0:
320,192,71943,1,0,0:0:0:20:soft-hitclap.wav
64,192,72028,1,2,0:0:0:0:
192,192,72028,1,0,0:0:0:25:soft-hitclap.wav
448,192,72112,1,0,0:0:0:25:soft-hitclap.wav
320,192,72196,1,0,0:0:0:30:soft-hitclap.wav
192,192,72281,1,0,0:0:0:30:soft-hitclap.wav
320,192,72365,1,2,0:0:0:0:
448,192,72365,1,0,0:0:0:40:soft-hitclap.wav
64,192,72449,1,0,0:0:0:40:soft-hitclap.wav
192,192,72533,1,8,0:0:0:0:
320,192,72618,1,8,0:0:0:0:
64,192,72702,1,4,0:0:0:0:
192,192,72702,1,2,0:0:0:0:
448,192,72702,128,0,73376:0:0:0:0:
192,192,73039,1,8,0:0:0:0:
320,192,73039,1,0,0:0:0:30:Ride.wav
64,192,73376,128,2,74050:0:0:0:0:
320,192,73376,1,0,0:0:0:30:Ride.wav
192,192,73545,1,2,0:0:0:0:
448,192,73545,1,0,0:0:0:0:
320,192,73713,1,8,0:0:0:0:
448,192,73713,1,0,0:0:0:30:Ride.wav
192,192,74050,1,2,0:0:0:0:
320,192,74050,128,0,74724:0:0:0:0:
64,192,74219,1,2,0:0:0:0:
448,192,74219,1,0,0:0:0:0:
64,192,74387,1,8,0:0:0:0:
192,192,74387,1,0,0:0:0:30:Ride.wav
192,192,74724,128,2,75398:0:0:0:0:
448,192,74724,1,0,0:0:0:30:Ride.wav
64,192,74893,1,2,0:0:0:0:
320,192,74893,1,0,0:0:0:0:
64,192,75061,1,8,0:0:0:0:
448,192,75061,1,0,0:0:0:30:Ride.wav
320,192,75398,128,2,75736:0:0:0:0:
448,192,75398,1,0,0:0:0:0:
64,192,75736,128,8,75904:0:0:0:0:
192,192,75736,1,0,0:0:0:30:Ride.wav
448,192,75736,1,0,0:0:0:0:
192,192,75904,128,2,76241:0:0:0:0:
320,192,75904,1,0,0:0:0:0:
64,192,76073,1,0,0:0:0:0:
320,192,76241,1,2,0:0:0:0:
448,192,76241,1,0,0:0:0:0:
64,192,76410,1,8,0:0:0:0:
192,192,76410,1,0,0:0:0:30:Ride.wav
448,192,76410,1,0,0:0:0:0:
320,192,76578,1,0,0:0:0:0:
192,192,76747,1,2,0:0:0:0:
320,192,76747,128,0,77084:0:0:0:30:Ride.wav
64,192,77084,1,8,0:0:0:0:
192,192,77084,1,0,0:0:0:30:Ride.wav
448,192,77084,128,0,77421:0:0:0:0:
192,192,77252,128,0,77421:0:0:0:0:
64,192,77421,1,2,0:0:0:0:
320,192,77421,1,0,0:0:0:30:Ride.wav
192,192,77589,1,2,0:0:0:0:
320,192,77589,128,0,77758:0:0:0:0:
64,192,77758,1,8,0:0:0:0:
192,192,77758,1,0,0:0:0:30:Ride.wav
448,192,77758,1,0,0:0:0:0:
64,192,77927,128,0,78769:0:0:0:0:
192,192,78095,1,4,0:0:0:0:
320,192,78095,1,2,0:0:0:0:
448,192,78095,128,0,78769:0:0:0:0:
192,192,78432,128,8,78601:0:0:0:0:
320,192,78432,1,0,0:0:0:30:Ride.wav
320,192,78601,128,0,78769:0:0:0:0:
192,192,78769,128,2,78938:0:0:0:0:
320,192,78938,1,2,0:0:0:0:
448,192,78938,1,0,0:0:0:0:
64,192,79106,1,8,0:0:0:0:
192,192,79106,1,0,0:0:0:30:Ride.wav
448,192,79106,128,0,79275:0:0:0:0:
192,192,79275,1,2,0:0:0:0:
320,192,79275,1,0,0:0:0:0:
64,192,79443,128,8,79781:0:0:0:0:
320,192,79443,1,4,0:0:0:0:
448,192,79443,1,0,0:0:0:0:
192,192,79612,1,2,0:0:0:0:
448,192,79612,1,0,0:0:0:0:
192,192,79781,1,2,0:0:0:0:
320,192,79781,1,0,0:0:0:0:
64,192,79949,1,0,0:0:0:50:Tom1.wav
320,192,79949,128,0,80792:0:0:0:0:
192,192,80118,1,2,0:0:0:0:
448,192,80118,1,0,0:0:0:0:
64,192,80286,1,2,0:0:0:0:
192,192,80286,1,0,0:0:0:0:
64,192,80455,1,0,0:0:0:50:Tom3.wav
448,192,80455,1,0,0:0:0:0:
64,192,80792,128,4,81129:0:0:0:30:soft-hitfinish.wav
192,192,80792,1,0,0:0:0:30:Ride.wav
192,192,81129,128,0,81466:0:0:0:0:
320,192,81129,1,0,0:0:0:0:
320,192,81466,128,0,81803:0:0:0:0:
448,192,81466,1,0,0:0:0:0:
64,192,81803,1,0,0:0:0:0:
448,192,81803,128,0,82140:0:0:0:0:
64,192,82140,128,0,82646:0:0:0:0:
192,192,82140,1,0,0:0:0:0:
320,192,82477,1,0,0:0:0:0:
192,192,82646,1,2,0:0:0:0:
448,192,82646,1,0,0:0:0:0:
320,192,82730,1,2,0:0:0:0:
64,192,82814,128,8,82898:0:0:0:0:
192,192,82814,128,0,82898:0:0:0:50:Tom3.wav
448,192,82814,128,0,82898:0:0:0:0:
64,192,82983,128,8,83067:0:0:0:0:
192,192,82983,128,0,83067:0:0:0:50:Tom3.wav
448,192,82983,128,0,83067:0:0:0:0:
64,192,83320,1,4,0:0:0:0:
320,192,83320,1,2,0:0:0:0:
448,192,83320,128,0,84837:0:0:0:0:
192,192,83825,1,8,0:0:0:0:
320,192,83825,1,0,0:0:0:60:Hat Open.wav
64,192,84163,128,2,84331:0:0:0:0:
192,192,84247,128,0,84331:0:0:0:0:
320,192,84331,128,2,84500:0:0:0:0:
64,192,84500,1,8,0:0:0:0:
192,192,84500,128,0,84668:0:0:0:60:Hat Open.wav
64,192,84668,128,0,84837:0:0:0:0:
320,192,84837,128,2,85005:0:0:0:0:
192,192,85005,128,2,85174:0:0:0:0:
64,192,85174,1,8,0:0:0:0:
320,192,85174,1,0,0:0:0:60:Hat Open.wav
448,192,85174,128,0,85342:0:0:0:0:
192,192,85342,128,0,85511:0:0:0:0:
320,192,85511,128,2,85679:0:0:0:0:
448,192,85511,1,0,0:0:0:60:Hat Open.wav
64,192,85679,128,2,85764:0:0:0:0:
192,192,85764,128,0,85848:0:0:0:0:
64,192,85848,1,8,0:0:0:0:
320,192,85848,1,0,0:0:0:0:
448,192,85848,1,0,0:0:0:0:
192,192,86016,1,2,0:0:0:0:
320,192,86016,1,4,0:0:0:0:
448,192,86016,128,0,86691:0:0:0:0:
64,192,86354,1,2,0:0:0:0:
192,192,86354,1,0,0:0:0:0:
64,192,86522,1,8,0:0:0:0:
320,192,86522,1,0,0:0:0:60:Hat Open.wav
192,192,86691,1,0,0:0:0:0:
320,192,86859,128,2,87028:0:0:0:0:
448,192,86859,1,0,0:0:0:60:Hat Open.wav
64,192,87028,128,2,87196:0:0:0:0:
192,192,87028,1,0,0:0:0:0:
192,192,87196,128,8,87365:0:0:0:0:
448,192,87196,1,0,0:0:0:60:Hat Open.wav
320,192,87365,128,0,87533:0:0:0:0:
64,192,87533,128,2,87870:0:0:0:0:
448,192,87533,1,4,0:0:0:0:
192,192,87702,1,2,0:0:0:0:
320,192,87702,1,0,0:0:0:0:
192,192,87870,128,8,88039:0:0:0:0:
448,192,87870,1,0,0:0:0:60:Hat Open.wav
64,192,88039,1,2,0:0:0:0:
320,192,88039,1,4,0:0:0:0:
448,192,88039,128,0,88882:0:0:0:0:
64,192,88376,1,8,0:0:0:0:
320,192,88376,1,0,0:0:0:50:Tom2.wav
192,192,88545,1,0,0:0:0:60:Hat Open.wav
320,192,88545,1,0,0:0:0:50:Tom3.wav
64,192,88882,1,2,0:0:0:0:
192,192,88882,1,0,0:0:0:60:Hat Open.wav
64,192,89050,128,8,89219:0:0:0:0:
192,192,89050,128,4,89219:0:0:0:0:
448,192,89050,128,0,89219:0:0:0:0:
64,192,89387,128,8,89724:0:0:0:0:
192,192,89387,128,4,89724:0:0:0:0:
448,192,89387,128,0,89724:0:0:0:0:
320,192,89724,1,0,0:0:0:50:Tom2.wav
192,192,89893,1,2,0:0:0:0:
64,192,90061,128,8,90230:0:0:0:0:
320,192,90061,128,4,90230:0:0:0:0:
448,192,90061,128,0,90230:0:0:0:0:
64,192,90398,128,4,90736:0:0:0:0:
320,192,90398,128,8,90736:0:0:0:0:
448,192,90398,128,0,90736:0:0:0:0:
192,192,90736,1,2,0:0:0:0:
320,192,90820,1,2,0:0:0:0:
64,192,90904,128,8,91157:0:0:0:0:
192,192,90904,128,0,91157:0:0:0:50:Tom3.wav
448,192,90904,1,0,0:0:0:0:
320,192,91073,1,2,0:0:0:0:
448,192,91157,1,2,0:0:0:0:
192,192,91241,128,8,91494:0:0:0:0:
320,192,91241,128,4,91494:0:0:0:0:
64,192,91578,1,8,0:0:0:0:
320,192,91578,128,4,91915:0:0:0:0:
448,192,91578,128,2,92758:0:0:0:0:
64,192,91915,1,2,0:0:0:0:
192,192,91915,1,0,0:0:0:0:
192,192,92084,1,8,0:0:0:0:
320,192,92084,1,0,0:0:0:0:
64,192,92252,1,2,0:0:0:0:
320,192,92252,1,0,0:0:0:50:Tom1.wav
64,192,92421,1,0,0:0:0:50:Tom2.wav
192,192,92421,1,0,0:0:0:0:
192,192,92589,1,2,0:0:0:0:
320,192,92589,1,0,0:0:0:50:Tom3.wav
64,192,92758,1,0,0:0:0:50:Tom3.wav
320,192,92758,1,0,0:0:0:0:
64,192,92927,128,4,95623:0:0:0:0:
192,192,92927,1,2,0:0:0:0:
448,192,92927,1,0,0:0:0:0:
448,192,94612,128,0,94949:0:0:0:0:
320,192,94949,128,0,95286:0:0:0:0:
192,192,95286,128,0,95623:0:0:0:0:
320,192,95581,1,0,0:0:0:0:
448,192,95623,128,4,96297:0:0:0:0:
64,192,96297,128,0,96972:0:0:0:0:
192,192,96972,1,0,0:0:0:0:
320,192,96972,128,0,97646:0:0:0:0:
64,192,97646,1,0,0:0:0:0:
192,192,97646,128,0,98320:0:0:0:0:
64,192,98320,1,0,0:0:0:0:
448,192,98320,128,0,98657:0:0:0:0:
320,192,98657,1,0,0:0:0:0:
320,192,98825,128,0,100342:0:0:0:0:
64,192,99584,1,0,0:0:0:0:
192,192,99626,1,0,0:0:0:0:
448,192,99668,1,0,0:0:0:0:
64,192,100342,1,0,0:0:0:50:Tom1.wav
192,192,100342,1,0,0:0:0:0:
320,192,100427,1,0,0:0:0:50:Tom2.wav
448,192,100427,1,0,0:0:0:0:
64,192,100511,1,2,0:0:0:0:
192,192,100511,1,0,0:0:0:0:
320,192,100595,1,0,0:0:0:50:Tom3.wav
64,192,100679,1,8,0:0:0:0:
192,192,100679,1,0,0:0:0:60:Hat Open.wav
448,192,100679,1,0,0:0:0:0:
320,192,100848,128,0,101016:0:0:0:0:
64,192,101016,1,4,0:0:0:0:
192,192,101016,128,2,101185:0:0:0:0:
448,192,101016,1,0,0:0:0:0:
64,192,101354,128,8,101522:0:0:0:0:
192,192,101354,1,0,0:0:0:0:
448,192,101354,1,0,0:0:0:0:
320,192,101522,128,2,101691:0:0:0:0:
448,192,101522,1,0,0:0:0:60:Hat Open.wav
192,192,101859,128,2,102028:0:0:0:0:
320,192,101859,1,0,0:0:0:60:Hat Open.wav
64,192,102196,1,2,0:0:0:0:
192,192,102196,1,4,0:0:0:0:
448,192,102196,128,0,102365:0:0:0:0:
64,192,102533,128,2,102618:0:0:0:0:
320,192,102533,1,0,0:0:0:0:
448,192,102533,1,0,0:0:0:0:
64,192,102702,128,2,103039:0:0:0:0:
192,192,102702,1,4,0:0:0:0:
448,192,102702,1,0,0:0:0:0:
320,192,103039,1,8,0:0:0:0:
448,192,103039,1,0,0:0:0:0:
64,192,103123,1,8,0:0:0:0:
192,192,103123,1,0,0:0:0:0:
320,192,103207,1,8,0:0:0:0:
448,192,103207,1,0,0:0:0:0:
64,192,103292,1,8,0:0:0:0:
192,192,103292,1,0,0:0:0:0:
320,192,103376,128,8,103713:0:0:0:0:
448,192,103376,1,0,0:0:0:0:
64,192,103545,1,8,0:0:0:0:
448,192,103629,1,8,0:0:0:0:
64,192,103713,1,4,0:0:0:0:
192,192,103713,128,2,104050:0:0:0:0:
64,192,104050,1,8,0:0:0:0:
320,192,104050,1,0,0:0:0:30:Ride.wav
448,192,104050,1,0,0:0:0:0:
192,192,104219,1,0,0:0:0:0:
320,192,104387,1,2,0:0:0:0:
448,192,104387,128,0,104724:0:0:0:30:Ride.wav
64,192,104556,1,2,0:0:0:0:
192,192,104556,1,0,0:0:0:0:
64,192,104724,1,8,0:0:0:0:
320,192,104724,1,0,0:0:0:30:Ride.wav
192,192,104893,1,0,0:0:0:0:
64,192,105061,1,2,0:0:0:0:
320,192,105061,128,0,105398:0:0:0:0:
192,192,105230,1,2,0:0:0:0:
448,192,105230,1,0,0:0:0:0:
64,192,105398,1,8,0:0:0:0:
192,192,105398,1,0,0:0:0:30:Ride.wav
448,192,105567,1,0,0:0:0:0:
192,192,105736,128,2,106073:0:0:0:0:
320,192,105736,1,0,0:0:0:30:Ride.wav
64,192,105904,1,2,0:0:0:0:
448,192,105904,1,0,0:0:0:0:
64,192,106073,1,8,0:0:0:0:
320,192,106073,1,0,0:0:0:30:Ride.wav
448,192,106241,1,0,0:0:0:0:
64,192,106410,128,2,106747:0:0:0:0:
192,192,106410,1,0,0:0:0:0:
320,192,106578,1,0,0:0:0:0:
192,192,106747,1,8,0:0:0:0:
448,192,106747,1,0,0:0:0:30:Ride.wav
320,192,106915,1,2,0:0:0:0:
448,192,106915,128,0,107252:0:0:0:0:
192,192,107084,1,0,0:0:0:30:Ride.wav
64,192,107252,1,2,0:0:0:0:
320,192,107252,1,0,0:0:0:0:
192,192,107421,1,8,0:0:0:0:
320,192,107421,1,0,0:0:0:30:Ride.wav
64,192,107589,1,0,0:0:0:0:
64,192,107758,128,2,108095:0:0:0:0:
448,192,107758,1,0,0:0:0:0:
192,192,108095,1,8,0:0:0:0:
320,192,108095,1,0,0:0:0:30:Ride.wav
448,192,108095,1,0,0:0:0:0:
320,192,108264,128,0,108432:0:0:0:0:
64,192,108432,1,2,0:0:0:0:
192,192,108432,1,0,0:0:0:30:Ride.wav
320,192,108601,1,2,0:0:0:0:
448,192,108601,128,0,108769:0:0:0:0:
64,192,108769,1,8,0:0:0:0:
192,192,108769,1,0,0:0:0:30:Ride.wav
320,192,108769,1,0,0:0:0:0:
64,192,108938,128,0,109612:0:0:0:0:
192,192,109106,128,2,109612:0:0:0:0:
320,192,109106,1,4,0:0:0:0:
448,192,109106,1,0,0:0:0:0:
320,192,109443,128,8,109612:0:0:0:0:
448,192,109443,1,0,0:0:0:30:Ride.wav
448,192,109612,128,0,109781:0:0:0:0:
192,192,109781,1,2,0:0:0:0:
320,192,109781,128,0,109949:0:0:0:30:Ride.wav
64,192,109949,1,2,0:0:0:0:
192,192,109949,1,0,0:0:0:0:
64,192,110118,1,8,0:0:0:0:
320,192,110118,1,0,0:0:0:30:Ride.wav
448,192,110118,128,0,110286:0:0:0:0:
192,192,110286,1,0,0:0:0:0:
64,192,110455,128,2,110792:0:0:0:0:
320,192,110455,1,4,0:0:0:0:
448,192,110455,1,0,0:0:0:0:
192,192,110623,1,2,0:0:0:0:
320,192,110623,1,0,0:0:0:0:
192,192,110792,1,8,0:0:0:0:
448,192,110792,1,0,0:0:0:30:Ride.wav
64,192,110960,1,2,0:0:0:0:
320,192,110960,128,4,111297:0:0:0:0:
448,192,110960,1,0,0:0:0:0:
192,192,111297,1,2,0:0:0:0:
448,192,111297,1,0,0:0:0:0:
64,192,111466,1,8,0:0:0:0:
320,192,111466,1,0,0:0:0:30:Ride.wav
192,192,111550,1,8,0:0:0:0:
448,192,111550,1,0,0:0:0:0:
64,192,111634,128,0,111803:0:0:0:50:Tom2.wav
192,192,111803,1,2,0:0:0:0:
320,192,111803,1,4,0:0:0:0:
448,192,111803,128,0,111972:0:0:0:0:
64,192,111972,1,4,0:0:0:0:
320,192,111972,128,2,112140:0:0:0:0:
64,192,112140,1,8,0:0:0:0:
192,192,112140,1,0,0:0:0:0:
448,192,112140,1,0,0:0:0:0:
192,192,112309,128,2,112477:0:0:0:0:
448,192,112309,128,0,112477:0:0:0:60:Hat Open.wav
320,192,112477,1,0,0:0:0:0:
64,192,112646,128,2,112814:0:0:0:0:
448,192,112646,128,0,112814:0:0:0:60:Hat Open.wav
320,192,112814,1,0,0:0:0:0:
64,192,112983,128,2,113320:0:0:0:0:
192,192,112983,128,4,113320:0:0:0:0:
448,192,112983,1,0,0:0:0:0:
320,192,113320,1,8,0:0:0:0:
448,192,113320,1,0,0:0:0:0:
64,192,113404,1,8,0:0:0:0:
192,192,113404,1,0,0:0:0:0:
320,192,113488,1,8,0:0:0:0:
448,192,113488,1,0,0:0:0:0:
64,192,113573,1,8,0:0:0:0:
192,192,113573,1,0,0:0:0:0:
320,192,113657,1,8,0:0:0:0:
448,192,113657,1,0,0:0:0:0:
192,192,113741,1,8,0:0:0:0:
64,192,113825,1,4,0:0:0:0:
320,192,113825,128,2,113994:0:0:0:0:
448,192,113825,128,0,113994:0:0:0:0:
64,192,114163,1,2,0:0:0:0:
192,192,114163,128,4,114331:0:0:0:0:
320,192,114163,128,0,114331:0:0:0:0:
64,192,114500,128,4,115174:0:0:0:0:
192,192,114500,128,2,114837:0:0:0:0:
448,192,114500,1,0,0:0:0:0:
320,192,114837,1,10,0:0:0:0:
448,192,114837,1,0,0:0:0:50:Hat Open.wav
192,192,115005,1,0,0:0:0:0:
320,192,115174,128,2,115511:0:0:0:0:
448,192,115174,1,0,0:0:0:50:Hat Open.wav
64,192,115342,1,0,0:0:0:0:
192,192,115511,1,10,0:0:0:0:
448,192,115511,1,0,0:0:0:50:Hat Open.wav
320,192,115679,1,0,0:0:0:0:
64,192,115848,1,2,0:0:0:0:
192,192,115848,128,0,116185:0:0:0:50:Hat Open.wav
448,192,116016,1,0,0:0:0:0:
64,192,116185,1,10,0:0:0:0:
320,192,116185,1,0,0:0:0:50:Hat Open.wav
192,192,116354,1,0,0:0:0:0:
320,192,116522,1,2,0:0:0:0:
448,192,116522,128,0,116859:0:0:0:50:Hat Open.wav
64,192,116691,1,0,0:0:0:0:
192,192,116859,1,10,0:0:0:0:
320,192,116859,1,0,0:0:0:50:Hat Open.wav
448,192,117028,1,0,0:0:0:0:
64,192,117196,128,2,117533:0:0:0:0:
192,192,117196,1,0,0:0:0:50:Hat Open.wav
192,192,117533,1,2,0:0:0:0:
320,192,117533,1,8,0:0:0:0:
448,192,117533,1,0,0:0:0:50:Hat Open.wav
320,192,117702,128,0,118039:0:0:0:0:
64,192,117870,1,2,0:0:0:0:
192,192,117870,1,0,0:0:0:50:Hat Open.wav
448,192,118039,1,0,0:0:0:0:
64,192,118207,1,10,0:0:0:0:
320,192,118207,1,0,0:0:0:50:Hat Open.wav
192,192,118376,128,0,118545:0:0:0:0:
64,192,118545,1,2,0:0:0:0:
448,192,118545,128,0,118882:0:0:0:50:Hat Open.wav
320,192,118713,1,0,0:0:0:0:
64,192,118882,1,8,0:0:0:0:
192,192,118882,1,0,0:0:0:50:Hat Open.wav
64,192,119050,128,2,119387:0:0:0:0:
192,192,119050,1,4,0:0:0:0:
448,192,119050,1,0,0:0:0:0:
320,192,119387,1,8,0:0:0:0:
448,192,119387,1,0,0:0:0:0:
64,192,119472,1,0,0:0:0:0:
192,192,119472,1,0,0:0:0:0:
320,192,119556,1,2,0:0:0:0:
448,192,119556,1,0,0:0:0:50:Hat Open.wav
448,192,119724,128,0,120567:0:0:0:50:Tom2.wav
64,192,119893,1,2,0:0:0:0:
192,192,120061,1,2,0:0:0:0:
64,192,120230,1,8,0:0:0:0:
320,192,120230,1,4,0:0:0:0:
320,192,120398,128,0,120567:0:0:0:0:
64,192,120567,128,2,120736:0:0:0:0:
192,192,120567,1,0,0:0:0:0:
320,192,120736,1,2,0:0:0:0:
448,192,120736,1,0,0:0:0:0:
64,192,120904,1,4,0:0:0:0:
192,192,120904,128,8,121073:0:0:0:0:
448,192,120904,1,0,0:0:0:0:
320,192,121073,1,0,0:0:0:0:
64,192,121241,1,2,0:0:0:0:
448,192,121241,128,0,121578:0:0:0:40:Hat Close.wav
192,192,121410,1,2,0:0:0:0:
320,192,121410,1,0,0:0:0:0:
64,192,121578,1,8,0:0:0:0:
192,192,121578,128,0,121747:0:0:0:40:Hat Close.wav
64,192,121747,1,2,0:0:0:0:
320,192,121747,128,4,122252:0:0:0:0:
448,192,121747,1,0,0:0:0:0:
192,192,122084,1,0,0:0:0:50:Tom1.wav
448,192,122084,1,0,0:0:0:0:
64,192,122252,1,0,0:0:0:40:Hat Close.wav
320,192,122421,1,2,0:0:0:0:
448,192,122421,1,0,0:0:0:0:
64,192,122589,1,4,0:0:0:0:
192,192,122589,128,2,122927:0:0:0:0:
448,192,122589,1,0,0:0:0:0:
64,192,122927,128,0,123264:0:0:0:0:
320,192,122927,1,0,0:0:0:0:
192,192,123264,1,0,0:0:0:0:
320,192,123264,128,0,123601:0:0:0:0:
192,192,123601,128,0,123938:0:0:0:0:
448,192,123601,1,0,0:0:0:0:
320,192,123938,128,0,124022:0:0:0:0:
448,192,123938,128,0,124275:0:0:0:0:
64,192,124022,128,0,124106:0:0:0:0:
192,192,124106,128,0,124191:0:0:0:0:
320,192,124191,128,0,124275:0:0:0:0:
64,192,124275,128,0,124359:0:0:0:0:
192,192,124359,128,0,124443:0:0:0:0:
320,192,124443,128,2,124528:0:0:0:0:
448,192,124528,128,2,124612:0:0:0:0:
64,192,124612,128,8,124696:0:0:0:0:
192,192,124612,128,0,124696:0:0:0:50:Tom3.wav
320,192,124612,128,0,124696:0:0:0:0:
64,192,124781,128,8,124865:0:0:0:0:
192,192,124781,128,0,124865:0:0:0:50:Tom3.wav
320,192,124781,128,0,124865:0:0:0:0:
64,192,125286,128,2,125960:0:0:0:0:
192,192,125286,1,4,0:0:0:0:
448,192,125286,1,0,0:0:0:0:
320,192,125623,1,8,0:0:0:0:
448,192,125623,1,0,0:0:0:30:Ride.wav
192,192,125960,1,2,0:0:0:0:
320,192,125960,128,0,126129:0:0:0:30:Ride.wav
192,192,126129,1,2,0:0:0:0:
448,192,126129,128,0,126297:0:0:0:0:
64,192,126297,128,8,126466:0:0:0:0:
320,192,126297,1,0,0:0:0:30:Ride.wav
192,192,126466,128,2,127309:0:0:0:0:
320,192,126466,1,0,0:0:0:0:
448,192,126634,1,0,0:0:0:30:Ride.wav
64,192,126803,1,2,0:0:0:0:
320,192,126972,1,8,0:0:0:0:
448,192,126972,1,0,0:0:0:30:Ride.wav
64,192,127309,1,2,0:0:0:0:
448,192,127309,128,0,127646:0:0:0:30:Ride.wav
192,192,127477,1,2,0:0:0:0:
320,192,127477,1,0,0:0:0:0:
64,192,127646,1,8,0:0:0:0:
320,192,127646,128,0,127983:0:0:0:30:Ride.wav
192,192,127983,128,2,128320:0:0:0:0:
448,192,127983,1,0,0:0:0:30:Ride.wav
320,192,128151,1,0,0:0:0:0:
64,192,128320,1,8,0:0:0:0:
448,192,128320,128,0,128657:0:0:0:30:Ride.wav
192,192,128488,1,0,0:0:0:0:
64,192,128657,1,2,0:0:0:0:
320,192,128657,128,0,128994:0:0:0:30:Ride.wav
192,192,128825,1,2,0:0:0:0:
448,192,128825,1,0,0:0:0:0:
64,192,128994,128,8,129331:0:0:0:0:
448,192,128994,128,0,129078:0:0:0:30:Ride.wav
192,192,129078,128,0,129163:0:0:0:0:
320,192,129163,128,0,129247:0:0:0:0:
448,192,129247,128,0,129331:0:0:0:0:
192,192,129331,128,2,129668:0:0:0:0:
320,192,129331,1,4,0:0:0:0:
64,192,129668,1,8,0:0:0:0:
448,192,129668,128,0,129837:0:0:0:40:Hat Close.wav
64,192,129837,1,2,0:0:0:0:
192,192,129837,1,4,0:0:0:0:
320,192,129837,128,0,130174:0:0:0:0:
64,192,130174,128,2,130679:0:0:0:0:
448,192,130174,1,0,0:0:0:0:
192,192,130342,1,0,0:0:0:40:Hat Close.wav
320,192,130342,1,0,0:0:0:50:Tom1.wav
192,192,130679,1,2,0:0:0:0:
320,192,130679,1,4,0:0:0:0:
448,192,130679,128,0,131016:0:0:0:0:
64,192,131016,1,8,0:0:0:0:
192,192,131016,128,0,131354:0:0:0:30:Ride.wav
320,192,131016,1,0,0:0:0:0:
320,192,131354,128,2,131691:0:0:0:0:
448,192,131354,1,0,0:0:0:30:Ride.wav
64,192,131522,1,2,0:0:0:0:
192,192,131522,1,0,0:0:0:30:Ride.wav
64,192,131691,128,8,132028:0:0:0:0:
448,192,131691,1,0,0:0:0:50:Hat Open.wav
192,192,131859,1,2,0:0:0:0:
320,192,131859,1,0,0:0:0:0:
192,192,132028,128,8,132196:0:0:0:0:
448,192,132028,1,4,0:0:0:0:
320,192,132196,1,2,0:0:0:0:
448,192,132196,128,0,132365:0:0:0:0:
64,192,132365,1,2,0:0:0:0:
320,192,132365,128,0,132533:0:0:0:40:Hat Close.wav
64,192,132533,128,0,132870:0:0:0:50:Hat Open.wav
192,192,132533,1,0,0:0:0:50:Tom1.wav
320,192,132702,1,2,0:0:0:0:
448,192,132702,1,0,0:0:0:0:
192,192,132870,1,2,0:0:0:0:
320,192,132870,128,0,133039:0:0:0:0:
64,192,133039,1,0,0:0:0:40:Hat Close.wav
192,192,133039,128,0,133376:0:0:0:50:Tom3.wav
320,192,133207,1,2,0:0:0:0:
448,192,133207,1,0,0:0:0:0:
64,192,133376,1,2,0:0:0:0:
320,192,133376,128,4,133713:0:0:0:0:
448,192,133376,1,0,0:0:0:0:
192,192,133713,128,0,134050:0:0:0:0:
64,192,134050,1,4,0:0:0:0:
320,192,134050,1,2,0:0:0:0:
448,192,134050,128,0,134387:0:0:0:0:
320,192,134387,128,0,134724:0:0:0:0:
64,192,134724,128,0,134809:0:0:0:50:Tom3.wav
448,192,134724,1,0,0:0:0:0:
192,192,134809,128,0,134893:0:0:0:50:Tom3.wav
320,192,134893,128,0,134977:0:0:0:50:Tom1.wav
448,192,134977,128,0,135061:0:0:0:50:Tom1.wav
64,192,135061,128,0,135146:0:0:0:50:Tom2.wav
192,192,135146,128,0,135230:0:0:0:0:
320,192,135230,128,2,135314:0:0:0:0:
448,192,135230,1,0,0:0:0:0:
192,192,135314,128,2,135398:0:0:0:0:
64,192,135398,128,8,135904:0:0:0:0:
320,192,135398,1,4,0:0:0:0:
448,192,135398,128,0,135736:0:0:0:0:
320,192,135736,128,0,135904:0:0:0:0:
192,192,135904,128,0,140118:0:0:0:0:
64,192,136073,1,2,0:0:0:0:
448,192,136073,1,0,0:0:0:0:
64,192,136241,128,8,136325:0:0:0:0:
320,192,136241,128,4,136325:0:0:0:0:
448,192,136241,128,0,136325:0:0:0:0:
320,192,136578,1,2,0:0:0:0:
448,192,136578,1,0,0:0:0:0:
64,192,136747,128,8,136831:0:0:0:0:
320,192,136747,128,4,136831:0:0:0:0:
448,192,136747,128,0,136831:0:0:0:0:
64,192,136915,128,0,137000:0:0:0:50:Tom1.wav
320,192,137084,128,0,137168:0:0:0:50:Tom2.wav
64,192,137252,128,2,137337:0:0:0:0:
320,192,137252,128,4,137337:0:0:0:0:
448,192,137252,128,0,137337:0:0:0:0:
64,192,137589,128,2,137674:0:0:0:0:
320,192,137589,128,4,137674:0:0:0:0:
448,192,137589,128,0,137674:0:0:0:0:
64,192,137758,128,4,143151:0:0:0:0:
320,192,137758,128,2,143151:0:0:0:0:
448,192,137758,128,0,143151:0:0:0:0:
