osu file format v14

[General]
AudioFilename: audio.mp3
AudioLeadIn: 0
PreviewTime: 56282
Countdown: 0
SampleSet: Soft
StackLeniency: 0.7
Mode: 0
LetterboxInBreaks: 0
WidescreenStoryboard: 1

[Editor]
Bookmarks: 22576,33870,56458,79046,90340,101635,122811,124223,146811,158105,169399,191987,214576,237164
DistanceSpacing: 1.5
BeatDivisor: 4
GridSize: 8
TimelineZoom: 2.2

[Metadata]
Title:WE ARE THE PEOPLE
TitleUnicode:WE ARE THE PEOPLE
Artist:Lieless
ArtistUnicode:Lieless
Creator:PAJWOJ
Version:NUVOLINA'S HARD
Source:
Tags:techno hardcore hardtekk electronic dance house edm nxc nightcore empire of the sun southstar remix soundcloud lielessx english vocal vocals pitched nuvolina namriee digidrake
BeatmapID:4548472
BeatmapSetID:2123963

[Difficulty]
HPDrainRate:4.5
CircleSize:3.5
OverallDifficulty:6
ApproachRate:8
SliderMultiplier:1
SliderTickRate:1

[Events]
//Background and Video events
0,0,"F0g8IwlaYAA_u3d.jpg",0,0
//Break Periods
2,3540,7532
2,54716,55708
2,79246,90296
2,121951,123473
2,146835,157355
2,167834,168649
//Storyboard Layer 0 (Background)
//Storyboard Layer 1 (Fail)
//Storyboard Layer 2 (Pass)
//Storyboard Layer 3 (Foreground)
//Storyboard Layer 4 (Overlay)
//Storyboard Sound Samples

[TimingPoints]
-12,352.941176470588,4,2,27,40,1,0
2811,-133.333333333333,4,2,27,40,0,0
22046,-133.333333333333,4,2,27,50,0,0
22576,-133.333333333333,4,2,27,65,0,0
23282,-83.3333333333333,4,2,27,65,0,0
31046,-83.3333333333333,4,2,27,50,0,0
33870,-71.4285714285714,4,2,27,75,0,0
56458,-66.6666666666667,4,2,27,90,0,1
56723,-66.6666666666667,4,2,27,90,0,0
77811,-66.6666666666667,4,2,27,50,0,0
91046,-133.333333333333,4,2,27,40,0,0
101635,-66.6666666666667,4,2,27,75,0,1
101899,-66.6666666666667,4,2,27,75,0,0
120693,-83.3333333333333,4,2,27,40,0,0
124223,-66.6666666666667,4,2,27,90,0,1
145399,-100,4,2,27,75,0,1
146811,-100,4,2,27,75,0,0
158105,-133.333333333333,4,2,27,40,0,0
169399,-66.6666666666667,4,2,27,75,0,1
169664,-66.6666666666667,4,2,27,75,0,0
191987,-66.6666666666667,4,2,27,90,0,1
213164,-83.3333333333333,4,2,27,55,0,0
214576,-66.6666666666667,4,2,27,80,0,0
235929,-83.3333333333333,4,2,27,55,0,0
237517,-83.3333333333333,4,2,27,25,0,0
237870,-83.3333333333333,4,2,27,20,0,0
238223,-83.3333333333333,4,2,27,15,0,0
238576,-83.3333333333333,4,2,27,10,0,0
241046,-83.3333333333333,4,2,27,5,0,0

[Colours]
Combo1 : 36,101,253
Combo2 : 107,107,107
Combo3 : 163,163,163
Combo4 : 174,168,255
Combo5 : 109,98,255
Combo6 : 146,179,254

[HitObjects]
43,84,2811,22,0,L|24:27,2,56.2500000000001,4|4|4,2:1|2:1|2:1,2:0:0:0:
36,340,8282,69,2,2:0:0:0:
49,353,9693,1,2,2:0:0:0:
104,88,10752,1,2,2:0:0:0:
196,186,11282,6,0,P|234:248|370:218,1,225.000000000001,2|0,2:0|2:0,2:0:0:0:
394,174,12517,2,0,L|77:183,1,300.000000000001,2|0,2:0|2:0,2:0:0:0:
10,203,14105,2,0,P|99:146|69:38,1,225.000000000001,2|0,2:0|2:0,2:0:0:0:
4,8,15340,2,0,L|358:32,1,337.500000000001,2|0,2:0|2:0,2:0:0:0:
481,312,18164,2,0,P|406:251|315:271,1,187.5,2|0,2:0|2:0,2:0:0:0:
287,320,19223,2,0,L|239:313,1,37.5000000000001,2|0,2:0|2:0,2:0:0:0:
173,342,19576,69,2,2:0:0:0:
172,363,20987,1,2,2:0:0:0:
26,83,22046,1,2,2:0:0:0:
240,215,22576,37,0,3:2:0:0:
360,98,22929,1,0,3:2:0:0:
196,58,23282,22,0,L|190:-4,2,60,2|2|2,3:2|2:3|3:2,2:0:0:0:
139,120,23811,1,2,2:0:0:0:
47,260,24164,2,0,P|104:251|157:295,1,120,2|2,2:0|2:3,2:0:0:0:
212,359,24693,1,2,3:2:0:0:
296,326,24870,1,2,2:3:0:0:
384,343,25046,2,0,L|369:203,1,120,2|0,3:2|3:2,2:0:0:0:
489,59,26105,54,0,L|483:-1,2,60,2|2|2,3:2|2:3|3:2,2:0:0:0:
457,137,26635,2,0,L|463:196,1,60,2|0,2:0|3:2,2:0:0:0:
504,269,26987,1,2,2:0:0:0:
377,379,27340,1,2,2:3:0:0:
308,329,27517,1,2,3:2:0:0:
146,375,27870,2,0,L|162:232,1,120,2|0,3:2|3:2,2:0:0:0:
5,60,28929,22,0,L|10:0,2,60,2|2|2,3:2|2:3|3:2,2:0:0:0:
62,121,29458,1,2,2:0:0:0:
1,277,29811,1,2,2:0:0:0:
145,362,30164,2,0,L|232:361,1,60,2|0,2:0|3:2,2:0:0:0:
283,326,30517,1,2,2:3:0:0:
352,372,30693,1,2,3:2:0:0:
480,263,31046,53,2,3:2:0:0:
429,195,31223,2,0,L|365:182,1,60,2|0,2:0|3:2,2:0:0:0:
336,105,31576,2,0,L|210:131,1,120,2|0,2:0|2:0,2:0:0:0:
74,354,33164,22,0,L|11:371,2,60,2|2|2,2:0|2:3|2:0,2:0:0:0:
212,214,33870,70,0,P|255:215|294:244,1,70,0|0,3:2|2:0,2:0:0:0:
263,328,34223,2,0,P|302:334|345:315,1,70,0|0,3:2|2:0,2:0:0:0:
415,374,34576,1,2,3:2:0:0:
476,298,34752,1,2,2:0:0:0:
475,101,35105,2,0,L|392:108,1,70,2|0,2:0|3:2,2:0:0:0:
334,38,35458,1,2,2:0:0:0:
239,65,35635,6,0,P|273:142|229:193,2,140,0|0|0,3:2|3:2|3:2,2:0:0:0:
49,116,36693,2,0,P|42:158|69:199,1,70,0|0,3:2|2:0,2:0:0:0:
137,230,37046,2,0,P|138:269|118:300,1,70,0|0,3:2|2:0,2:0:0:0:
185,370,37399,69,2,3:2:0:0:
278,340,37576,1,2,2:0:0:0:
473,356,37929,2,0,L|458:278,1,70,2|0,2:0|3:2,2:0:0:0:
504,199,38282,2,0,L|475:57,1,140,2|0,2:0|2:0,2:0:0:0:
384,27,38811,6,0,P|390:66|375:96,1,70,0|0,3:2|2:0,2:0:0:0:
281,111,39164,2,0,P|276:151|303:188,1,70,0|0,3:2|2:0,2:0:0:0:
253,268,39517,2,0,P|182:296|110:264,1,140,0|0,3:2|3:2,2:0:0:0:
26,106,40223,70,0,L|178:137,1,140,2|2,3:2|3:2,2:0:0:0:
227,59,40752,1,2,2:0:0:0:
359,203,41105,2,0,L|356:131,1,70,2|0,2:0|3:0,2:0:0:0:
454,129,41458,2,0,L|429:287,1,140,2|0,2:0|2:0,2:0:0:0:
494,343,41987,1,0,3:2:0:0:
301,381,42340,5,2,3:2:0:0:
203,365,42517,2,0,L|183:276,1,70,2|0,2:0|3:2,2:0:0:0:
91,316,42870,2,0,L|117:149,1,140,2|2,2:0|2:0,2:0:0:0:
309,183,43576,70,0,L|287:83,1,70,2|0,2:0|3:2,2:0:0:0:
248,27,43929,1,2,2:0:0:0:
52,34,44282,2,0,L|30:134,1,70,2|0,2:0|3:2,2:0:0:0:
0,190,44635,1,2,2:0:0:0:
55,270,44811,2,0,L|40:316,3,35,0|4|4|4,3:2|2:3|2:3|2:3,2:0:0:0:
56,351,45164,6,0,P|126:322|194:355,1,140,0|0,3:2|3:2,2:0:0:0:
376,375,45870,1,2,3:2:0:0:
430,285,46046,2,0,L|429:199,1,70,2|0,2:0|3:2,2:0:0:0:
467,116,46399,1,2,2:0:0:0:
281,17,46752,1,2,2:0:0:0:
191,66,46929,70,0,P|114:32|63:76,2,140,0|0|0,3:2|3:2|3:2,2:0:0:0:
254,251,47987,2,0,P|296:258|337:231,1,70,0|0,3:2|2:0,2:0:0:0:
359,157,48340,2,0,P|398:156|429:176,1,70,0|0,3:2|2:0,2:0:0:0:
485,247,48693,5,2,3:2:0:0:
443,336,48870,1,2,2:0:0:0:
248,363,49223,2,0,L|161:349,1,70,2|0,2:0|3:2,2:0:0:0:
82,373,49576,2,0,L|53:231,1,140,2|0,2:0|2:0,2:0:0:0:
73,139,50105,70,0,P|112:133|142:148,1,70,0|0,3:2|2:0,2:0:0:0:
174,237,50458,2,0,P|214:242|251:215,1,70,0|0,3:2|2:0,2:0:0:0:
337,223,50811,2,0,P|348:294|281:337,1,140,0|0,3:2|3:2,2:0:0:0:
494,302,51517,6,0,L|476:146,1,140,2|0,3:2|3:2,2:0:0:0:
487,65,52046,1,2,2:0:0:0:
291,49,52399,1,2,2:0:0:0:
208,102,52576,2,0,P|140:117|92:44,2,140,0|0|0,3:2|3:2|3:2,2:0:0:0:
275,286,53635,69,2,3:2:0:0:
357,339,53811,2,0,L|372:252,1,70,2|0,2:0|3:2,2:0:0:0:
466,259,54164,2,0,L|459:97,1,140,2|0,2:0|2:0,2:0:0:0:
39,36,56458,54,0,L|41:125,1,75,2|0,3:2|2:0,2:0:0:0:
117,183,56811,2,0,L|143:100,1,75,10|0,3:2|2:0,2:0:0:0:
229,57,57164,1,2,3:2:0:0:
438,138,57517,1,10,3:2:0:0:
499,222,57693,1,2,2:3:0:0:
438,308,57870,2,0,L|361:280,1,75,2|0,3:2|2:0,2:0:0:0:
342,384,58223,2,0,L|267:358,1,75,10|0,3:2|2:0,2:0:0:0:
212,263,58576,1,2,3:2:0:0:
12,366,58929,5,10,3:2:0:0:
0,262,59105,1,2,2:3:0:0:
67,181,59282,2,0,L|41:105,1,75,2|0,3:2|2:0,2:0:0:0:
71,8,59635,2,0,P|117:68|205:58,1,150,10|0,3:2|3:2,2:0:0:0:
392,31,60340,69,8,3:2:0:0:
234,157,60693,1,0,3:2:0:0:
443,175,61046,1,8,3:2:0:0:
250,259,61399,5,2,3:2:0:0:
314,341,61576,1,2,2:3:0:0:
355,244,61752,2,0,L|348:143,1,75,10|0,3:2|2:0,2:0:0:0:
438,112,62105,2,0,L|407:16,1,75,2|0,3:2|2:0,2:0:0:0:
312,16,62458,2,0,P|258:69|180:52,1,150,10|0,3:2|3:2,2:0:0:0:
26,192,63164,69,8,3:2:0:0:
234,214,63517,1,0,3:2:0:0:
50,315,63870,1,8,3:2:0:0:
258,336,64223,5,2,3:2:0:0:
354,377,64399,1,2,2:3:0:0:
439,316,64576,2,0,L|432:215,1,75,10|0,3:2|2:0,2:0:0:0:
342,188,64929,2,0,L|361:92,1,75,2|0,3:2|2:0,2:0:0:0:
443,55,65282,2,0,P|389:2|311:19,1,150,10|0,3:2|3:2,2:0:0:0:
117,66,65987,69,8,3:2:0:0:
15,206,66340,1,0,3:2:0:0:
223,227,66693,1,8,3:2:0:0:
143,296,66870,1,0,3:2:0:0:
241,331,67046,2,0,L|224:378,2,37.5,0|4|4,3:2|2:3|2:3,2:0:0:0:
367,323,67399,1,8,3:2:0:0:
367,323,67487,1,4,2:3:0:0:
367,323,67576,1,4,2:3:0:0:
367,323,67664,1,4,2:3:0:0:
367,323,67752,6,0,L|369:234,1,75,2|0,3:2|2:0,2:0:0:0:
480,234,68105,2,0,L|453:147,1,75,10|0,3:2|2:0,2:0:0:0:
483,52,68458,1,2,3:2:0:0:
263,13,68811,1,10,3:2:0:0:
177,73,68987,1,2,2:3:0:0:
78,32,69164,2,0,L|81:116,1,75,2|0,3:2|2:0,2:0:0:0:
7,182,69517,2,0,L|30:270,1,75,10|0,3:2|2:0,2:0:0:0:
78,345,69870,1,2,3:2:0:0:
218,373,70223,69,10,3:2:0:0:
278,287,70399,1,2,2:3:0:0:
200,215,70576,2,0,L|207:137,1,75,2|0,3:2|2:0,2:0:0:0:
163,44,70929,2,0,P|225:56|284:-17,1,150,10|0,3:2|3:2,2:0:0:0:
483,58,71635,5,8,3:2:0:0:
495,267,71987,1,0,3:2:0:0:
395,82,72340,1,8,3:2:0:0:
392,292,72693,69,2,3:2:0:0:
319,215,72870,1,2,2:3:0:0:
257,299,73046,2,0,L|173:286,1,75,10|0,3:2|2:0,2:0:0:0:
112,365,73399,2,0,L|81:269,1,75,2|0,3:2|2:0,2:0:0:0:
14,218,73752,2,0,P|68:165|146:182,1,150,10|0,3:2|3:2,2:0:0:0:
269,337,74458,5,8,3:2:0:0:
379,158,74811,1,0,3:2:0:0:
379,368,75164,1,8,3:2:0:0:
287,178,75517,69,2,3:2:0:0:
233,87,75693,1,2,2:3:0:0:
317,24,75870,2,0,L|403:49,1,75,10|0,3:2|2:0,2:0:0:0:
400,149,76223,2,0,L|492:192,1,75,2|0,3:2|2:0,2:0:0:0:
490,283,76576,2,0,P|429:307|358:247,1,150,10|0,3:2|3:2,2:0:0:0:
179,363,77282,6,0,L|176:277,1,75,10|0,3:2|2:0,2:0:0:0:
33,157,77811,1,2,2:0:0:0:
33,157,78164,1,2,2:0:0:0:
33,157,78517,1,2,2:0:0:0:
33,157,78870,1,2,2:0:0:0:
95,87,79046,1,2,2:0:0:0:
431,40,91046,22,2,L|484:39,2,37.5000000000001,2|2|0,2:0|2:3|2:0,2:0:0:0:
380,105,91576,2,0,L|303:83,1,75.0000000000002,2|2,2:0|2:0,2:0:0:0:
184,37,92282,2,0,L|186:-9,2,37.5000000000001,2|2|2,2:0|2:3|2:0,2:0:0:0:
123,91,92811,2,0,L|134:178,1,75.0000000000002,2|0,2:0|2:0,2:0:0:0:
96,372,93870,54,0,L|48:368,2,37.5000000000001,2|2|2,2:0|2:3|2:0,2:0:0:0:
159,318,94399,2,0,L|236:354,1,75.0000000000002,2|2,2:0|2:0,2:0:0:0:
368,384,95105,1,2,2:0:0:0:
437,333,95282,1,2,2:0:0:0:
372,215,95635,2,0,L|357:136,1,75.0000000000002,2|0,2:0|2:0,2:0:0:0:
191,36,96693,22,0,L|192:-17,2,37.5000000000001,2|2|2,2:0|2:3|2:0,2:0:0:0:
131,87,97223,2,0,L|153:164,1,75.0000000000002,2|2,2:0|2:0,2:0:0:0:
155,309,97929,1,2,2:0:0:0:
287,379,98282,1,2,2:3:0:0:
344,324,98458,1,2,2:0:0:0:
294,182,98811,2,0,L|344:196,1,37.5000000000001,2|0,2:0|2:0,2:0:0:0:
394,56,99340,2,0,L|481:82,1,75.0000000000002,2|0,2:0|2:0,2:0:0:0:
74,354,100929,54,0,L|31:368,2,37.5000000000001,2|2|2,2:0|2:3|2:0,2:0:0:0:
275,251,101635,70,0,L|277:340,1,75,2|0,3:2|2:0,2:0:0:0:
383,384,101987,2,0,L|409:301,1,75,2|0,3:2|2:0,2:0:0:0:
464,216,102340,1,2,3:2:0:0:
266,107,102693,1,2,3:2:0:0:
346,29,102870,1,2,2:3:0:0:
228,0,103046,2,0,L|151:18,1,75,2|0,3:2|2:0,2:0:0:0:
157,129,103399,2,0,L|82:103,1,75,2|0,3:2|2:0,2:0:0:0:
19,13,103752,1,2,3:2:0:0:
21,238,104105,5,2,3:2:0:0:
0,349,104282,1,2,2:3:0:0:
108,379,104458,2,0,L|186:350,1,75,2|0,3:2|2:0,2:0:0:0:
289,336,104811,2,0,P|229:290|239:202,1,150,2|0,3:2|3:2,2:0:0:0:
155,7,105517,69,0,3:2:0:0:
371,66,105870,1,0,3:2:0:0:
153,123,106223,1,0,3:2:0:0:
366,192,106576,5,2,3:2:0:0:
439,277,106752,1,2,2:3:0:0:
375,369,106929,2,0,L|282:362,1,75,2|0,3:2|2:0,2:0:0:0:
187,375,107282,2,0,L|95:349,1,75,2|0,3:2|2:0,2:0:0:0:
1,354,107635,2,0,P|54:300|37:222,1,150,2|0,3:2|3:2,2:0:0:0:
3,40,108340,69,0,3:2:0:0:
226,67,108693,1,0,3:2:0:0:
10,130,109046,1,0,3:2:0:0:
228,183,109399,5,2,3:2:0:0:
272,286,109576,1,2,2:3:0:0:
375,243,109752,2,0,L|368:142,1,75,2|0,3:2|2:0,2:0:0:0:
481,184,110105,2,0,L|469:91,1,75,2|0,3:2|2:0,2:0:0:0:
442,0,110458,2,0,P|388:53|310:36,1,150,2|0,3:2|3:2,2:0:0:0:
94,29,111164,69,0,3:2:0:0:
45,248,111517,1,0,3:2:0:0:
204,89,111870,1,0,3:2:0:0:
138,309,112223,1,0,3:2:0:0:
138,309,112311,1,4,2:3:0:0:
138,309,112399,1,4,2:3:0:0:
233,369,112576,1,0,3:2:0:0:
407,226,112929,6,0,L|318:224,1,75,2|0,3:2|2:0,2:0:0:0:
336,111,113282,2,0,L|251:115,1,75,2|0,3:2|2:0,2:0:0:0:
164,56,113635,1,2,3:2:0:0:
385,18,113987,1,2,3:2:0:0:
477,80,114164,1,2,2:3:0:0:
450,188,114340,2,0,L|460:279,1,75,2|0,3:2|2:0,2:0:0:0:
346,284,114693,2,0,L|363:373,1,75,2|0,3:2|2:0,3:2:0:0:
255,315,115046,1,2,3:2:0:0:
38,374,115399,69,2,3:2:0:0:
114,291,115576,1,2,2:3:0:0:
18,230,115752,2,0,L|25:152,1,75,2|0,3:2|2:0,2:0:0:0:
0,45,116105,2,0,P|62:57|121:-16,1,150,2|0,3:2|3:2,2:0:0:0:
292,143,116811,5,0,3:2:0:0:
494,44,117164,1,0,3:2:0:0:
269,56,117517,1,0,3:2:0:0:
469,157,117870,69,2,3:2:0:0:
507,263,118046,1,2,2:3:0:0:
431,346,118223,2,0,L|347:333,1,75,2|0,3:2|2:0,2:0:0:0:
251,373,118576,2,0,L|177:320,1,75,2|0,3:2|2:0,2:0:0:0:
84,366,118929,1,2,3:2:0:0:
156,153,119282,6,0,L|20:33,3,150,0|0|0|0,3:2|3:2|3:2|3:2,2:0:0:0:
243,81,120693,54,0,L|257:16,2,60,2|2|2,2:0|2:3|2:0,2:0:0:0:
366,168,121399,2,0,L|389:290,1,120,0|2,2:0|2:0,2:0:0:0:
64,239,124223,38,0,P|108:280|85:390,2,150,2|10|2,3:2|3:2|3:2,2:0:0:0:
17,136,125105,2,0,P|54:139|91:102,1,75,2|8,2:0|3:2,2:0:0:0:
155,31,125458,2,0,P|191:26|232:59,1,75,2|0,2:0|3:2,2:0:0:0:
298,128,125811,1,2,2:3:0:0:
319,119,125899,1,2,2:3:0:0:
339,111,125987,1,8,3:2:0:0:
398,206,126164,2,0,L|395:303,1,75,2|0,2:0|3:2,2:0:0:0:
321,367,126517,1,2,2:0:0:0:
238,290,126693,2,0,L|249:238,3,37.5,8|2|2|2,3:2|2:3|2:3|2:3,2:0:0:0:
226,199,127046,6,0,P|223:157|272:125,1,75,2|0,3:2|2:0,2:0:0:0:
301,36,127399,1,10,3:2:0:0:
76,4,127752,1,2,3:2:0:0:
0,90,127929,2,0,P|-2:130|18:177,1,75,2|8,2:0|3:2,2:0:0:0:
118,188,128282,2,0,P|119:231|82:268,1,75,2|0,2:0|3:2,2:0:0:0:
40,353,128635,1,2,2:3:0:0:
40,353,128723,1,2,2:3:0:0:
40,353,128811,1,10,3:2:0:0:
150,374,128987,2,0,P|183:353|244:372,1,75,2|0,2:0|3:2,2:0:0:0:
328,377,129340,1,2,2:0:0:0:
418,311,129517,2,0,L|410:261,3,37.5,8|2|2|2,3:2|2:3|2:3|2:3,2:0:0:0:
388,221,129870,70,0,P|388:173|430:140,1,75,2|0,3:2|2:0,2:0:0:0:
511,124,130223,2,0,P|514:90|481:62,1,75,10|0,3:2|2:0,2:0:0:0:
387,9,130576,1,2,3:2:0:0:
289,64,130752,2,0,P|254:57|212:79,1,75,2|8,2:0|3:2,2:0:0:0:
187,180,131105,2,0,P|151:185|110:152,1,75,2|0,2:0|3:2,2:0:0:0:
18,114,131458,1,2,2:3:0:0:
9,135,131546,1,2,2:3:0:0:
2,152,131635,1,10,3:2:0:0:
35,259,131811,2,0,L|43:355,1,75,2|0,2:0|3:2,2:0:0:0:
144,379,132164,1,2,2:0:0:0:
239,320,132340,2,0,L|300:320,3,37.5,8|2|2|2,3:2|2:3|2:3|2:3,2:0:0:0:
315,361,132693,6,0,L|393:352,1,75,0|0,3:2|2:0,2:0:0:0:
473,276,133046,2,0,L|399:259,1,75,8|0,3:2|2:0,2:0:0:0:
483,184,133399,2,0,L|463:100,1,75,0|0,3:2|2:0,2:0:0:0:
352,112,133752,2,0,L|361:31,1,75,8|0,3:2|2:0,2:0:0:0:
249,16,134105,70,0,L|172:40,1,75,0|0,3:2|2:0,2:0:0:0:
103,124,134458,2,0,L|195:157,1,75,8|0,3:2|2:0,2:0:0:0:
280,185,134811,2,0,L|302:280,1,75,0|0,3:2|2:0,2:0:0:0:
250,368,135164,1,8,3:2:0:0:
250,368,135252,1,2,2:3:0:0:
250,368,135340,1,2,2:3:0:0:
250,368,135429,1,2,2:3:0:0:
250,368,135517,6,0,P|189:340|98:375,2,150,2|10|2,3:2|3:2|3:2,2:0:0:0:
361,349,136399,2,0,P|396:356|438:334,1,75,2|8,2:0|3:2,2:0:0:0:
398,232,136752,2,0,P|434:227|475:260,1,75,2|0,2:0|3:2,2:0:0:0:
505,139,137105,1,2,2:3:0:0:
496,118,137193,1,2,2:3:0:0:
484,96,137282,1,10,3:2:0:0:
377,60,137458,2,0,P|325:65|282:71,1,75,2|0,2:0|3:2,2:0:0:0:
203,13,137811,1,2,2:0:0:0:
115,83,137987,2,0,L|126:135,3,37.5,8|2|2|2,3:2|2:3|2:3|2:3,2:0:0:0:
145,171,138340,70,0,P|183:165|220:180,1,75,2|0,3:2|2:0,2:0:0:0:
305,246,138693,1,10,3:2:0:0:
118,372,139046,1,2,3:2:0:0:
19,316,139223,2,0,P|12:281|34:239,1,75,2|8,2:0|3:2,2:0:0:0:
47,134,139576,2,0,P|52:98|19:57,1,75,2|0,2:0|3:2,2:0:0:0:
142,38,139929,1,2,2:3:0:0:
163,29,140017,1,2,2:3:0:0:
183,21,140105,1,8,3:2:0:0:
293,42,140282,2,0,L|385:51,1,75,2|0,2:0|3:2,2:0:0:0:
475,17,140635,1,2,2:0:0:0:
505,124,140811,2,0,L|494:176,3,37.5,8|2|2|2,3:2|2:3|2:3|2:3,2:0:0:0:
440,163,141164,6,0,P|428:200|454:245,1,75,2|0,3:2|2:0,2:0:0:0:
512,325,141517,2,0,P|496:364|465:387,1,75,10|0,3:2|2:0,2:0:0:0:
358,373,141870,1,2,3:2:0:0:
278,293,142046,2,0,P|241:287|207:308,1,75,2|8,2:0|3:2,2:0:0:0:
120,375,142399,2,0,P|82:377|43:347,1,75,2|0,2:0|3:2,2:0:0:0:
6,255,142752,1,2,2:3:0:0:
15,234,142840,1,2,2:3:0:0:
23,214,142929,1,8,3:2:0:0:
134,197,143105,2,0,L|131:100,1,75,2|0,2:0|3:2,2:0:0:0:
74,25,143458,1,2,2:0:0:0:
185,18,143635,2,0,L|235:24,3,37.5,8|2|2|2,3:2|2:3|2:3|2:3,2:0:0:0:
260,64,143987,70,0,L|337:57,1,75,0|0,3:2|2:0,2:0:0:0:
432,114,144340,2,0,L|358:137,1,75,8|0,3:2|2:0,2:0:0:0:
305,234,144693,2,0,L|299:317,1,75,0|0,3:2|2:0,2:0:0:0:
408,278,145046,2,0,L|447:203,1,75,8|0,3:2|2:0,2:0:0:0:
361,114,145399,38,0,L|292:95,1,50,0|2,2:0|2:0,2:0:0:0:
158,49,145929,1,2,2:0:0:0:
158,49,146282,1,0,2:0:0:0:
158,49,146635,1,2,2:0:0:0:
35,39,158105,70,0,L|107:61,1,75.0000000000002,2|2,2:0|2:0,2:0:0:0:
171,153,158811,1,2,2:0:0:0:
260,84,159164,2,0,L|246:31,2,37.5000000000001,2|2|2,2:0|2:3|2:0,2:0:0:0:
362,131,159870,2,0,L|345:206,1,75.0000000000002,2|2,2:0|2:0,2:0:0:0:
416,291,160576,1,2,2:0:0:0:
342,376,160929,1,2,2:0:0:0:
240,327,161282,2,0,L|88:297,1,150,2|0,2:0|2:0,2:0:0:0:
291,25,163046,6,0,L|335:33,2,37.5000000000001,2|2|2,2:0|2:3|2:0,2:0:0:0:
178,25,163752,2,0,L|159:73,1,37.5000000000001,2|2,2:0|2:3,2:0:0:0:
98,105,164105,2,0,L|128:258,1,150,2|0,2:0|2:0,2:0:0:0:
464,271,165870,70,0,L|508:263,2,37.5000000000001,2|2|2,2:0|2:3|2:0,2:0:0:0:
351,271,166576,2,0,L|332:223,1,37.5000000000001,2|2,2:0|2:3,2:0:0:0:
271,191,166929,2,0,L|301:38,1,150,2|0,2:0|2:0,2:0:0:0:
12,362,169399,22,0,L|14:273,1,75,0|0,3:2|2:0,2:0:0:0:
121,321,169752,2,0,L|147:238,1,75,0|0,3:2|2:0,2:0:0:0:
75,159,170105,1,0,3:2:0:0:
268,43,170458,1,0,3:2:0:0:
237,150,170635,1,0,2:0:0:0:
335,204,170811,2,0,L|307:281,1,75,0|0,3:2|2:0,2:0:0:0:
420,294,171164,2,0,L|394:369,1,75,0|0,3:2|2:0,2:0:0:0:
283,379,171517,1,0,3:2:0:0:
63,328,171870,5,0,3:2:0:0:
144,251,172046,1,0,2:0:0:0:
98,147,172223,2,0,L|14:167,1,75,0|0,3:2|2:0,2:0:0:0:
37,52,172576,2,0,P|105:31|177:97,1,150,0|0,3:2|3:2,2:0:0:0:
313,243,173282,69,0,3:2:0:0:
375,27,173635,1,0,3:2:0:0:
409,249,173987,1,0,3:2:0:0:
290,57,174340,5,0,3:2:0:0:
225,149,174517,1,0,2:0:0:0:
141,74,174693,2,0,L|134:-27,1,75,0|0,3:2|2:0,2:0:0:0:
31,43,175046,2,0,L|62:139,1,75,0|0,3:2|2:0,2:0:0:0:
37,226,175399,2,0,P|98:223|144:313,1,150,0|0,3:2|3:2,2:0:0:0:
359,364,176105,69,0,3:2:0:0:
454,160,176458,1,0,3:2:0:0:
286,309,176811,1,0,3:2:0:0:
377,103,177164,5,0,3:2:0:0:
305,190,177340,1,0,2:0:0:0:
228,107,177517,2,0,L|263:27,1,75,0|0,3:2|2:0,2:0:0:0:
145,44,177870,2,0,L|133:137,1,75,0|0,3:2|2:0,2:0:0:0:
24,136,178223,2,0,P|61:201|11:283,1,150,0|0,3:2|3:2,2:0:0:0:
239,362,178929,69,0,3:2:0:0:
462,335,179282,1,0,3:2:0:0:
251,255,179635,1,0,3:2:0:0:
315,162,179811,1,0,3:2:0:0:
253,68,179987,2,0,L|209:81,2,37.5,0|4|4,3:2|2:3|2:3,2:0:0:0:
375,46,180340,1,0,3:2:0:0:
375,46,180429,1,4,2:3:0:0:
375,46,180517,1,4,2:3:0:0:
375,46,180605,1,4,2:3:0:0:
375,46,180693,6,0,L|464:44,1,75,0|0,3:2|2:0,2:0:0:0:
444,157,181046,2,0,L|538:147,1,75,8|0,3:2|2:0,2:0:0:0:
505,261,181399,1,0,3:2:0:0:
301,358,181752,1,8,3:2:0:0:
207,296,181929,1,0,2:0:0:0:
118,365,182105,2,0,L|121:281,1,75,0|0,3:2|2:0,2:0:0:0:
7,292,182458,2,0,L|30:204,1,75,8|0,3:2|2:0,2:0:0:0:
113,148,182811,1,0,3:2:0:0:
328,214,183164,69,8,3:2:0:0:
407,293,183340,1,0,2:0:0:0:
479,206,183517,2,0,L|460:132,1,75,0|0,3:2|2:0,2:0:0:0:
498,27,183870,2,0,P|439:52|359:12,1,150,8|0,3:2|3:2,2:0:0:0:
139,11,184576,5,8,3:2:0:0:
303,164,184929,1,0,3:2:0:0:
87,100,185282,1,8,3:2:0:0:
236,268,185635,69,0,3:2:0:0:
305,356,185811,1,0,2:0:0:0:
396,290,185987,2,0,L|383:206,1,75,8|0,3:2|2:0,2:0:0:0:
494,242,186340,2,0,L|499:139,1,75,0|0,3:2|2:0,2:0:0:0:
415,91,186693,1,8,3:2:0:0:
198,29,187046,5,0,3:2:0:0:
287,235,187399,1,8,3:2:0:0:
297,10,187752,1,0,3:2:0:0:
186,206,188105,1,8,3:2:0:0:
307,16,188458,70,0,L|395:27,1,75,0|0,3:2|2:0,2:0:0:0:
372,137,188811,2,0,L|463:146,1,75,8|0,3:2|2:0,2:0:0:0:
504,241,189164,2,0,P|448:236|429:328,1,150,0|8,3:2|3:2,2:0:0:0:
201,369,189870,6,0,L|118:353,1,75,0|0,2:0|2:0,2:0:0:0:
39,170,190399,1,0,2:0:0:0:
39,170,190752,1,0,2:0:0:0:
39,170,191105,1,0,2:0:0:0:
39,170,191458,1,0,2:0:0:0:
39,170,191811,1,0,2:0:0:0:
83,67,191987,70,0,P|118:57|170:87,1,75,0|0,3:2|2:0,2:0:0:0:
182,177,192340,2,0,P|219:184|262:152,1,75,8|0,3:2|2:0,2:0:0:0:
298,65,192693,2,0,P|332:60|374:91,1,75,0|0,3:2|2:0,2:0:0:0:
452,151,193046,1,8,3:2:0:0:
464,270,193223,1,0,2:0:0:0:
464,270,193311,1,0,2:0:0:0:
464,270,193399,2,0,P|423:243|387:245,1,75,0|0,3:2|2:0,2:0:0:0:
365,350,193752,2,0,P|328:353|296:318,1,75,8|0,3:2|2:0,2:0:0:0:
228,243,194105,1,0,3:2:0:0:
41,368,194458,5,8,3:2:0:0:
15,258,194635,1,0,2:0:0:0:
107,193,194811,2,0,P|105:165|70:123,1,75,0|0,3:2|2:0,2:0:0:0:
53,17,195164,2,0,P|92:41|145:37,1,75,8|0,3:2|2:0,2:0:0:0:
227,8,195517,70,0,L|305:13,1,75,0|0,3:2|2:0,2:0:0:0:
327,122,195870,2,0,L|413:95,1,75,8|0,3:2|2:0,2:0:0:0:
412,211,196223,2,0,L|493:232,1,75,0|0,3:2|2:0,2:0:0:0:
432,330,196576,2,0,L|359:370,1,75,8|0,3:2|2:0,2:0:0:0:
254,376,196929,5,0,3:2:0:0:
177,293,197105,1,0,2:0:0:0:
279,246,197282,2,0,P|270:204|290:167,1,75,8|0,3:2|2:0,2:0:0:0:
310,158,197546,1,0,2:0:0:0:
336,144,197635,2,0,P|344:107|306:71,1,75,0|0,3:2|2:0,2:0:0:0:
226,21,197987,2,0,P|148:12|99:74,1,150,8|0,3:2|3:2,2:0:0:0:
41,277,198693,70,0,L|124:280,1,75,8|0,3:2|2:0,2:0:0:0:
189,365,199046,2,0,L|274:320,1,75,0|0,3:2|2:0,2:0:0:0:
356,379,199399,2,0,L|386:290,1,75,8|0,3:2|2:0,2:0:0:0:
415,200,199752,5,0,3:2:0:0:
507,135,199929,1,0,2:0:0:0:
466,30,200105,2,0,P|429:15|371:33,1,75,8|0,3:2|2:0,2:0:0:0:
376,42,200370,1,0,2:0:0:0:
356,68,200458,2,0,P|311:71|275:33,1,75,0|0,3:2|2:0,2:0:0:0:
188,1,200811,2,0,P|134:54|56:37,1,150,8|0,3:2|3:2,2:0:0:0:
2,260,201517,70,0,L|24:354,1,75,8|0,3:2|2:0,2:0:0:0:
120,383,201870,2,0,L|150:289,1,75,0|0,3:2|2:0,2:0:0:0:
244,262,202223,2,0,L|271:356,1,75,8|0,3:2|2:0,2:0:0:0:
377,340,202576,2,0,L|360:387,2,37.5,0|0|0,3:2|2:0|2:0,2:0:0:0:
347,231,202929,1,8,3:2:0:0:
285,136,203105,1,0,2:0:0:0:
378,73,203282,6,0,P|407:66|453:92,1,75,0|0,3:2|2:0,2:0:0:0:
442,196,203635,2,0,P|466:184|526:201,1,75,8|0,3:2|2:0,2:0:0:0:
472,295,203987,2,0,P|443:320|392:307,1,75,0|0,3:2|2:0,2:0:0:0:
310,375,204340,1,8,3:2:0:0:
260,286,204517,1,0,2:0:0:0:
260,286,204605,1,0,2:0:0:0:
260,286,204693,2,0,P|223:276|176:283,1,75,0|0,3:2|2:0,2:0:0:0:
121,371,205046,2,0,P|79:367|50:329,1,75,8|0,3:2|2:0,2:0:0:0:
2,246,205399,1,0,3:2:0:0:
83,36,205752,69,8,3:2:0:0:
191,0,205929,1,0,2:0:0:0:
269,81,206105,2,0,P|274:117|247:158,1,75,0|0,3:2|2:0,2:0:0:0:
147,180,206458,2,0,P|150:225|192:260,1,75,8|0,3:2|2:0,2:0:0:0:
278,267,206811,6,0,L|356:272,1,75,0|0,3:0|2:0,2:0:0:0:
458,310,207164,2,0,L|496:215,1,75,8|0,3:2|2:0,2:0:0:0:
472,128,207517,2,0,L|392:112,1,75,0|0,3:2|2:0,2:0:0:0:
355,9,207870,2,0,L|282:49,1,75,8|0,3:2|2:0,2:0:0:0:
268,156,208223,69,0,3:2:0:0:
185,78,208399,1,0,2:0:0:0:
79,116,208576,2,0,P|84:156|60:185,1,75,8|0,3:2|2:0,2:0:0:0:
35,193,208840,1,0,2:0:0:0:
5,205,208929,2,0,P|3:247|33:286,1,75,0|0,3:2|2:0,2:0:0:0:
51,382,209282,2,0,P|115:352|185:385,1,150,8|0,3:2|3:2,2:0:0:0:
407,360,209987,6,0,L|389:252,1,75,8|0,3:2|2:0,2:0:0:0:
454,190,210340,2,0,L|377:114,1,75,0|0,3:2|2:0,2:0:0:0:
394,24,210693,2,0,L|321:64,1,75,8|0,3:2|2:0,2:0:0:0:
214,65,211046,69,0,3:2:0:0:
278,157,211223,1,0,2:0:0:0:
239,262,211399,2,0,P|196:262|162:231,1,75,8|0,3:2|2:0,2:0:0:0:
158,218,211664,1,0,2:0:0:0:
144,187,211752,2,0,P|112:192|74:238,1,75,0|0,3:2|2:0,2:0:0:0:
32,321,212105,2,0,P|95:314|153:380,1,150,8|0,3:2|3:2,2:0:0:0:
376,375,212811,1,8,3:2:0:0:
481,228,213164,70,0,P|428:190|419:134,3,120,2|8|2|8,2:0|3:2|2:0|3:2,2:0:0:0:
220,29,214576,38,0,L|145:41,1,75,0|0,3:2|2:0,2:0:0:0:
36,12,214929,1,0,3:2:0:0:
45,236,215282,2,0,P|80:252|89:303,1,75,0|0,3:2|2:0,2:0:0:0:
149,382,215635,2,0,P|160:357|211:345,1,75,0|0,3:2|2:0,2:0:0:0:
227,357,215899,1,2,2:3:0:0:
251,368,215987,54,0,L|257:290,1,75,2|0,3:0|2:0,2:0:0:0:
173,217,216340,2,0,L|192:129,1,75,0|0,3:2|2:0,2:0:0:0:
191,30,216693,2,0,L|278:49,1,75,0|0,3:2|2:0,2:0:0:0:
371,11,217046,1,0,3:2:0:0:
392,121,217223,1,0,2:0:0:0:
489,175,217399,22,0,P|464:192|451:248,1,75,0|0,3:2|2:0,2:0:0:0:
347,289,217752,2,0,P|381:317|382:362,1,75,0|0,3:2|2:0,2:0:0:0:
274,364,218105,2,0,L|194:359,1,75,0|0,3:2|2:0,2:0:0:0:
87,376,218458,2,0,L|75:286,1,75,0|0,3:2|2:0,2:0:0:0:
58,286,218723,1,2,2:3:0:0:
43,277,218811,54,0,L|64:201,1,75,2|0,3:0|2:0,2:0:0:0:
12,103,219164,2,0,L|48:21,1,75,0|0,3:2|2:0,2:0:0:0:
154,21,219517,2,0,P|180:54|236:57,1,75,0|0,3:2|2:0,2:0:0:0:
317,24,219870,1,0,3:2:0:0:
333,134,220046,1,0,2:0:0:0:
242,202,220223,22,0,L|255:288,1,75,0|0,3:2|2:0,2:0:0:0:
194,372,220576,1,0,3:2:0:0:
418,354,220929,2,0,P|390:313|399:271,1,75,0|0,3:2|2:0,2:0:0:0:
480,220,221282,2,0,P|490:182|459:144,1,75,0|0,3:2|2:0,2:0:0:0:
452,140,221546,1,2,2:3:0:0:
432,136,221635,54,0,L|353:133,1,75,2|0,3:0|2:0,2:0:0:0:
290,42,221987,2,0,L|207:49,1,75,0|0,3:2|2:0,2:0:0:0:
107,81,222340,2,0,P|143:102|152:147,1,75,0|0,3:2|2:0,2:0:0:0:
87,223,222693,1,0,3:2:0:0:
147,318,222870,1,0,2:0:0:0:
258,305,223046,22,0,L|338:310,1,75,0|0,3:2|2:0,2:0:0:0:
438,350,223399,2,0,L|473:277,1,75,0|0,3:2|2:0,2:0:0:0:
503,174,223752,2,0,L|423:169,1,75,0|0,3:2|2:0,2:0:0:0:
361,78,224105,2,0,P|333:104|285:113,1,75,0|0,3:2|2:0,2:0:0:0:
276,106,224370,1,2,2:3:0:0:
260,94,224458,54,0,P|223:84|186:104,1,75,2|0,3:0|2:0,2:0:0:0:
99,164,224811,2,0,L|102:253,1,75,0|0,3:2|2:0,2:0:0:0:
28,325,225164,2,0,L|113:356,1,75,0|0,3:2|2:0,2:0:0:0:
195,384,225517,1,0,3:2:0:0:
289,324,225693,1,0,2:0:0:0:
236,224,225870,22,0,L|256:131,1,75,0|0,3:2|2:0,2:0:0:0:
225,41,226223,1,0,3:2:0:0:
449,59,226576,2,0,P|412:82|406:126,1,75,0|0,3:2|2:0,2:0:0:0:
456,209,226929,2,0,P|449:254|406:290,1,75,0|0,3:2|2:0,2:0:0:0:
417,294,227193,1,2,2:3:0:0:
402,307,227282,54,0,L|323:304,1,75,2|0,3:0|2:0,2:0:0:0:
243,379,227635,2,0,L|152:364,1,75,0|0,3:2|2:0,2:0:0:0:
56,373,227987,2,0,P|76:337|62:287,1,75,0|0,3:2|2:0,2:0:0:0:
23,203,228340,1,0,3:2:0:0:
114,136,228517,1,0,2:0:0:0:
106,24,228693,22,0,L|186:29,1,75,0|0,3:2|2:0,2:0:0:0:
291,5,229046,2,0,L|325:79,1,75,0|0,3:2|2:0,2:0:0:0:
430,105,229399,2,0,L|388:200,1,75,0|0,3:2|2:0,2:0:0:0:
458,269,229752,2,0,L|380:280,1,75,0|0,3:2|2:0,2:0:0:0:
369,296,230017,1,2,2:3:0:0:
357,311,230105,2,0,L|278:308,1,75,2|0,3:0|2:0,2:0:0:0:
183,363,230458,54,0,P|196:325|180:274,1,75,0|0,3:2|2:0,2:0:0:0:
274,215,230811,2,0,P|247:191|252:132,1,75,0|0,3:2|2:0,2:0:0:0:
296,54,231164,1,0,3:2:0:0:
194,6,231340,1,0,2:0:0:0:
97,64,231517,22,0,L|99:151,1,75,0|0,3:2|2:0,2:0:0:0:
7,205,231870,2,0,L|79:260,1,75,0|0,3:2|2:0,2:0:0:0:
68,363,232223,2,0,P|98:341|153:344,1,75,0|0,3:2|2:0,2:0:0:0:
243,368,232576,2,0,P|284:373|323:341,1,75,0|0,3:2|2:0,2:0:0:0:
326,339,232840,1,2,2:3:0:0:
335,324,232929,54,0,L|416:330,1,75,2|0,3:0|2:0,2:0:0:0:
512,315,233282,2,0,L|509:226,1,75,0|0,3:2|2:0,2:0:0:0:
403,200,233635,2,0,L|420:124,1,75,0|0,3:2|2:0,2:0:0:0:
475,27,233987,1,0,3:2:0:0:
367,60,234164,1,0,2:0:0:0:
263,15,234340,22,0,L|236:96,1,75,0|0,3:2|2:0,2:0:0:0:
257,197,234693,1,0,3:2:0:0:
63,312,235046,2,0,L|28:239,1,75,0|0,3:2|2:0,2:0:0:0:
107,161,235399,2,0,L|93:87,2,75,0|0|0,3:2|2:0|2:0,2:0:0:0:
179,247,235929,38,0,L|210:316,1,60,2|0,2:0|2:0,2:0:0:0:
275,356,236282,1,2,2:0:0:0:
444,294,236635,2,0,L|416:220,1,60,2|0,2:0|2:0,2:0:0:0:
453,153,236987,1,2,2:0:0:0:
383,95,237164,69,4,2:0:0:0:
256,192,237252,12,0,241046,2:0:0:0:
