osu file format v14

[General]
AudioFilename: audio.mp3
AudioLeadIn: 0
PreviewTime: 56282
Countdown: 0
SampleSet: Soft
StackLeniency: 0.7
Mode: 0
LetterboxInBreaks: 0
WidescreenStoryboard: 0

[Editor]
DistanceSpacing: 1
BeatDivisor: 4
GridSize: 8
TimelineZoom: 2.799999

[Metadata]
Title:WE ARE THE PEOPLE
TitleUnicode:WE ARE THE PEOPLE
Artist:Lieless
ArtistUnicode:Lieless
Creator:PAJWOJ
Version:MEMOIR
Source:
Tags:techno hardcore hardtekk electronic dance house edm nxc nightcore empire of the sun southstar remix soundcloud lielessx english vocal vocals pitched nuvolina namriee digidrake
BeatmapID:4463726
BeatmapSetID:2123963

[Difficulty]
HPDrainRate:5.7
CircleSize:4
OverallDifficulty:8.5
ApproachRate:8.5
SliderMultiplier:1.57
SliderTickRate:1

[Events]
//Background and Video events
0,0,"F0g8IwlaYAA_u3d.jpg",0,0
//Break Periods
2,158305,165724
//Storyboard Layer 0 (Background)
//Storyboard Layer 1 (Fail)
//Storyboard Layer 2 (Pass)
//Storyboard Layer 3 (Foreground)
//Storyboard Layer 4 (Overlay)
//Storyboard Sound Samples

[TimingPoints]
-12,352.941176470588,4,2,57,40,1,0
870,-133.333333333333,4,2,57,40,0,0
1223,-333.333333333333,4,2,57,40,0,0
2811,-333.333333333333,4,2,99,40,0,0
2833,-333.333333333333,4,2,57,40,0,0
3517,-133.333333333333,4,2,57,40,0,0
4576,-222.222222222222,4,2,57,40,0,0
6340,-133.333333333333,4,2,57,40,0,0
7399,-200,4,2,57,40,0,0
8282,-250,4,2,57,40,0,0
9164,-133.333333333333,4,2,57,40,0,0
11282,-166.666666666667,4,2,57,40,0,0
12517,-250,4,2,57,40,0,0
15340,-333.333333333333,4,2,57,40,0,0
22576,-100,4,2,57,50,0,0
33870,-80,4,2,57,70,0,0
44458,-1000,4,2,57,70,0,0
45164,-80,4,2,57,70,0,0
54870,-133.333333333333,4,2,57,70,0,0
55046,-133.333333333333,4,2,57,30,0,0
56458,-66.6666666666667,4,2,57,80,0,1
67046,-1000,4,2,57,80,0,1
67752,-66.6666666666667,4,2,57,80,0,1
68458,-71.4285714285714,4,2,57,80,0,1
70929,-66.6666666666667,4,2,57,80,0,1
77635,-100,4,2,57,80,0,0
79046,-133.333333333333,4,2,57,40,0,0
79752,-100,4,2,57,40,0,0
81870,-133.333333333333,4,2,57,40,0,0
82576,-100,4,2,57,40,0,0
84693,-133.333333333333,4,2,57,40,0,0
85399,-100,4,2,57,40,0,0
87693,-133.333333333333,4,2,57,40,0,0
88929,-100,4,2,57,40,0,0
90340,-133.333333333333,4,2,57,40,0,0
91046,-90.9090909090909,4,2,57,40,0,0
93164,-133.333333333333,4,2,57,40,0,0
93870,-90.9090909090909,4,2,57,40,0,0
95987,-133.333333333333,4,2,57,40,0,0
96870,-90.9090909090909,4,2,57,40,0,0
101282,-1000,4,2,57,40,0,0
101635,-86.9565217391304,4,2,57,60,0,0
119282,-100,4,2,57,50,0,0
119987,-117.647058823529,4,2,57,40,0,0
120693,-142.857142857143,4,2,57,30,0,0
121399,-142.857142857143,4,2,57,20,0,0
122458,-142.857142857143,4,2,57,25,0,0
122811,-117.647058823529,4,2,57,35,0,0
123164,-100,4,2,57,45,0,0
123517,-86.9565217391304,4,2,57,55,0,0
123870,-86.9565217391304,4,2,57,65,0,0
124223,-66.6666666666667,4,2,57,80,0,1
145399,-66.6666666666667,4,2,57,80,0,0
145576,-100,4,2,57,80,0,0
146811,-200,4,2,57,40,0,0
148046,-285.714285714286,4,2,57,40,0,0
149635,-200,4,2,57,40,0,0
150870,-285.714285714286,4,2,57,40,0,0
154752,-133.333333333333,4,2,57,40,0,0
155105,-285.714285714286,4,2,57,40,0,0
166399,-200,4,2,57,40,0,0
167105,-200,4,2,57,20,0,0
167458,-200,4,2,57,30,0,0
167811,-200,4,2,57,40,0,0
167987,-133.333333333333,4,2,57,40,0,0
168163,-133.333333333333,4,2,57,50,0,0
168516,-133.333333333333,4,2,57,60,0,0
168693,-100,4,2,57,60,0,0
168869,-100,4,2,57,70,0,0
169046,-90.9090909090909,4,2,57,70,0,0
169399,-86.9565217391304,4,2,57,70,0,0
179987,-1000,4,2,57,70,0,0
180693,-66.6666666666667,4,2,57,80,0,1
186340,-71.4285714285714,4,2,57,80,0,1
187752,-76.9230769230769,4,2,57,80,0,1
190576,-76.9230769230769,4,2,57,40,0,0
190752,-125,4,2,57,50,0,0
191105,-90.9090909090909,4,2,57,60,0,0
191458,-71.4285714285714,4,2,57,70,0,0
191811,-71.4285714285714,4,2,57,80,0,0
191987,-62.5,4,2,57,90,0,1
213164,-62.5,4,2,57,70,0,0
213340,-100,4,2,57,70,0,0
214576,-62.5,4,2,57,90,0,1
235752,-62.5,4,2,57,90,0,0
235929,-100,4,2,57,90,0,0
237164,-100,4,2,57,70,0,0

[Colours]
Combo1 : 36,101,253
Combo2 : 107,107,107
Combo3 : 163,163,163
Combo4 : 174,168,255
Combo5 : 109,98,255
Combo6 : 146,179,254

[HitObjects]
187,214,693,21,2,0:2:0:0:
187,214,870,2,0,L|108:227,1,58.8750000000001,2|2,0:2|0:2,0:0:0:0:
249,271,1223,2,0,B|364:286|320:199|448:224,1,211.95,2|4,0:2|3:1,0:0:0:0:
446,223,3517,70,0,P|460:252|447:298,1,58.8750000000001,2|2,0:2|0:2,0:0:0:0:
351,201,3870,1,2,0:2:0:0:
351,201,4046,1,2,0:2:0:0:
351,201,4223,2,0,P|337:172|350:126,1,58.8750000000001,2|0,0:2|0:0,0:0:0:0:
457,69,4576,2,0,B|342:54|386:141|258:116,1,211.95,2|2,0:2|0:2,0:0:0:0:
259,116,6340,6,0,P|279:150|273:191,1,58.8750000000001,2|2,0:2|0:2,0:0:0:0:
147,192,6693,1,2,0:2:0:0:
147,192,6870,1,2,0:2:0:0:
147,192,7046,2,0,P|170:175|199:172,1,58.8750000000001,2|2,0:2|0:2,0:0:0:0:
341,291,7399,70,0,B|245:304|281:237|188:253,1,157,2|0,0:2|0:0,0:0:0:0:
186,260,8282,6,0,L|206:394,1,125.6,0|2,1:2|0:2,0:0:0:0:
321,342,9164,2,0,P|341:308|334:273,1,58.8750000000001,2|2,0:2|0:2,0:0:0:0:
313,101,9693,1,0,1:2:0:0:
313,101,9870,2,0,L|325:18,2,58.8750000000001,2|2|2,0:2|0:2|0:2,0:0:0:0:
249,173,10399,2,0,L|269:306,2,117.75,2|0|0,0:2|1:2|0:0,0:0:0:0:
256,165,11282,70,0,B|186:153|186:153|155:185|155:185|79:172,1,188.4,0|2,1:2|0:2,0:0:0:0:
29,116,12340,1,2,0:2:0:0:
29,116,12517,2,0,L|67:367,1,251.2,2|0,1:2|0:0,0:0:0:0:
177,305,14105,2,0,P|213:277|212:142,1,188.4,0|2,1:2|0:2,0:0:0:0:
120,62,15340,2,0,P|147:98|282:97,1,188.4,2|0,1:2|0:0,0:0:0:0:
347,142,16929,5,0,0:0:0:0:
347,142,18164,2,0,B|254:130|254:130|212:161,1,141.3,2|0,1:2|1:2,0:0:0:0:
247,246,19576,1,0,1:2:0:0:
256,192,19752,12,0,22487,0:0:0:0:
176,197,22576,22,0,L|189:288,1,78.5,0|0,3:2|2:2,0:0:0:0:
276,304,22929,2,0,L|263:395,1,78.5,0|0,3:2|2:2,0:0:0:0:
141,348,23282,2,0,P|106:314|109:268,2,78.5,2|2|2,3:2|2:2|3:2,0:0:0:0:
254,223,23811,2,0,B|351:209|316:278|426:267,1,157,2|2,2:2|2:2,0:0:0:0:
503,142,24340,1,0,3:2:0:0:
482,227,24517,1,2,2:2:0:0:
412,88,24693,2,0,L|400:-8,1,78.5,2|2,3:2|2:2,0:0:0:0:
505,45,25046,2,0,L|495:122,1,78.5,2|0,3:2|2:2,0:0:0:0:
353,163,25399,22,0,P|303:156|271:129,1,78.5,0|0,3:2|2:2,0:0:0:0:
175,69,25752,2,0,P|225:62|257:35,1,78.5,0|0,3:2|2:2,0:0:0:0:
217,203,26105,2,0,L|230:300,2,78.5,2|2|2,3:2|2:2|3:2,0:0:0:0:
340,87,26635,2,0,P|363:52|483:44,1,157,2|2,2:2|2:2,0:0:0:0:
390,157,27164,2,0,L|377:254,1,78.5,0|2,3:2|2:2,0:0:0:0:
256,121,27517,1,2,3:2:0:0:
256,121,27605,1,0,0:0:0:0:
256,121,27693,1,2,2:2:0:0:
329,9,27870,2,0,L|342:106,1,78.5,2|0,3:2|2:2,0:0:0:0:
217,203,28223,54,0,P|163:193|138:159,1,78.5,0|0,3:2|2:2,0:0:0:0:
235,37,28576,2,0,L|245:114,1,78.5,0|0,3:2|2:2,0:0:0:0:
285,272,28929,1,2,3:2:0:0:
285,272,29105,2,0,B|381:251|346:326|443:309,2,157,2|2|2,2:2|2:2|2:2,0:0:0:0:
423,233,29987,1,0,3:2:0:0:
423,233,30164,2,0,P|448:185|445:151,1,78.5,2|0,2:2|3:2,0:0:0:0:
319,80,30517,1,2,2:2:0:0:
319,80,30693,2,0,P|294:32|297:-2,1,78.5,2|0,3:2|2:2,0:0:0:0:
471,86,31046,21,2,3:2:0:0:
365,172,31223,2,0,P|322:165|277:163,1,78.5,2|0,0:2|3:2,0:0:0:0:
155,82,31576,2,0,P|187:123|191:229,1,157,2|0,0:2|0:2,0:0:0:0:
54,301,32105,2,0,P|97:294|142:292,1,78.5,0|0,3:2|2:2,0:0:0:0:
324,232,32458,54,0,L|312:330,1,78.5,0|0,3:2|0:2,0:0:0:0:
400,362,32811,2,0,L|409:284,1,78.5,0|0,3:2|0:2,0:0:0:0:
494,147,33164,21,2,0:2:0:0:
318,222,33340,1,2,0:2:0:0:
482,323,33517,1,2,0:2:0:0:
413,115,33870,70,0,P|416:62|463:28,1,98.125,0|0,3:2|2:2,0:0:0:0:
329,139,34223,2,0,P|300:94|318:39,1,98.125,0|0,3:2|2:2,0:0:0:0:
398,193,34576,5,2,3:2:0:0:
494,147,34752,1,2,2:2:0:0:
447,32,34929,1,2,3:2:0:0:
329,139,35105,2,0,P|275:141|236:98,1,98.125,2|0,2:2|3:2,0:0:0:0:
108,27,35458,1,2,2:2:0:0:
108,27,35635,70,0,P|91:91|64:122,1,98.125,0|0,3:2|2:2,0:0:0:0:
212,30,35987,1,0,3:2:0:0:
212,30,36076,1,0,0:0:0:0:
212,30,36164,1,0,2:2:0:0:
195,225,36340,2,0,P|167:184|158:136,1,98.125,0|0,3:2|2:2,0:0:0:0:
11,261,36693,6,0,L|120:270,1,98.125,0|0,3:2|2:2,0:0:0:0:
243,369,37046,2,0,L|134:378,1,98.125,0|0,3:2|2:2,0:0:0:0:
8,279,37399,69,2,3:2:0:0:
87,180,37576,1,2,2:2:0:0:
270,248,37752,1,2,3:2:0:0:
145,377,37929,2,0,P|119:316|125:277,1,98.125,2|0,2:2|3:2,0:0:0:0:
228,120,38282,1,2,2:2:0:0:
228,120,38458,6,0,P|295:100|326:107,1,98.125,0|0,3:2|2:2,0:0:0:0:
126,97,38811,2,0,P|75:48|65:18,1,98.125,0|0,3:2|2:2,0:0:0:0:
156,197,39164,2,0,P|139:265|118:288,1,98.125,0|0,3:2|2:2,0:0:0:0:
321,105,39517,70,0,L|301:-9,1,98.125,0|0,3:2|2:2,0:0:0:0:
434,155,39870,2,0,L|453:40,1,98.125,0|0,3:2|2:2,0:0:0:0:
313,195,40223,5,2,3:2:0:0:
480,225,40399,1,2,2:2:0:0:
391,318,40576,1,2,3:2:0:0:
243,229,40752,2,0,P|178:217|143:178,1,98.125,2|0,2:2|3:2,0:0:0:0:
335,117,41105,2,0,P|385:159|396:211,1,98.125,2|0,2:2|3:2,0:0:0:0:
316,336,41458,69,2,2:2:0:0:
224,150,41635,1,0,3:2:0:0:
224,150,41723,1,0,0:0:0:0:
224,150,41811,1,0,2:2:0:0:
415,118,41987,1,0,3:2:0:0:
415,118,42164,1,0,2:2:0:0:
249,291,42340,5,2,3:2:0:0:
151,114,42517,2,0,L|141:8,1,98.125,2|0,2:2|3:2,0:0:0:0:
88,199,42870,2,0,P|44:223|-4:211,1,98.125,2|0,2:2|3:2,0:0:0:0:
224,150,43223,2,0,P|268:126|316:138,1,98.125,2|0,2:2|3:2,0:0:0:0:
166,244,43576,2,0,L|156:341,1,98.125,2|0,2:2|3:2,0:0:0:0:
378,278,43929,1,2,2:2:0:0:
217,63,44105,69,0,3:2:0:0:
165,255,44282,1,2,3:2:0:0:
220,50,44458,22,0,L|222:39,1,7.85,0|2,3:2|2:2,0:0:0:0:
441,114,44811,53,0,3:2:0:0:
423,145,44899,1,0,3:2:0:0:
392,164,44987,1,2,3:2:0:0:
356,165,45076,1,0,3:2:0:0:
324,146,45164,2,0,P|280:146|221:158,1,98.125,0|0,3:2|0:2,0:0:0:0:
51,262,45517,5,0,3:2:0:0:
156,342,45693,1,2,0:2:0:0:
229,143,45870,1,2,3:2:0:0:
124,184,46046,1,2,0:2:0:0:
278,295,46223,1,2,3:2:0:0:
373,97,46399,2,0,P|373:53|361:-6,1,98.125,2|0,2:2|3:2,0:0:0:0:
229,143,46752,2,0,P|219:191|218:240,1,98.125,2|0,0:2|3:2,0:0:0:0:
427,337,47105,69,0,0:2:0:0:
309,213,47282,1,0,3:2:0:0:
309,213,47370,1,0,0:0:0:0:
309,213,47458,1,0,0:2:0:0:
162,360,47635,2,0,L|285:373,1,98.125,0|0,3:2|0:2,0:0:0:0:
384,189,47987,6,0,P|406:139|392:85,1,98.125,0|0,3:2|0:2,0:0:0:0:
207,43,48340,2,0,P|200:90|221:134,1,98.125,0|2,3:2|0:2,0:0:0:0:
432,27,48693,69,2,3:2:0:0:
282,78,48870,1,2,0:2:0:0:
459,152,49046,1,2,3:2:0:0:
234,237,49223,2,0,L|108:220,1,98.125,0|0,2:2|3:2,0:0:0:0:
282,78,49576,2,0,P|307:135|283:186,1,98.125,2|0,0:2|3:2,0:0:0:0:
206,346,49929,5,0,0:2:0:0:
85,160,50105,1,0,3:2:0:0:
85,160,50193,1,0,0:0:0:0:
85,160,50282,1,0,0:2:0:0:
327,251,50458,2,0,L|424:237,1,98.125,0|0,3:2|0:2,0:0:0:0:
197,54,50811,70,0,P|162:107|173:148,1,98.125,0|0,3:2|0:2,0:0:0:0:
327,251,51164,2,0,P|329:203|298:167,1,98.125,0|0,3:2|0:2,0:0:0:0:
101,277,51517,5,2,3:2:0:0:
206,346,51693,1,2,0:2:0:0:
289,159,51870,1,0,3:2:0:0:
96,194,52046,2,0,L|-12:211,1,98.125,2|0,2:2|3:2,0:0:0:0:
211,337,52399,69,2,2:2:0:0:
289,159,52576,2,0,L|272:51,1,98.125,0|0,3:2|2:2,0:0:0:0:
96,194,52929,1,0,3:2:0:0:
96,194,53017,1,0,0:0:0:0:
96,194,53105,1,0,2:2:0:0:
311,234,53282,1,0,3:2:0:0:
146,134,53458,1,0,2:2:0:0:
211,337,53635,1,2,3:2:0:0:
289,159,53811,6,0,P|333:135|391:157,1,98.125,2|0,2:2|3:2,0:0:0:0:
184,70,54164,2,0,P|141:43|131:-17,1,98.125,2|0,2:2|3:2,0:0:0:0:
159,207,54517,2,0,P|157:257|109:296,1,98.125,2|0,2:2|3:2,0:0:0:0:
289,159,54870,22,0,B|273:77|273:77|301:48,1,117.75,2|2,2:2|0:2,0:0:0:0:
126,82,55399,2,0,L|184:70,1,58.8750000000001,2|2,0:2|0:2,0:0:0:0:
77,169,55752,1,2,0:2:0:0:
77,169,55929,1,2,0:2:0:0:
77,169,56458,6,0,B|176:147|140:234|242:218,1,176.625,2|0,3:2|0:0,0:0:0:0:
378,117,56811,2,0,P|430:73|422:19,1,117.75,10|0,3:2|0:2,0:0:0:0:
229,77,57076,1,0,0:0:0:0:
229,77,57164,2,0,L|241:213,1,117.75,2|0,3:2|0:2,0:0:0:0:
425,324,57517,5,10,3:2:0:0:
206,384,57693,1,2,0:2:0:0:
369,133,57870,69,2,3:2:0:0:
125,45,58046,1,2,0:2:0:0:
277,263,58223,5,10,3:2:0:0:
348,4,58399,1,2,0:2:0:0:
99,185,58576,69,2,3:2:0:0:
377,125,58752,1,2,0:2:0:0:
191,0,58929,5,10,3:2:0:0:
191,0,59105,1,2,0:2:0:0:
354,280,59282,69,2,3:2:0:0:
512,71,59458,1,2,0:2:0:0:
222,199,59635,2,0,P|159:225|139:285,1,117.75,10|0,3:2|0:2,0:0:0:0:
333,379,59987,2,0,P|374:324|361:263,1,117.75,0|0,3:2|0:2,0:0:0:0:
199,9,60340,5,8,3:2:0:0:
420,210,60517,1,0,0:2:0:0:
142,132,60693,70,0,P|106:119|22:125,1,117.75,0|0,3:2|0:2,0:0:0:0:
270,37,61046,2,0,P|306:24|390:30,1,117.75,8|0,3:2|0:2,0:0:0:0:
512,127,61399,1,2,3:2:0:0:
512,127,61487,1,0,0:0:0:0:
512,127,61576,5,2,0:2:0:0:
290,247,61752,1,10,3:2:0:0:
199,9,61929,1,2,0:2:0:0:
474,199,62105,69,2,3:2:0:0:
474,199,62282,1,2,0:2:0:0:
189,275,62458,6,0,P|110:265|83:220,1,117.75,10|0,3:2|0:2,0:0:0:0:
285,129,62811,2,0,L|290:251,1,117.75,0|0,3:2|0:2,0:0:0:0:
159,202,63164,2,0,L|164:85,1,117.75,8|0,3:2|0:2,0:0:0:0:
260,319,63517,2,0,P|339:309|366:264,1,117.75,0|0,3:2|0:2,0:0:0:0:
512,126,63870,2,0,P|438:95|392:120,1,117.75,8|0,3:2|0:2,0:0:0:0:
260,319,64223,69,2,3:2:0:0:
344,43,64399,1,2,0:2:0:0:
400,343,64576,5,10,3:2:0:0:
275,80,64752,1,2,2:2:0:0:
464,219,64929,69,2,3:2:0:0:
464,219,65105,1,2,0:2:0:0:
135,327,65282,6,0,P|73:331|33:288,1,117.75,10|0,3:2|0:2,0:0:0:0:
209,164,65635,2,0,L|196:299,1,117.75,0|0,3:2|0:2,0:0:0:0:
9,221,65987,2,0,P|60:186|116:204,1,117.75,8|0,3:2|2:2,0:0:0:0:
242,351,66340,2,0,P|293:386|384:315,1,176.625,0|0,3:2|0:0,0:0:0:0:
499,181,66693,69,8,3:2:0:0:
247,44,66870,1,0,3:2:0:0:
309,298,67046,54,0,L|308:307,1,7.85,0|0,3:2|2:2,0:0:0:0:
499,181,67399,21,8,3:2:0:0:
479,159,67487,1,0,3:2:0:0:
454,144,67576,1,0,3:2:0:0:
425,137,67664,1,0,3:2:0:0:
396,138,67752,6,0,B|308:183|319:84|218:135,1,176.625,2|0,3:2|0:0,0:0:0:0:
121,256,68105,2,0,P|207:259|236:218,1,117.75,10|0,3:2|0:2,0:0:0:0:
320,109,68370,1,0,0:0:0:0:
320,109,68458,2,0,L|310:-27,1,109.9,2|0,3:2|0:2,0:0:0:0:
77,186,68811,69,10,3:2:0:0:
285,384,68987,1,2,0:2:0:0:
407,112,69164,5,2,3:2:0:0:
144,225,69340,1,2,0:2:0:0:
361,356,69517,69,10,3:2:0:0:
244,84,69693,1,2,0:2:0:0:
91,373,69870,5,2,3:2:0:0:
250,69,70046,1,2,0:2:0:0:
355,346,70223,69,10,3:2:0:0:
355,346,70399,1,2,0:2:0:0:
77,186,70576,5,2,3:2:0:0:
411,94,70752,1,2,0:2:0:0:
349,336,70929,70,0,L|231:326,1,117.75,10|0,3:2|0:2,0:0:0:0:
42,118,71282,2,0,P|16:52|30:7,1,117.75,0|0,3:2|0:2,0:0:0:0:
202,157,71635,2,0,P|191:227|156:259,1,117.75,8|0,3:2|0:2,0:0:0:0:
42,118,71987,5,0,3:2:0:0:
42,118,72164,1,0,0:2:0:0:
271,11,72340,2,0,L|389:20,1,117.75,8|0,3:2|0:2,0:0:0:0:
474,207,72693,69,2,3:2:0:0:
474,207,72782,1,0,0:0:0:0:
474,207,72870,1,2,0:2:0:0:
188,372,73046,5,10,3:2:0:0:
319,108,73223,1,2,0:2:0:0:
512,273,73399,69,2,3:2:0:0:
512,273,73576,1,2,0:2:0:0:
221,188,73752,2,0,P|152:170|119:123,1,117.75,10|0,3:2|0:2,0:0:0:0:
351,39,74105,2,0,P|401:89|406:146,1,117.75,0|0,3:2|0:2,0:0:0:0:
311,340,74458,2,0,L|288:212,1,117.75,8|0,3:2|0:2,0:0:0:0:
115,59,74811,6,0,L|-13:36,1,117.75,0|0,3:2|0:2,0:0:0:0:
223,189,75164,2,0,L|351:166,1,117.75,8|0,3:2|0:2,0:0:0:0:
170,0,75517,69,2,3:2:0:0:
170,0,75605,1,0,0:0:0:0:
170,0,75693,1,2,0:2:0:0:
123,298,75870,1,10,3:2:0:0:
334,91,76046,1,2,0:2:0:0:
21,149,76223,6,0,P|-1:214|17:263,1,117.75,2|2,3:2|0:2,0:0:0:0:
240,316,76576,2,0,P|254:260|232:206,1,117.75,10|0,3:2|0:2,0:0:0:0:
21,149,76929,2,0,L|157:129,1,117.75,0|0,3:2|0:2,0:0:0:0:
240,316,77282,2,0,L|104:296,1,117.75,8|0,3:2|0:2,0:0:0:0:
220,118,77635,54,0,L|232:205,1,78.5,0|0,0:0|0:2,0:0:0:0:
326,190,77987,2,0,L|313:277,1,78.5,8|0,0:2|0:2,0:0:0:0:
174,356,78340,1,0,0:0:0:0:
272,384,78517,1,0,0:2:0:0:
123,298,78693,2,0,L|111:220,1,78.5,8|0,0:2|0:2,0:0:0:0:
220,118,79046,70,0,P|188:99|68:164,1,176.625,4|0,1:2|0:0,0:0:0:0:
128,77,79752,2,0,L|116:-1,2,78.5,2|2|2,0:2|0:2|0:2,0:0:0:0:
230,195,80282,2,0,P|262:214|382:149,1,157,2|2,0:2|0:2,0:0:0:0:
205,65,80987,1,2,0:2:0:0:
205,65,81164,2,0,L|127:77,1,78.5,2|2,0:2|0:2,0:0:0:0:
48,25,81517,1,2,0:2:0:0:
138,236,81870,6,0,B|246:251|196:172|311:192,1,176.625,4|0,1:2|0:0,0:0:0:0:
383,246,82576,2,0,P|374:293|376:344,2,78.5,2|2|2,0:2|0:2|0:2,0:0:0:0:
447,175,83105,2,0,P|445:135|437:97,1,78.5,2|0,0:2|0:0,0:0:0:0:
336,10,83458,2,0,B|241:-3|285:65|185:48,1,157,2|0,0:2|0:0,0:0:0:0:
101,76,83987,2,0,P|97:37|114:2,2,78.5,2|2|2,0:2|0:2|0:2,0:0:0:0:
0,283,84693,70,0,P|50:299|139:210,1,176.625,4|0,1:2|0:0,0:0:0:0:
217,167,85399,2,0,L|307:155,2,78.5,2|2|2,0:2|0:2|0:2,0:0:0:0:
131,214,85929,2,0,L|53:203,1,78.5,2|0,0:2|0:0,0:0:0:0:
13,83,86282,2,0,P|81:74|140:152,1,157,2|0,0:2|0:0,0:0:0:0:
218,245,86811,2,0,L|230:335,2,78.5,2|2|2,0:2|0:2|0:2,0:0:0:0:
311,82,87517,5,6,1:2:0:0:
311,82,87693,2,0,B|376:62|359:118|427:98,1,117.75,2|0,0:2|0:0,0:0:0:0:
264,160,88399,2,0,B|198:179|215:123|147:143,1,117.75
100,24,88929,2,0,P|86:59|82:105,2,78.5,2|2|2,0:2|0:2|0:2,0:0:0:0:
222,75,89458,2,0,P|218:36|203:0,1,78.5,2|0,0:2|0:0,0:0:0:0:
67,114,89811,2,0,P|70:152|85:189,1,78.5,2|0,0:2|0:0,0:0:0:0:
180,231,90164,1,2,0:2:0:0:
180,231,90340,70,0,B|286:261|244:176|352:202,1,176.625,4|0,1:2|0:0,0:0:0:0:
262,355,91046,70,0,L|250:256,2,86.35,2|2|2,0:2|0:2|0:2,0:0:0:0:
356,192,91576,2,0,L|455:180,1,86.35,2|0,0:2|0:0,0:0:0:0:
277,157,91929,2,0,L|178:145,1,86.35,2|0,0:2|0:0,0:0:0:0:
346,106,92282,1,2,0:2:0:0:
333,286,92458,2,0,L|344:201,1,86.35,2|2,0:2|0:2,0:0:0:0:
276,47,92811,1,2,0:2:0:0:
23,142,93076,5,0,1:2:0:0:
23,142,93164,2,0,P|86:189|134:171,1,117.75,4|0,1:2|0:0,0:0:0:0:
191,146,93693,69,2,0:2:0:0:
88,23,93870,2,0,L|94:120,2,86.35,2|2|2,0:2|0:2|0:2,0:0:0:0:
198,156,94399,2,0,L|192:253,1,86.35,2|0,0:2|0:0,0:0:0:0:
84,309,94752,2,0,P|103:352|234:358,1,172.7,2|2,0:2|0:2,0:0:0:0:
299,271,95282,2,0,P|341:257|396:259,1,86.35,2|2,0:2|0:2,0:0:0:0:
469,354,95635,1,2,0:2:0:0:
505,161,95899,5,0,1:2:0:0:
505,161,95987,2,0,B|414:185|435:105|335:132,1,176.625,4|0,1:2|0:0,0:0:0:0:
257,62,96693,69,2,0:2:0:0:
124,149,96870,2,0,B|138:282|138:282|191:318,2,172.7,2|2|2,0:2|0:2|0:2,0:0:0:0:
257,62,97929,2,0,B|243:195|243:195|190:231,1,172.7,2|2,0:2|0:2,0:0:0:0:
59,273,98458,1,2,0:2:0:0:
3,58,98811,53,6,1:2:0:0:
3,58,98987,2,0,P|54:58|87:93,1,86.35,2|0,0:2|0:0,0:0:0:0:
210,216,99340,2,0,B|306:243|285:162|376:187,1,172.7,2|0,0:2|0:0,0:0:0:0:
466,211,99870,22,0,P|451:259|407:271,1,86.35
361,110,100223,2,0,P|384:154|361:194,1,86.35
215,113,100576,2,0,P|262:128|275:172,1,86.35
412,277,100929,53,2,0:2:0:0:
189,321,101105,1,2,0:2:0:0:
306,61,101282,38,0,L|311:48,1,11.775,2|0,0:2|0:0,0:0:0:0:
316,39,101635,22,0,P|370:17|414:40,1,90.275,2|0,3:2|0:2,0:0:0:0:
501,109,101987,2,0,P|446:130|402:107,1,90.275,2|0,3:2|0:2,0:0:0:0:
313,36,102340,2,0,P|367:14|411:37,1,90.275,2|0,3:2|0:2,0:0:0:0:
504,112,102693,2,0,P|449:133|405:110,1,90.275,2|2,3:2|0:2,0:0:0:0:
203,190,103046,6,0,L|189:85,1,90.275,2|2,3:2|0:2,0:0:0:0:
333,118,103399,2,0,L|322:208,1,90.275,2|2,3:2|0:2,0:0:0:0:
201,295,103752,2,0,L|190:206,1,90.275,2|2,3:2|0:2,0:0:0:0:
369,279,104105,1,2,3:2:0:0:
369,279,104282,1,2,0:2:0:0:
147,357,104458,70,0,P|95:367|61:340,1,90.275,2|2,3:2|0:2,0:0:0:0:
175,214,104811,2,0,P|131:184|126:141,1,90.275,2|0,3:2|0:2,0:0:0:0:
303,224,105164,2,0,L|291:313,1,90.275,0|0,3:2|0:2,0:0:0:0:
439,381,105517,2,0,L|427:291,1,90.275,0|0,3:2|0:2,0:0:0:0:
306,119,105870,6,0,P|260:136|247:194,1,90.275,0|0,3:2|0:2,0:0:0:0:
59,232,106223,2,0,P|105:249|118:307,1,90.275,0|0,3:2|0:2,0:0:0:0:
250,384,106576,69,2,3:2:0:0:
250,384,106664,1,0,0:0:0:0:
250,384,106752,1,2,0:2:0:0:
156,173,106929,5,2,3:2:0:0:
250,384,107105,1,2,0:2:0:0:
393,221,107282,70,0,P|353:202|310:209,1,90.275,2|2,3:2|0:2,0:0:0:0:
156,173,107635,2,0,P|195:153|239:160,1,90.275,2|0,3:2|0:2,0:0:0:0:
379,117,107987,2,0,L|390:206,1,90.275,0|0,3:2|0:2,0:0:0:0:
241,147,108340,2,0,L|253:58,1,90.275,0|0,3:2|0:2,0:0:0:0:
492,13,108693,6,0,P|473:69|418:79,1,90.275,0|0,3:2|0:2,0:0:0:0:
309,209,109046,2,0,P|328:265|383:275,1,90.275,0|0,3:2|0:2,0:0:0:0:
498,149,109399,1,2,3:2:0:0:
333,41,109576,1,2,0:2:0:0:
437,276,109752,2,0,P|433:321|424:371,1,90.275,2|2,3:2|0:2,0:0:0:0:
184,282,110105,70,0,P|127:284|92:316,1,90.275,2|2,3:2|0:2,0:0:0:0:
226,188,110458,2,0,P|283:190|318:222,1,90.275,2|0,3:2|0:2,0:0:0:0:
184,94,110811,2,0,P|127:96|92:128,1,90.275,0|0,3:2|0:2,0:0:0:0:
226,0,111164,2,0,P|283:2|318:34,1,90.275,2|2,3:2|0:2,0:0:0:0:
418,163,111517,6,0,P|414:208|405:258,1,90.275,2|2,3:2|0:2,0:0:0:0:
237,295,111870,2,0,P|229:250|225:205,1,90.275,2|0,3:2|0:2,0:0:0:0:
316,26,112223,1,0,3:2:0:0:
316,26,112311,1,0,0:0:0:0:
316,26,112399,1,0,0:2:0:0:
512,165,112576,2,0,P|467:161|417:152,1,90.275,0|0,3:2|0:2,0:0:0:0:
176,58,112929,70,0,P|225:94|268:82,1,90.275,2|0,3:2|0:2,0:0:0:0:
416,4,113282,2,0,P|367:40|324:28,1,90.275,2|0,3:2|0:2,0:0:0:0:
237,197,113635,2,0,B|223:330|223:330|255:364,1,180.55,2|2,3:2|3:2,0:0:0:0:
399,298,114164,1,2,0:2:0:0:
237,197,114340,6,0,P|171:201|132:225,1,90.275,2|2,3:2|0:2,0:0:0:0:
335,139,114693,2,0,P|401:143|440:167,1,90.275,2|2,3:2|0:2,0:0:0:0:
269,361,115046,69,2,3:2:0:0:
269,361,115135,1,0,0:0:0:0:
269,361,115223,1,2,0:2:0:0:
74,199,115399,5,2,3:2:0:0:
298,252,115576,1,2,0:2:0:0:
53,341,115752,70,0,P|23:295|35:233,1,90.275,2|2,3:2|0:2,0:0:0:0:
125,137,116105,2,0,L|220:123,1,90.275,2|0,3:2|0:2,0:0:0:0:
16,44,116458,2,0,P|18:88|45:123,1,90.275,0|0,3:2|0:2,0:0:0:0:
196,253,116811,2,0,L|291:267,1,90.275,0|0,3:2|0:2,0:0:0:0:
396,106,117164,6,0,P|393:61|366:26,1,90.275,0|0,3:2|0:2,0:0:0:0:
208,144,117517,2,0,P|188:183|194:228,1,90.275,0|0,3:2|0:2,0:0:0:0:
342,367,117870,69,2,3:2:0:0:
342,367,117958,1,0,0:0:0:0:
342,367,118046,1,2,0:2:0:0:
456,165,118223,5,2,3:2:0:0:
196,253,118399,1,2,0:2:0:0:
415,334,118576,70,0,L|517:346,1,90.275,2|2,3:2|0:2,0:0:0:0:
289,207,118929,2,0,L|301:309,1,90.275,2|0,3:2|0:2,0:0:0:0:
456,165,119282,6,0,L|444:63,1,78.5,0|0,3:2|0:2,0:0:0:0:
256,47,119635,2,0,L|154:59,1,78.5,0|0,3:2|0:2,0:0:0:0:
64,219,119987,54,0,P|44:182|47:143,1,66.7250000000002,0|0,3:2|0:2,0:0:0:0:
184,71,120340,2,0,P|180:103|163:131,1,66.7250000000002,0|0,3:2|0:2,0:0:0:0:
119,271,120693,70,0,L|189:262,3,54.9499999999999,2|2|2|2,3:2|0:2|3:2|0:2,0:0:0:0:
119,271,122458,6,0,L|103:313,3,27.475,2|0|2|0,0:2|0:2|0:2|0:2,0:0:0:0:
210,330,122811,2,0,L|224:374,3,33.3625000000001,2|0|2|0,0:2|0:2|0:2|0:2,0:0:0:0:
317,318,123164,2,0,L|356:343,3,39.25,2|0|0|0,0:2|0:2|0:2|0:2,0:0:0:0:
392,241,123517,2,0,L|438:236,3,45.1375,0|0|0|0,0:2|0:2|0:2|0:2,0:0:0:0:
362,59,123870,1,0,0:2:0:0:
348,37,123958,1,0,0:2:0:0:
327,23,124046,1,0,0:2:0:0:
302,20,124135,1,0,0:2:0:0:
278,27,124223,38,0,B|178:4|204:85|96:57,1,176.625,2|0,3:2|0:2,0:0:0:0:
28,21,124576,2,0,P|71:80|51:152,1,117.75,10|0,3:2|0:2,0:0:0:0:
5,278,124929,1,2,3:2:0:0:
213,197,125105,1,0,0:2:0:0:
213,197,125193,1,2,0:2:0:0:
213,197,125282,2,0,P|204:132|188:78,1,117.75,8|2,3:2|0:2,0:0:0:0:
0,171,125635,5,0,3:2:0:0:
204,4,125811,1,2,0:2:0:0:
150,257,125987,2,0,P|134:313|126:371,1,117.75,8|2,3:2|0:2,0:0:0:0:
294,206,126340,1,0,3:2:0:0:
117,56,126517,1,2,0:2:0:0:
117,56,126605,1,0,0:2:0:0:
117,56,126693,2,0,L|-15:68,1,117.75,8|0,3:2|0:2,0:0:0:0:
213,197,127046,70,0,P|283:188|346:107,1,176.625,0|0,3:2|0:2,0:0:0:0:
426,53,127399,2,0,P|376:12|314:21,1,117.75,10|0,3:2|0:2,0:0:0:0:
140,143,127752,1,2,3:2:0:0:
305,323,127929,1,0,0:2:0:0:
305,323,128017,1,2,0:2:0:0:
305,323,128105,2,0,L|293:201,1,117.75,8|2,3:2|0:2,0:0:0:0:
114,67,128458,5,0,3:2:0:0:
2,261,128635,1,2,0:2:0:0:
293,205,128811,2,0,P|356:193|404:161,1,117.75,8|2,3:2|0:2,0:0:0:0:
187,21,129164,1,0,3:2:0:0:
48,326,129340,1,2,0:2:0:0:
48,326,129429,1,0,0:2:0:0:
48,326,129517,2,0,P|98:350|174:340,1,117.75,8|0,3:2|0:2,0:0:0:0:
465,255,129870,70,0,B|482:159|407:187|428:85,1,176.625,0|0,3:2|0:2,0:0:0:0:
511,39,130223,2,0,B|488:6|488:6|399:-2,1,117.75,10|0,3:2|0:2,0:0:0:0:
212,96,130576,1,2,3:2:0:0:
368,302,130752,1,0,0:2:0:0:
368,302,130840,1,2,0:2:0:0:
368,302,130929,2,0,P|432:293|468:243,1,117.75,8|2,3:2|0:2,0:0:0:0:
346,61,131282,5,0,3:2:0:0:
117,232,131458,1,2,0:2:0:0:
368,302,131635,2,0,L|356:176,1,117.75,8|2,3:2|0:2,0:0:0:0:
187,21,131987,1,0,3:2:0:0:
15,213,132164,1,2,0:2:0:0:
15,213,132252,1,0,0:2:0:0:
15,213,132340,2,0,P|65:246|122:225,1,117.75,8|0,3:2|0:2,0:0:0:0:
399,116,132693,70,0,P|348:149|291:128,1,117.75,0|0,3:2|0:2,0:0:0:0:
49,49,133046,2,0,P|70:103|77:161,1,117.75,8|0,3:2|0:2,0:0:0:0:
300,296,133399,1,0,3:2:0:0:
125,381,133576,1,0,0:2:0:0:
221,112,133752,2,0,P|226:58|249:-2,1,117.75,8|0,3:2|0:2,0:0:0:0:
478,219,134105,6,0,L|362:241,1,117.75,0|0,3:2|0:2,0:0:0:0:
102,294,134458,2,0,L|217:316,1,117.75,8|0,3:2|0:2,0:0:0:0:
512,384,134811,69,0,3:2:0:0:
312,177,134987,1,0,0:2:0:0:
119,379,135164,5,8,3:2:0:0:
478,219,135340,1,0,0:2:0:0:
142,105,135517,70,0,B|162:202|87:174|104:270,1,176.625,2|0,3:2|0:2,0:0:0:0:
217,316,135870,2,0,P|273:311|311:263,1,117.75,10|0,3:2|0:2,0:0:0:0:
190,38,136223,1,2,3:2:0:0:
3,207,136399,1,0,0:2:0:0:
3,207,136487,1,2,0:2:0:0:
3,207,136576,2,0,L|125:192,1,117.75,8|2,3:2|0:2,0:0:0:0:
360,90,136929,5,0,3:2:0:0:
456,362,137105,1,2,0:2:0:0:
231,224,137282,2,0,P|198:159|216:118,1,117.75,8|2,3:2|0:2,0:0:0:0:
477,1,137635,1,0,3:2:0:0:
427,251,137811,1,2,0:2:0:0:
427,251,137899,1,0,0:2:0:0:
427,251,137987,2,0,L|305:266,1,117.75,8|0,3:2|0:2,0:0:0:0:
104,350,138340,70,0,B|86:214|86:214|119:192,1,176.625,0|0,3:2|0:2,0:0:0:0:
202,131,138693,2,0,L|217:9,1,117.75,10|0,3:2|0:2,0:0:0:0:
37,154,139046,1,2,3:2:0:0:
310,265,139223,1,0,0:2:0:0:
310,265,139311,1,2,0:2:0:0:
310,265,139399,2,0,P|338:322|323:381,1,117.75,8|2,3:2|0:2,0:0:0:0:
126,205,139752,5,0,3:2:0:0:
339,21,139929,1,2,0:2:0:0:
495,225,140105,2,0,L|373:210,1,117.75,8|2,3:2|0:2,0:0:0:0:
113,127,140458,1,0,3:2:0:0:
420,29,140635,1,2,0:2:0:0:
420,29,140723,1,0,0:2:0:0:
420,29,140811,2,0,P|448:96|419:162,1,117.75,8|0,3:2|0:2,0:0:0:0:
261,327,141164,70,0,B|155:353|181:280|79:302,1,176.625,0|0,3:2|0:2,0:0:0:0:
25,233,141517,2,0,B|-3:264|-3:264|5:347,1,117.75,10|0,3:2|0:2,0:0:0:0:
286,250,141870,1,2,3:2:0:0:
22,128,142046,1,0,0:2:0:0:
22,128,142135,1,2,0:2:0:0:
22,128,142223,2,0,L|35:-20,1,117.75,8|2,3:2|0:2,0:0:0:0:
323,12,142576,5,0,3:2:0:0:
90,180,142752,1,2,0:2:0:0:
354,292,142929,2,0,P|416:291|472:262,1,117.75,8|2,3:2|0:2,0:0:0:0:
325,22,143282,1,0,3:2:0:0:
158,232,143458,1,2,0:2:0:0:
158,232,143546,1,0,0:2:0:0:
158,232,143635,2,0,L|147:349,1,117.75,8|0,3:2|0:2,0:0:0:0:
337,149,143987,70,0,L|326:31,1,117.75,0|0,3:2|0:2,0:0:0:0:
98,172,144340,2,0,P|45:193|35:248,1,117.75,8|0,3:2|0:2,0:0:0:0:
242,328,144693,1,0,3:2:0:0:
181,85,144870,1,0,0:2:0:0:
415,167,145046,2,0,P|393:219|338:229,1,117.75,8|0,3:2|0:2,0:0:0:0:
35,248,145576,38,0,L|44:325,2,78.5,0|8|0,0:2|0:2|0:2,0:0:0:0:
164,207,146282,2,0,L|154:284,2,78.5,0|8|0,0:2|0:2|0:2,0:0:0:0:
11,117,146811,70,0,B|150:91|93:201|244:156,1,235.5,6|2,1:2|0:2,0:0:0:0:
337,36,148046,2,0,B|305:62|305:62|326:246,1,219.8,2|2,1:2|0:2,0:0:0:0:
469,318,149635,2,0,B|330:344|387:234|236:279,1,235.5,2|2,1:2|0:2,0:0:0:0:
99,349,150870,2,0,B|67:322|67:322|88:138,1,219.8,2|2,1:2|0:2,0:0:0:0:
230,8,152458,1,2,0:2:0:0:
230,8,153693,6,0,P|248:64|324:88,1,137.375,0|2,1:2|0:2,0:0:0:0:
305,8,154752,2,0,P|326:1|308:14,1,58.8750000000001,2|2,1:2|0:2,0:0:0:0:
208,144,155105,2,0,B|78:174|123:82|-4:115,2,219.8,2|2|2,1:2|0:2|0:2,0:0:0:0:
427,96,158105,69,2,0:2:0:0:
309,188,166399,6,0,P|276:164|232:166,1,78.5,2|2,0:0|0:2,0:0:0:0:
155,206,166929,1,2,0:2:0:0:
155,206,167105,1,0,0:2:0:0:
155,206,167282,70,0,L|148:250,3,39.25,0|0|0|0,0:2|0:2|0:2|0:2,0:0:0:0:
218,317,167987,2,0,L|227:387,3,58.8750000000001,0|0|0|0,0:2|0:0|0:2|0:2,0:0:0:0:
309,188,168693,6,0,L|320:105,1,78.5,0|0,0:2|0:0,0:0:0:0:
431,270,169046,2,0,L|445:374,1,86.35,0|0,0:2|0:2,0:0:0:0:
512,144,169399,6,0,P|457:108|409:133,1,90.275,2|0,3:2|0:2,0:0:0:0:
233,220,169752,2,0,P|288:184|336:209,1,90.275,2|0,3:2|0:2,0:0:0:0:
442,355,170105,2,0,B|422:201|422:201|383:182,1,180.55,2|2,3:2|3:2,0:0:0:0:
315,18,170635,1,2,0:2:0:0:
233,220,170811,6,0,L|220:313,1,90.275,2|2,3:2|0:2,0:0:0:0:
104,197,171164,2,0,P|148:162|199:174,1,90.275,2|2,3:2|0:2,0:0:0:0:
399,189,171517,1,2,3:2:0:0:
399,189,171693,1,2,0:2:0:0:
221,309,171870,2,0,P|165:317|127:281,1,90.275,2|2,3:2|0:2,0:0:0:0:
27,186,172223,70,0,L|15:96,1,90.275,2|2,3:2|0:2,0:0:0:0:
197,59,172576,2,0,L|185:148,1,90.275,2|0,3:2|0:2,0:0:0:0:
24,189,172929,2,0,L|12:99,1,90.275,0|0,3:2|0:2,0:0:0:0:
200,56,173282,2,0,L|188:145,1,90.275,0|0,3:2|0:2,0:0:0:0:
138,299,173635,6,0,P|93:328|38:316,1,90.275,0|0,3:2|0:2,0:0:0:0:
187,145,173987,2,0,P|240:142|282:180,1,90.275,0|0,3:2|0:2,0:0:0:0:
392,350,174340,69,2,3:2:0:0:
392,350,174429,1,0,0:0:0:0:
392,350,174517,1,2,0:2:0:0:
342,129,174693,5,2,3:2:0:0:
268,374,174870,1,2,0:2:0:0:
478,181,175046,70,0,L|389:193,1,90.275,2|2,3:2|0:2,0:0:0:0:
211,274,175399,2,0,P|184:325|205:372,1,90.275,2|0,3:2|0:2,0:0:0:0:
411,272,175752,2,0,P|408:214|366:184,1,90.275,0|0,3:2|0:2,0:0:0:0:
187,145,176105,2,0,L|98:133,1,90.275,0|0,3:2|0:2,0:0:0:0:
272,16,176458,6,0,P|245:67|266:114,1,90.275,0|0,3:2|0:2,0:0:0:0:
478,168,176811,2,0,P|475:110|433:80,1,90.275,0|0,3:2|0:2,0:0:0:0:
262,177,177164,69,2,3:2:0:0:
262,177,177252,1,0,0:0:0:0:
262,177,177340,1,2,0:2:0:0:
426,17,177517,5,2,3:2:0:0:
512,238,177693,1,2,0:2:0:0:
252,96,177870,70,0,L|163:108,1,90.275,2|2,3:2|0:2,0:0:0:0:
336,4,178223,2,0,L|425:16,1,90.275,2|0,3:2|0:2,0:0:0:0:
249,99,178576,2,0,L|160:111,1,90.275,0|0,3:2|0:2,0:0:0:0:
339,1,178929,2,0,L|428:13,1,90.275,0|0,3:2|0:2,0:0:0:0:
512,238,179282,6,0,B|488:253|488:253|371:238,1,135.4125,0|0,3:2|0:0,0:0:0:0:
223,218,179635,1,0,3:2:0:0:
428,13,179811,1,0,3:2:0:0:
464,298,179987,38,0,L|465:307,1,7.85,0|0,3:2|0:2,0:0:0:0:
224,369,180340,21,0,3:2:0:0:
189,357,180429,1,0,3:2:0:0:
165,332,180517,1,0,3:2:0:0:
154,300,180605,1,0,3:2:0:0:
161,269,180693,6,0,B|179:239|179:239|161:96,1,176.625,2|0,3:2|0:0,0:0:0:0:
298,0,181046,2,0,L|281:124,1,117.75,10|0,3:2|0:2,0:0:0:0:
125,173,181311,1,0,0:0:0:0:
125,173,181399,2,0,P|61:156|51:89,1,117.75,2|0,3:2|0:2,0:0:0:0:
298,0,181752,69,10,3:2:0:0:
342,169,181929,1,2,0:2:0:0:
220,23,182105,2,0,P|165:7|96:30,1,117.75,2|2,3:2|0:2,0:0:0:0:
199,199,182458,5,10,3:2:0:0:
369,38,182635,1,2,0:2:0:0:
423,265,182811,1,2,3:2:0:0:
423,265,182899,1,0,0:0:0:0:
423,265,182987,1,2,0:2:0:0:
210,186,183164,69,10,3:2:0:0:
210,186,183340,1,2,0:2:0:0:
432,96,183517,5,2,3:2:0:0:
432,96,183693,1,2,0:2:0:0:
247,280,183870,70,0,P|201:286|125:241,1,117.75,10|0,3:2|0:2,0:0:0:0:
25,102,184223,2,0,P|61:73|150:74,1,117.75,0|0,3:2|0:2,0:0:0:0:
288,212,184576,5,8,3:2:0:0:
288,212,184752,1,0,0:2:0:0:
59,282,184929,70,0,L|74:147,1,117.75,0|0,3:2|0:2,0:0:0:0:
258,14,185282,2,0,L|271:131,1,117.75,8|0,3:2|0:2,0:0:0:0:
359,351,185635,5,2,3:2:0:0:
359,351,185723,1,0,0:0:0:0:
359,351,185811,1,2,0:2:0:0:
503,118,185987,69,10,3:2:0:0:
270,241,186164,1,2,0:2:0:0:
512,354,186340,6,0,P|444:335|419:287,1,109.9,2|2,3:2|0:2,0:0:0:0:
270,241,186693,2,0,P|338:222|363:174,1,109.9,10|0,3:2|0:2,0:0:0:0:
512,357,187046,2,0,P|444:338|419:290,1,109.9,0|0,3:2|0:2,0:0:0:0:
270,238,187399,2,0,P|338:219|363:171,1,109.9,8|0,3:2|0:2,0:0:0:0:
484,7,187752,70,0,L|500:157,1,102.05,0|0,3:2|0:2,0:0:0:0:
358,188,188105,2,0,L|370:70,1,102.05,8|0,3:2|0:2,0:0:0:0:
512,259,188458,5,2,3:2:0:0:
311,360,188635,1,2,0:2:0:0:
444,175,188811,69,10,3:2:0:0:
512,384,188987,1,2,0:2:0:0:
271,288,189164,5,2,3:2:0:0:
271,288,189340,1,2,0:2:0:0:
368,86,189517,70,0,P|417:107|435:159,1,102.05,10|0,3:2|0:2,0:0:0:0:
222,89,189870,2,0,P|215:36|251:-5,1,102.05,0|0,3:2|0:2,0:0:0:0:
297,214,190223,2,0,P|254:245|200:235,1,102.05,8|0,3:2|0:2,0:0:0:0:
65,134,190576,69,0,0:2:0:0:
222,89,190752,2,0,L|255:95,3,31.4,0|0|0|0,0:2|0:2|0:2|0:2,0:0:0:0:
145,23,191105,2,0,L|88:33,3,43.175,0|0|0|0,0:2|0:2|0:2|0:2,0:0:0:0:
222,89,191458,2,0,L|283:100,3,54.95,0|0|0|0,0:2|0:2|0:2|0:2,0:0:0:0:
145,23,191811,1,0,0:2:0:0:
0,227,191987,6,0,P|66:250|151:152,1,188.4,2|0,3:2|0:2,0:0:0:0:
347,61,192340,2,0,L|329:-41,1,62.8,10|0,3:2|0:2,0:0:0:0:
231,168,192517,1,0,0:2:0:0:
231,168,192605,1,0,0:2:0:0:
231,168,192693,2,0,B|250:276|175:239|197:373,1,188.4,2|0,3:2|0:2,0:0:0:0:
450,333,193046,5,10,3:2:0:0:
459,307,193135,1,0,0:2:0:0:
451,282,193223,1,2,0:2:0:0:
429,266,193311,1,0,0:2:0:0:
403,268,193399,70,0,L|300:285,1,62.8,2|0,3:2|0:2,0:0:0:0:
120,345,193576,2,0,L|222:362,1,62.8,2|0,0:2|0:2,0:0:0:0:
430,194,193752,6,0,L|441:133,1,62.8,10|0,3:2|0:2,0:0:0:0:
164,45,193929,2,0,L|174:106,1,62.8,2|0,0:2|0:2,0:0:0:0:
337,293,194105,70,0,L|326:354,1,62.8,2|0,3:2|0:2,0:0:0:0:
500,83,194282,2,0,L|510:21,1,62.8,2|0,0:2|0:2,0:0:0:0:
148,179,194458,6,0,L|86:189,1,62.8,10|0,3:2|0:2,0:0:0:0:
450,333,194635,2,0,L|511:343,1,62.8,2|0,0:2|0:2,0:0:0:0:
358,137,194811,69,2,3:2:0:0:
332,119,194899,1,0,0:2:0:0:
301,114,194987,1,2,0:2:0:0:
271,122,195076,1,0,0:2:0:0:
247,142,195164,6,0,L|257:203,3,62.8,10|0|0|0,3:2|0:2|0:2|0:2,0:0:0:0:
120,345,195517,2,0,L|130:284,3,62.8,0|0|0|0,3:2|0:2|0:2|0:2,0:0:0:0:
247,142,195870,2,0,L|257:203,3,62.8,8|0|0|0,3:2|0:2|0:2|0:2,0:0:0:0:
0,23,196223,69,0,3:2:0:0:
26,5,196311,1,0,0:2:0:0:
57,0,196399,1,0,0:2:0:0:
87,8,196487,1,0,0:2:0:0:
111,28,196576,6,0,L|101:89,3,62.8,8|0|0|0,3:2|0:2|0:2|0:2,0:0:0:0:
310,263,196929,1,2,3:2:0:0:
310,263,197017,1,0,0:2:0:0:
310,263,197105,2,0,P|351:259|382:235,1,62.8,2|0,0:2|0:2,0:0:0:0:
189,2,197282,70,0,L|199:63,1,62.8,10|0,3:2|0:2,0:0:0:0:
446,131,197458,2,0,L|436:192,1,62.8,2|0,0:2|0:2,0:0:0:0:
240,300,197635,5,2,3:2:0:0:
212,315,197723,1,0,0:2:0:0:
180,316,197811,1,2,0:2:0:0:
151,305,197899,1,0,0:2:0:0:
130,283,197987,70,0,L|120:222,3,62.8,10|0|0|0,3:2|0:2|0:2|0:2,0:0:0:0:
275,106,198340,2,0,L|285:45,3,62.8,0|0|0|0,3:2|0:2|0:2|0:2,0:0:0:0:
130,283,198693,2,0,L|120:222,3,62.8,8|0|0|0,3:2|0:2|0:2|0:2,0:0:0:0:
0,23,199046,5,0,3:2:0:0:
26,5,199135,1,0,0:2:0:0:
57,0,199223,1,0,0:2:0:0:
87,8,199311,1,0,0:2:0:0:
111,28,199399,2,0,L|101:89,3,62.8,8|0|0|0,3:2|0:2|0:2|0:2,0:0:0:0:
299,182,199752,69,2,3:2:0:0:
325,200,199840,1,0,0:2:0:0:
356,205,199929,1,2,0:2:0:0:
386,197,200017,1,0,0:2:0:0:
410,177,200105,6,0,L|400:116,1,62.8,10|0,3:2|0:2,0:0:0:0:
111,28,200282,2,0,L|101:89,1,62.8,2|0,0:2|0:2,0:0:0:0:
252,337,200458,69,2,3:2:0:0:
247,308,200546,1,0,0:2:0:0:
242,280,200635,1,2,0:2:0:0:
238,251,200723,1,0,0:2:0:0:
233,223,200811,6,0,L|172:213,3,62.8,10|0|0|0,3:2|0:2|0:2|0:2,0:0:0:0:
405,107,201164,2,0,L|466:97,3,62.8,0|0|0|0,3:2|0:2|0:2|0:2,0:0:0:0:
182,29,201517,2,0,L|121:19,3,62.8,8|0|0|0,3:2|0:2|0:2|0:2,0:0:0:0:
417,0,201870,69,0,3:2:0:0:
446,8,201958,1,0,0:2:0:0:
469,30,202046,1,0,0:2:0:0:
481,58,202135,1,0,0:2:0:0:
478,89,202223,2,0,L|488:150,3,62.8,8|0|0|0,3:2|0:2|0:2|0:2,0:0:0:0:
233,223,202576,5,0,3:2:0:0:
203,214,202664,1,0,0:2:0:0:
180,192,202752,1,0,0:2:0:0:
168,164,202840,1,0,0:2:0:0:
172,134,202929,70,0,L|162:73,1,62.8,8|0,3:2|0:2,0:0:0:0:
419,197,203105,2,0,L|409:258,1,62.8,0|0,0:2|0:2,0:0:0:0:
174,350,203282,6,0,B|135:383|135:383|0:363,1,188.4,2|0,3:2|0:2,0:0:0:0:
102,230,203635,2,0,L|112:291,1,62.8,10|0,3:2|0:2,0:0:0:0:
0,91,203811,2,0,L|10:30,1,62.8,0|0,0:2|0:2,0:0:0:0:
251,143,203987,70,0,B|386:120|386:120|412:76,1,188.4,2|0,3:2|0:2,0:0:0:0:
205,10,204340,2,0,L|144:0,1,62.8,10|0,3:2|0:2,0:0:0:0:
422,86,204517,2,0,L|483:76,1,62.8,2|0,0:2|0:2,0:0:0:0:
213,213,204693,6,0,L|203:274,1,62.8,2|0,3:2|0:2,0:0:0:0:
327,24,204870,2,0,L|337:85,1,62.8,2|0,0:2|0:2,0:0:0:0:
439,339,205046,70,0,L|378:329,1,62.8,10|0,3:2|0:2,0:0:0:0:
140,213,205223,2,0,L|201:203,1,62.8,2|0,0:2|0:2,0:0:0:0:
483,75,205399,6,0,L|473:14,1,62.8,2|0,3:2|0:2,0:0:0:0:
382,255,205576,2,0,L|372:316,1,62.8,2|0,0:2|0:2,0:0:0:0:
217,86,205752,70,0,L|207:25,1,62.8,10|0,3:2|0:2,0:0:0:0:
443,205,205929,2,0,L|504:195,1,62.8,2|0,0:2|0:2,0:0:0:0:
227,348,206105,5,2,3:2:0:0:
197,357,206193,1,0,0:2:0:0:
166,351,206282,1,2,0:2:0:0:
141,333,206370,1,0,0:2:0:0:
127,305,206458,70,0,L|66:295,3,62.8,10|0|0|0,3:2|0:2|0:2|0:2,0:0:0:0:
274,184,206811,2,0,L|335:174,3,62.8,0|0|0|0,3:2|0:2|0:2|0:2,0:0:0:0:
127,305,207164,2,0,L|66:295,3,62.8,8|0|0|0,3:2|0:2|0:2|0:2,0:0:0:0:
410,201,207517,5,0,3:2:0:0:
419,171,207605,1,0,0:2:0:0:
413,140,207693,1,0,0:2:0:0:
395,115,207782,1,0,0:2:0:0:
367,101,207870,70,0,L|357:40,3,62.8,8|0|0|0,3:2|0:2|0:2|0:2,0:0:0:0:
199,198,208223,1,2,3:2:0:0:
199,198,208311,1,0,0:2:0:0:
199,198,208399,2,0,L|189:259,1,62.8,2|0,0:2|0:2,0:0:0:0:
402,341,208576,6,0,L|392:280,1,62.8,10|0,3:2|0:2,0:0:0:0:
182,124,208752,2,0,L|192:63,1,62.8,2|0,0:2|0:2,0:0:0:0:
435,10,208929,70,0,L|496:0,1,62.8,2|0,3:2|0:2,0:0:0:0:
172,127,209105,2,0,L|111:117,1,62.8,2|0,0:2|0:2,0:0:0:0:
398,273,209282,6,0,L|459:263,3,62.8,10|0|0|0,3:2|0:2|0:2|0:2,0:0:0:0:
222,354,209635,2,0,L|161:344,3,62.8,0|0|0|0,3:2|0:2|0:2|0:2,0:0:0:0:
398,273,209987,2,0,L|459:263,3,62.8,8|0|0|0,3:2|0:2|0:2|0:2,0:0:0:0:
199,198,210340,69,0,3:2:0:0:
173,202,210429,1,0,0:2:0:0:
147,206,210517,1,0,0:2:0:0:
121,210,210605,1,0,0:2:0:0:
96,214,210693,2,0,L|86:275,3,62.8,8|0|0|0,3:2|0:2|0:2|0:2,0:0:0:0:
261,115,211046,5,2,3:2:0:0:
287,119,211135,1,0,0:2:0:0:
313,123,211223,1,2,0:2:0:0:
339,127,211311,1,0,0:2:0:0:
364,131,211399,70,0,L|374:192,1,62.8,10|0,3:2|0:2,0:0:0:0:
222,354,211576,2,0,L|232:293,1,62.8,2|0,0:2|0:2,0:0:0:0:
119,128,211752,5,2,3:2:0:0:
115,102,211840,1,0,0:2:0:0:
111,76,211929,1,2,0:2:0:0:
107,50,212017,1,0,0:2:0:0:
103,24,212105,70,0,L|164:34,3,62.8,10|0|0|0,3:2|0:2|0:2|0:2,0:0:0:0:
364,131,212458,2,0,L|303:141,3,62.8,0|0|0|0,3:2|0:2|0:2|0:2,0:0:0:0:
103,24,212811,2,0,L|164:34,3,62.8,8|0|0|0,3:2|0:2|0:2|0:2,0:0:0:0:
431,86,213340,70,0,L|444:5,1,78.5,0|8,0:2|0:2,0:0:0:0:
364,131,213693,2,0,L|376:208,1,78.5,0|0,0:2|0:0,0:0:0:0:
431,332,214046,2,0,L|443:254,1,78.5,0|8,0:2|0:2,0:0:0:0:
359,51,214399,1,0,0:2:0:0:
183,194,214576,38,0,L|102:181,2,62.8,0|0|0,3:2|0:2|0:2,0:0:0:0:
240,251,214840,1,0,0:2:0:0:
240,251,214929,2,0,L|321:238,2,62.8,8|0|0,3:2|0:2|0:2,0:0:0:0:
183,308,215193,1,0,0:2:0:0:
183,308,215282,54,0,L|173:370,3,62.8,0|0|0|0,3:2|0:2|0:2|0:2,0:0:0:0:
240,137,215635,2,0,L|230:74,3,62.8,8|0|0|0,3:2|0:2|0:2|0:2,0:0:0:0:
380,260,215987,21,0,3:2:0:0:
358,270,216076,1,0,0:2:0:0:
335,269,216164,1,0,0:2:0:0:
314,259,216252,1,0,0:2:0:0:
301,240,216340,2,0,L|311:177,3,62.8,8|0|0|0,3:2|0:2|0:2|0:2,0:0:0:0:
171,23,216693,53,0,3:2:0:0:
141,11,216782,1,0,0:2:0:0:
110,13,216870,1,0,0:2:0:0:
83,29,216958,1,0,0:2:0:0:
65,55,217046,22,0,L|75:118,1,62.8,8|0,3:2|0:2,0:0:0:0:
121,263,217223,2,0,L|131:200,1,62.8,0|0,0:2|0:2,0:0:0:0:
290,25,217399,53,0,3:2:0:0:
287,40,217487,1,0,0:2:0:0:
285,56,217576,1,0,0:2:0:0:
282,71,217664,1,0,0:2:0:0:
280,87,217752,21,8,3:2:0:0:
299,112,217840,1,0,0:2:0:0:
327,126,217929,1,0,0:2:0:0:
359,125,218017,1,0,0:2:0:0:
387,112,218105,53,0,3:2:0:0:
384,127,218193,1,0,0:2:0:0:
382,143,218282,1,0,0:2:0:0:
379,158,218370,1,0,0:2:0:0:
377,174,218458,2,0,L|387:237,3,62.8,8|0|0|0,3:2|0:2|0:2|0:2,0:0:0:0:
215,314,218811,21,0,3:2:0:0:
215,314,218899,1,0,0:2:0:0:
215,314,218987,2,0,P|160:330|149:358,1,62.8,0|0,0:2|0:2,0:0:0:0:
410,384,219164,1,8,3:2:0:0:
438,370,219252,1,0,0:2:0:0:
458,346,219340,1,0,0:2:0:0:
466,316,219429,1,0,0:2:0:0:
461,286,219517,53,0,3:2:0:0:
461,286,219605,1,0,0:2:0:0:
461,286,219693,2,0,L|471:223,1,62.8,0|0,0:2|0:2,0:0:0:0:
306,129,219870,2,0,B|265:134|265:134|237:175|237:175|159:188,1,125.6,8|0,3:2|0:2,0:0:0:0:
135,140,220135,1,0,0:2:0:0:
135,140,220223,22,0,L|125:77,2,62.8,0|0|0,3:2|0:2|0:2,0:0:0:0:
79,194,220487,1,0,0:2:0:0:
79,194,220576,2,0,L|69:257,2,62.8,8|0|0,3:2|0:2|0:2,0:0:0:0:
21,139,220840,1,0,0:2:0:0:
21,139,220929,54,0,L|11:76,3,62.8,0|0|0|0,3:2|0:2|0:2|0:2,0:0:0:0:
180,255,221282,2,0,L|170:318,3,62.8,8|0|0|0,3:2|0:2|0:2|0:2,0:0:0:0:
310,55,221635,21,0,3:2:0:0:
325,57,221723,1,0,0:2:0:0:
341,59,221811,1,0,0:2:0:0:
356,62,221899,1,0,0:2:0:0:
372,64,221987,2,0,L|382:127,3,62.8,8|0|0|0,3:2|0:2|0:2|0:2,0:0:0:0:
477,299,222340,53,0,3:2:0:0:
477,299,222429,1,0,0:2:0:0:
477,299,222517,2,0,L|414:309,1,62.8,0|0,0:2|0:2,0:0:0:0:
252,231,222693,2,0,B|257:190|257:190|298:162|298:162|311:84,1,125.6,8|0,3:2|0:2,0:0:0:0:
235,96,222958,1,0,0:2:0:0:
235,96,223046,21,0,3:2:0:0:
205,85,223135,1,0,0:2:0:0:
174,85,223223,1,0,0:2:0:0:
145,97,223311,1,0,0:2:0:0:
123,119,223399,1,8,3:2:0:0:
100,141,223487,1,0,0:2:0:0:
72,155,223576,1,0,0:2:0:0:
41,158,223664,1,0,0:2:0:0:
11,150,223752,54,0,L|1:87,3,62.8,0|0|0|0,3:2|0:2|0:2|0:2,0:0:0:0:
141,219,224105,2,0,L|131:282,3,62.8,8|0|0|0,3:2|0:2|0:2|0:2,0:0:0:0:
249,19,224458,21,0,3:2:0:0:
249,19,224546,1,0,0:2:0:0:
249,19,224635,2,0,P|276:32|312:28,1,62.8,0|0,0:2|0:2,0:0:0:0:
468,0,224811,54,0,P|442:53|450:124,1,125.6,8|0,3:2|0:2,0:0:0:0:
476,158,225076,1,0,0:2:0:0:
445,148,225164,1,0,3:2:0:0:
413,146,225252,1,0,0:2:0:0:
383,153,225340,22,0,P|369:181|373:218,1,62.8,0|0,0:2|0:2,0:0:0:0:
512,357,225517,2,0,P|513:325|500:297,1,62.8,8|0,3:2|0:2,0:0:0:0:
292,186,225693,1,0,0:2:0:0:
253,191,225782,1,0,0:2:0:0:
221,171,225870,54,0,L|231:108,2,62.8,0|0|0,3:2|0:2|0:2,0:0:0:0:
141,219,226135,1,0,0:2:0:0:
141,219,226223,2,0,L|78:209,2,62.8,8|0|0,3:2|0:2|0:2,0:0:0:0:
226,271,226487,1,0,0:2:0:0:
226,271,226576,22,0,L|236:334,3,62.8,0|0|0|0,3:2|0:2|0:2|0:2,0:0:0:0:
136,119,226929,2,0,L|146:56,3,62.8,8|0|0|0,3:2|0:2|0:2|0:2,0:0:0:0:
0,286,227282,53,0,3:2:0:0:
11,284,227370,1,0,0:2:0:0:
23,282,227458,1,0,0:2:0:0:
34,280,227546,1,0,0:2:0:0:
46,278,227635,21,8,3:2:0:0:
42,297,227723,1,0,0:2:0:0:
39,316,227811,1,0,0:2:0:0:
36,336,227899,1,0,0:2:0:0:
33,355,227987,53,0,3:2:0:0:
59,371,228076,1,0,0:2:0:0:
90,372,228164,1,0,0:2:0:0:
118,357,228252,1,0,0:2:0:0:
139,335,228340,1,8,3:2:0:0:
160,311,228429,1,0,0:2:0:0:
186,294,228517,1,0,0:2:0:0:
217,290,228605,1,0,0:2:0:0:
246,301,228693,22,0,L|309:291,3,62.8,0|0|0|0,3:2|0:2|0:2|0:2,0:0:0:0:
78,177,229046,2,0,L|15:167,3,62.8,8|0|0|0,3:2|0:2|0:2|0:2,0:0:0:0:
225,0,229399,53,0,3:2:0:0:
222,14,229487,1,0,0:2:0:0:
220,30,229576,1,0,0:2:0:0:
217,45,229664,1,0,0:2:0:0:
215,61,229752,1,8,3:2:0:0:
212,76,229840,1,0,0:2:0:0:
210,92,229929,1,0,0:2:0:0:
207,107,230017,1,0,0:2:0:0:
205,123,230105,22,0,L|268:113,3,62.8,0|0|0|0,3:2|0:2|0:2|0:2,0:0:0:0:
62,29,230458,2,0,L|-1:19,3,62.8,8|0|0|0,3:2|0:2|0:2|0:2,0:0:0:0:
160,193,230811,53,0,3:2:0:0:
160,193,230899,1,0,0:2:0:0:
160,193,230987,2,0,L|150:256,1,62.8,0|0,0:2|0:2,0:0:0:0:
311,374,231164,2,0,B|352:369|352:369|380:328|380:328|458:315,1,125.6,8|0,3:2|0:2,0:0:0:0:
489,357,231429,1,0,0:2:0:0:
489,357,231517,22,0,P|495:310|471:275,3,62.8,0|0|0|0,3:2|0:2|0:2|0:2,0:0:0:0:
425,184,231870,2,0,P|387:155|345:158,3,62.8,8|0|0|0,3:2|0:2|0:2|0:2,0:0:0:0:
226,295,232223,53,0,3:2:0:0:
226,295,232311,1,0,0:2:0:0:
226,295,232399,2,0,L|236:358,1,62.8,0|0,0:2|0:2,0:0:0:0:
300,168,232576,1,8,3:2:0:0:
300,168,232664,1,0,0:2:0:0:
300,168,232752,2,0,L|290:231,1,62.8,0|0,0:2|0:2,0:0:0:0:
226,41,232929,21,0,3:2:0:0:
203,36,233017,1,0,0:2:0:0:
181,44,233105,1,0,0:2:0:0:
164,60,233193,1,0,0:2:0:0:
149,79,233282,1,8,3:2:0:0:
132,95,233370,1,0,0:2:0:0:
112,107,233458,1,0,0:2:0:0:
89,110,233546,1,0,0:2:0:0:
67,102,233635,53,0,3:2:0:0:
69,119,233723,1,0,0:2:0:0:
71,136,233811,2,0,L|61:199,1,62.8,0|0,0:2|0:2,0:0:0:0:
0,384,233987,2,0,B|41:379|41:379|69:338|69:338|147:325,1,125.6,8|0,3:2|0:2,0:0:0:0:
173,372,234252,1,0,0:2:0:0:
173,372,234340,22,0,L|236:382,2,62.8,0|0|0,3:2|0:2|0:2,0:0:0:0:
172,291,234605,1,0,0:2:0:0:
172,291,234693,2,0,L|162:228,2,62.8,8|0|0,3:2|0:2|0:2,0:0:0:0:
103,332,234958,1,0,0:2:0:0:
103,332,235046,54,0,P|37:315|22:243,1,125.6,0|0,3:2|0:2,0:0:0:0:
61,198,235311,1,0,0:2:0:0:
61,198,235399,2,0,P|79:132|24:83,1,125.6,8|0,3:2|0:2,0:0:0:0:
46,91,235929,70,0,L|33:1,2,78.5,0|8|0,0:2|0:2|0:2,0:0:0:0:
172,291,236635,2,0,L|158:381,2,78.5,0|8|0,0:2|0:2|0:2,0:0:0:0:
269,11,237164,1,4,0:2:0:0:
