osu file format v14

[General]
AudioFilename: audio.mp3
AudioLeadIn: 0
PreviewTime: 56282
Countdown: 0
SampleSet: Soft
StackLeniency: 0.7
Mode: 0
LetterboxInBreaks: 0
WidescreenStoryboard: 1

[Editor]
Bookmarks: 79046,237164
DistanceSpacing: 1
BeatDivisor: 4
GridSize: 8
TimelineZoom: 2.499999

[Metadata]
Title:WE ARE THE PEOPLE
TitleUnicode:WE ARE THE PEOPLE
Artist:Lieless
ArtistUnicode:Lieless
Creator:PAJWOJ
Version:COLLAB INSANE
Source:
Tags:techno hardcore hardtekk electronic dance house edm nxc nightcore empire of the sun southstar remix soundcloud lielessx english vocal vocals pitched nuvolina namriee digidrake
BeatmapID:4538361
BeatmapSetID:2123963

[Difficulty]
HPDrainRate:5.7
CircleSize:4
OverallDifficulty:8
ApproachRate:8.5
SliderMultiplier:1.57
SliderTickRate:1

[Events]
//Background and Video events
0,0,"F0g8IwlaYAA_u3d.jpg",0,0
//Break Periods
2,79246,90371
2,148334,157430
//Storyboard Layer 0 (Background)
//Storyboard Layer 1 (Fail)
//Storyboard Layer 2 (Pass)
//Storyboard Layer 3 (Foreground)
//Storyboard Layer 4 (Overlay)
//Storyboard Sound Samples

[TimingPoints]
-12,352.941176470588,4,2,57,40,1,0
2811,-100,4,2,99,40,0,0
2833,-100,4,2,57,40,0,0
11282,-125,4,2,57,40,0,0
16929,-250,4,2,57,40,0,0
19752,-166.666666666667,4,2,57,40,0,0
21517,-125,4,2,57,40,0,0
22576,-166.666666666667,4,2,57,50,0,0
33870,-100,4,2,57,70,0,0
55046,-100,4,2,57,30,0,0
56458,-80,4,2,57,80,0,1
79046,-80,4,2,57,40,0,0
91046,-100,4,2,57,40,0,0
91576,-166.666666666667,4,2,57,40,0,0
93164,-125,4,2,57,40,0,0
94399,-166.666666666667,4,2,57,40,0,0
95987,-125,4,2,57,40,0,0
96870,-166.666666666667,4,2,57,40,0,0
98987,-125,4,2,57,40,0,0
101458,-83.3333333333333,4,2,57,40,0,0
101635,-83.3333333333333,4,2,57,60,0,0
118576,-71.4285714285714,4,2,57,60,0,0
118929,-76.9230769230769,4,2,57,60,0,0
119282,-83.3333333333333,4,2,57,50,0,0
119635,-90.9090909090909,4,2,57,50,0,0
119987,-111.111111111111,4,2,57,40,0,0
120340,-125,4,2,57,40,0,0
120693,-125,4,2,57,30,0,0
121399,-100,4,2,57,20,0,0
121752,-166.666666666667,4,2,57,20,0,0
122457,-166.666666666667,4,2,57,25,0,0
122811,-166.666666666667,4,2,57,35,0,0
123164,-166.666666666667,4,2,57,45,0,0
123340,-125,4,2,57,45,0,0
123516,-125,4,2,57,55,0,0
123693,-100,4,2,57,55,0,0
123869,-100,4,2,57,65,0,0
124223,-83.3333333333333,4,2,57,80,0,1
145576,-142.857142857143,4,2,57,80,0,1
145929,-111.111111111111,4,2,57,80,0,1
146282,-90.9090909090909,4,2,57,80,0,1
146811,-181.818181818182,4,2,57,40,0,0
158105,-166.666666666667,4,2,57,40,0,0
161282,-125,4,2,57,40,0,0
162693,-166.666666666667,4,2,57,40,0,0
167105,-166.666666666667,4,2,57,20,0,0
167458,-166.666666666667,4,2,57,30,0,0
167811,-166.666666666667,4,2,57,40,0,0
168163,-166.666666666667,4,2,57,50,0,0
168516,-166.666666666667,4,2,57,60,0,0
168869,-166.666666666667,4,2,57,70,0,0
169046,-100,4,2,57,70,0,0
169223,-71.4285714285714,4,2,57,70,0,0
169752,-76.9230769230769,4,2,57,70,0,0
170105,-83.3333333333333,4,2,57,70,0,0
180693,-71.4285714285714,4,2,57,80,0,1
181046,-76.9230769230769,4,2,57,80,0,1
183164,-83.3333333333333,4,2,57,80,0,1
183870,-71.4285714285714,4,2,57,80,0,1
184576,-83.3333333333333,4,2,57,80,0,1
190576,-83.3333333333333,4,2,57,40,0,0
190752,-100,4,2,57,50,0,0
191105,-125,4,2,57,60,0,0
191458,-166.666666666667,4,2,57,70,0,0
191811,-55.5555555555556,4,2,57,80,0,0
191987,-71.4285714285714,4,2,57,90,0,1
192693,-76.9230769230769,4,2,57,90,0,1
193399,-83.3333333333333,4,2,57,90,0,1
203282,-71.4285714285714,4,2,57,90,0,1
203987,-76.9230769230769,4,2,57,90,0,1
204693,-83.3333333333333,4,2,57,90,0,1
213164,-83.3333333333333,4,2,57,70,0,0
213340,-100,4,2,57,70,0,0
213693,-90.9090909090909,4,2,57,70,0,0
214046,-76.9230769230769,4,2,57,70,0,0
214576,-83.3333333333333,4,2,57,90,0,1
223046,-71.4285714285714,4,2,57,90,0,1
223752,-83.3333333333333,4,2,57,90,0,1
234340,-71.4285714285714,4,2,57,90,0,1
235046,-83.3333333333333,4,2,57,90,0,1
235752,-83.3333333333333,4,2,57,90,0,0
235929,-142.857142857143,4,2,57,90,0,0
236282,-100,4,2,57,90,0,0
236635,-76.9230769230769,4,2,57,90,0,0
236987,-58.8235294117647,4,2,57,90,0,0
237164,-58.8235294117647,4,2,57,70,0,0

[Colours]
Combo1 : 36,101,253
Combo2 : 107,107,107
Combo3 : 163,163,163
Combo4 : 174,168,255
Combo5 : 109,98,255
Combo6 : 146,179,254

[HitObjects]
470,36,693,22,0,L|459:122,2,78.5,2|2|2,0:2|0:2|0:2,0:0:0:0:
420,183,1223,2,0,P|375:181|347:159,1,78.5,2|0,0:2|0:0,0:0:0:0:
351,84,1576,1,2,0:2:0:0:
378,301,2811,70,0,L|427:291,1,39.25,4|0,3:1|0:0,0:0:0:0:
315,378,3076,6,0,L|266:368,1,39.25
183,250,3340,70,0,L|193:299,1,39.25
168,361,3517,6,0,P|125:361|97:313,1,78.5,2|2,0:2|0:2,0:0:0:0:
55,195,3870,2,0,P|76:232|48:280,1,78.5,2|2,0:2|0:2,0:0:0:0:
0,336,4223,69,2,0:2:0:0:
0,336,4576,1,2,0:2:0:0:
185,137,5635,6,0,P|204:175|230:301,1,157,2|0,0:2|0:0,0:0:0:0:
208,361,6164,1,0,0:0:0:0:
298,234,6340,2,0,P|343:243|372:275,1,78.5,2|2,0:2|0:2,0:0:0:0:
431,345,6693,2,0,P|476:336|505:304,1,78.5,2|2,0:2|0:2,0:0:0:0:
346,346,7046,69,2,0:2:0:0:
365,264,7223,1,2,0:2:0:0:
387,185,7399,1,2,0:2:0:0:
389,191,8282,5,0,1:2:0:0:
318,152,8458,1,0,0:0:0:0:
145,341,8987,69,2,0:2:0:0:
209,376,9164,2,0,P|227:337|210:285,1,78.5,2|2,0:2|0:2,0:0:0:0:
20,110,9693,5,0,1:2:0:0:
20,110,9870,1,2,0:2:0:0:
94,184,10046,1,2,0:2:0:0:
186,1,10399,69,2,0:2:0:0:
259,191,10752,5,0,1:2:0:0:
486,0,11282,70,0,B|442:16|442:16|425:75|498:115|476:173,1,188.4,0|2,1:2|0:2,0:0:0:0:
433,227,11987,5,2,0:2:0:0:
351,214,12164,1,2,0:2:0:0:
430,235,12340,1,2,0:2:0:0:
355,203,12517,1,2,1:2:0:0:
485,342,12870,69,2,0:2:0:0:
489,352,14105,6,0,P|445:339|292:314,1,188.4,0|2,1:2|0:2,0:0:0:0:
208,355,14811,69,2,0:2:0:0:
219,282,14987,1,2,0:2:0:0:
230,209,15164,1,2,0:2:0:0:
132,306,15340,6,0,L|119:239,1,62.8,2|0,1:2|0:0,0:0:0:0:
304,314,15693,1,2,0:2:0:0:
307,324,16929,70,0,P|314:294|346:232,1,94.2
455,193,17635,5,2,0:2:0:0:
386,167,17811,1,2,0:2:0:0:
366,97,17987,1,2,0:2:0:0:
399,30,18164,1,2,1:2:0:0:
234,125,18517,69,2,0:2:0:0:
235,133,19576,5,0,1:2:0:0:
198,52,19752,2,0,P|175:38|100:42,1,94.1999999999998,2|0,0:2|0:0,0:0:0:0:
23,152,20282,70,0,L|35:216,1,47.0999999999999,2|0,0:2|0:0,0:0:0:0:
183,216,20635,2,0,L|171:280,1,47.0999999999999,2|0,0:2|0:0,0:0:0:0:
78,363,20987,2,0,L|82:255,1,94.1999999999998,2|2,1:2|0:2,0:0:0:0:
198,124,21517,2,0,P|236:133|259:156,1,62.8,2|2,0:2|0:2,0:0:0:0:
332,223,21870,1,2,0:2:0:0:
332,223,22046,2,0,P|370:214|402:126,1,125.6,2|0,1:2|0:0,0:0:0:0:
236,277,22576,38,0,L|242:337,1,47.0999999999999,0|0,3:2|2:2,0:0:0:0:
242,274,22929,2,0,L|248:334,1,47.0999999999999,0|0,3:2|2:2,0:0:0:0:
138,360,23282,21,2,3:2:0:0:
146,285,23458,1,2,2:2:0:0:
155,210,23635,1,2,3:2:0:0:
50,305,23811,54,0,L|43:252,1,47.0999999999999,2|0,2:2|3:2,0:0:0:0:
242,274,24164,2,0,L|255:169,1,94.1999999999998,2|2,2:2|2:2,0:0:0:0:
73,160,24693,2,0,L|65:102,1,47.0999999999999,2|2,3:2|2:2,0:0:0:0:
224,70,25046,2,0,L|232:12,1,47.0999999999999,2|0,3:2|2:2,0:0:0:0:
431,110,25399,22,0,L|437:170,1,47.0999999999999,0|0,3:2|2:2,0:0:0:0:
437,107,25752,2,0,L|443:167,1,47.0999999999999,0|0,3:2|2:2,0:0:0:0:
333,21,26105,53,2,3:2:0:0:
341,96,26282,1,2,2:2:0:0:
350,171,26458,1,2,3:2:0:0:
224,70,26635,22,0,L|217:123,1,47.0999999999999,2|0,2:2|3:2,0:0:0:0:
437,107,26987,2,0,L|450:212,1,94.1999999999998,2|2,2:2|2:2,0:0:0:0:
268,221,27517,2,0,L|260:279,1,47.0999999999999,2|2,3:2|2:2,0:0:0:0:
419,311,27870,2,0,L|427:369,1,47.0999999999999,2|0,3:2|2:2,0:0:0:0:
247,351,28223,54,0,P|221:350|192:337,1,47.0999999999999,0|0,3:2|2:2,0:0:0:0:
249,358,28576,2,0,P|223:357|194:344,1,47.0999999999999,0|0,3:2|2:2,0:0:0:0:
119,206,28929,21,2,3:2:0:0:
43,225,29105,2,0,P|45:257|63:283,1,47.0999999999999,2|0,2:2|3:2,0:0:0:0:
236,196,29458,2,0,L|243:144,1,47.0999999999999,2|0,2:2|3:2,0:0:0:0:
46,51,29811,2,0,L|59:136,1,70.6499999999999,2|0,2:2|0:0,0:0:0:0:
57,130,30164,53,2,2:2:0:0:
287,8,30517,21,2,2:2:0:0:
287,8,30693,2,0,L|282:77,1,47.0999999999999,2|0,3:2|2:2,0:0:0:0:
314,164,31046,54,0,B|339:156|370:150,1,47.0999999999999,2|2,3:2|0:2,0:0:0:0:
484,143,31399,2,0,B|459:135|428:129,1,47.0999999999999,0|2,3:2|0:2,0:0:0:0:
275,241,31752,2,0,L|287:308,1,47.0999999999999,0|0,3:2|0:2,0:0:0:0:
351,384,32105,2,0,L|359:337,1,47.0999999999999,0|0,3:2|2:2,0:0:0:0:
214,179,32458,2,0,P|186:192|164:217,1,47.0999999999999,0|0,3:2|0:2,0:0:0:0:
55,319,32811,2,0,P|27:306|5:281,1,47.0999999999999,0|0,3:2|0:2,0:0:0:0:
236,268,33164,21,2,0:2:0:0:
218,338,33340,1,2,0:2:0:0:
161,384,33517,1,2,0:2:0:0:
0,79,33870,70,0,L|91:73,1,78.5,0|0,3:2|2:2,0:0:0:0:
349,78,34223,2,0,L|258:72,1,78.5,0|0,3:2|2:2,0:0:0:0:
83,174,34576,1,2,3:2:0:0:
158,83,34752,1,2,2:2:0:0:
248,159,34929,1,2,3:2:0:0:
174,248,35105,1,2,2:2:0:0:
77,79,35282,6,0,P|64:39|72:-10,1,78.5,0|2,3:2|2:2,0:0:0:0:
266,75,35635,2,0,P|279:35|271:-14,1,78.5,0|0,3:2|2:2,0:0:0:0:
168,171,35987,1,0,3:2:0:0:
168,171,36076,1,0,0:0:0:0:
168,171,36164,1,0,2:2:0:0:
266,75,36340,2,0,P|317:84|346:117,1,78.5,0|0,3:2|2:2,0:0:0:0:
457,245,36693,70,0,L|448:330,1,78.5,0|0,3:2|2:2,0:0:0:0:
257,384,37046,2,0,L|248:305,1,78.5,0|0,3:2|2:2,0:0:0:0:
422,166,37399,5,2,3:2:0:0:
355,253,37576,1,2,2:2:0:0:
289,171,37752,1,2,3:2:0:0:
225,245,37929,70,0,P|204:204|203:160,1,78.5,2|0,2:2|3:2,0:0:0:0:
390,38,38282,2,0,P|386:76|367:111,1,78.5,2|0,2:2|3:2,0:0:0:0:
217,65,38635,1,0,2:2:0:0:
311,13,38811,1,0,3:2:0:0:
311,13,38899,1,0,0:0:0:0:
311,13,38987,1,0,2:2:0:0:
201,172,39164,2,0,L|109:161,1,78.5,0|0,3:2|2:2,0:0:0:0:
30,360,39517,6,0,P|84:344|103:316,1,78.5,0|0,3:2|2:2,0:0:0:0:
225,245,39870,2,0,P|279:261|298:289,1,78.5,0|0,3:2|2:2,0:0:0:0:
460,380,40223,1,2,3:2:0:0:
381,371,40399,1,2,2:2:0:0:
391,292,40576,1,2,3:2:0:0:
468,301,40752,1,2,2:2:0:0:
300,354,40929,70,0,L|291:273,1,78.5,0|2,3:2|2:2,0:0:0:0:
476,222,41282,2,0,L|467:300,1,78.5,0|2,3:2|2:2,0:0:0:0:
328,192,41635,1,0,3:2:0:0:
328,192,41723,1,0,0:0:0:0:
328,192,41811,1,0,2:2:0:0:
300,354,41987,2,0,L|215:336,1,78.5,0|0,3:2|2:2,0:0:0:0:
61,219,42340,5,2,3:2:0:0:
134,322,42517,1,2,2:2:0:0:
181,141,42693,2,0,P|142:133|90:156,1,78.5,0|2,3:2|2:2,0:0:0:0:
315,269,43046,2,0,L|330:178,1,78.5,0|2,3:2|2:2,0:0:0:0:
240,9,43399,2,0,L|252:86,1,78.5,0|2,3:2|2:2,0:0:0:0:
424,219,43752,2,0,P|472:209|500:173,1,78.5,0|2,3:2|2:2,0:0:0:0:
292,344,44105,70,0,P|268:339|254:321,1,39.25,0|0,3:2|0:0,0:0:0:0:
201,223,44282,2,0,P|208:246|200:267,1,39.25,2|0,3:2|0:0,0:0:0:0:
178,331,44458,2,0,L|96:337,1,78.5,0|2,3:2|2:2,0:0:0:0:
249,134,44811,5,0,3:2:0:0:
276,138,44899,1,0,3:2:0:0:
303,142,44987,1,2,3:2:0:0:
330,147,45076,1,0,3:2:0:0:
355,150,45164,2,0,P|368:110|351:73,1,78.5,0|0,3:2|0:2,0:0:0:0:
148,106,45517,2,0,P|135:66|152:29,1,78.5,0|2,3:2|0:2,0:0:0:0:
315,228,45870,69,2,3:2:0:0:
412,213,46046,1,2,0:2:0:0:
510,204,46223,1,2,3:2:0:0:
330,382,46399,6,0,P|318:336|298:294,1,78.5,2|0,2:2|3:2,0:0:0:0:
222,136,46752,2,0,P|196:216|159:292,1,157,2|0,0:2|0:2,0:0:0:0:
24,251,47282,1,0,3:2:0:0:
24,251,47370,1,0,0:0:0:0:
24,251,47458,1,0,0:2:0:0:
105,384,47635,2,0,P|93:338|73:296,1,78.5,0|0,3:2|0:2,0:0:0:0:
7,109,47987,70,0,P|53:118|82:146,1,78.5,0|0,3:2|0:2,0:0:0:0:
210,252,48340,2,0,P|256:243|285:215,1,78.5,0|2,3:2|0:2,0:0:0:0:
360,58,48693,1,2,3:2:0:0:
294,149,48870,1,2,0:2:0:0:
401,246,49046,1,2,3:2:0:0:
480,143,49223,1,0,2:2:0:0:
276,64,49399,6,0,P|229:74|198:103,1,78.5,0|2,3:2|0:2,0:0:0:0:
93,216,49752,2,0,P|46:206|15:177,1,78.5,0|0,3:2|0:2,0:0:0:0:
88,73,50105,1,0,3:2:0:0:
88,73,50193,1,0,0:0:0:0:
88,73,50282,1,0,0:2:0:0:
216,172,50458,2,0,L|210:262,1,78.5,0|0,3:2|0:2,0:0:0:0:
121,384,50811,70,0,P|100:341|108:303,1,78.5,0|0,3:2|0:2,0:0:0:0:
302,384,51164,2,0,P|323:341|315:303,1,78.5,0|0,3:2|0:2,0:0:0:0:
214,384,51517,1,2,3:2:0:0:
206,305,51693,1,2,0:2:0:0:
198,227,51870,1,0,3:2:0:0:
318,311,52046,6,0,P|363:321|396:339,1,78.5,2|0,2:2|3:2,0:0:0:0:
104,311,52399,2,0,P|59:321|26:339,1,78.5,2|0,2:2|3:2,0:0:0:0:
281,240,52752,1,0,2:2:0:0:
161,145,52929,1,0,3:2:0:0:
161,145,53017,1,0,0:0:0:0:
161,145,53105,1,0,2:2:0:0:
273,45,53282,2,0,L|263:144,1,78.5,0|0,3:2|2:2,0:0:0:0:
15,155,53635,69,2,3:2:0:0:
15,155,53811,2,0,P|28:112|74:80,1,78.5,2|0,2:2|3:2,0:0:0:0:
190,217,54164,2,0,P|146:227|95:203,1,78.5,2|0,2:2|3:2,0:0:0:0:
107,0,54517,2,0,P|137:32|142:88,1,78.5,2|0,2:2|3:2,0:0:0:0:
103,303,54870,38,0,P|157:310|284:360,1,157,2|2,2:2|0:2,0:0:0:0:
399,258,55399,2,0,P|358:273|318:297,1,78.5,2|2,0:2|0:2,0:0:0:0:
483,384,55752,2,0,P|442:369|402:345,1,78.5,2|2,0:2|0:2,0:0:0:0:
496,277,56105,1,0,0:0:0:0:
169,139,56458,6,0,P|197:184|257:199,1,98.125,2|0,3:2|0:2,0:0:0:0:
408,100,56811,2,0,P|355:101|312:146,1,98.125,10|0,3:2|0:2,0:0:0:0:
97,255,57164,2,0,L|80:93,1,147.1875,2|0,3:2|0:0,0:0:0:0:
75,32,57517,5,10,3:2:0:0:
75,32,57693,1,2,0:2:0:0:
0,170,57870,69,2,3:2:0:0:
81,108,58046,1,2,0:2:0:0:
195,249,58223,1,10,3:2:0:0:
114,187,58399,1,2,0:2:0:0:
35,371,58576,2,0,L|16:266,1,98.125,2|2,3:2|0:2,0:0:0:0:
254,384,58929,2,0,L|273:279,1,98.125,10|2,3:2|0:2,0:0:0:0:
152,348,59282,5,2,3:2:0:0:
114,187,59458,1,2,0:2:0:0:
271,287,59635,2,0,P|337:272|378:239,1,98.125,10|0,3:2|0:2,0:0:0:0:
472,139,59987,69,0,3:2:0:0:
283,193,60164,1,0,0:2:0:0:
496,235,60340,2,0,P|496:290|458:353,1,98.125,8|0,3:2|0:2,0:0:0:0:
365,379,60693,5,0,3:2:0:0:
369,177,60870,1,0,0:2:0:0:
283,384,61046,2,0,P|233:375|197:339,1,98.125,8|0,3:2|0:2,0:0:0:0:
289,203,61399,69,2,3:2:0:0:
289,203,61487,1,0,0:0:0:0:
289,203,61576,1,2,0:2:0:0:
233,273,61752,1,10,3:2:0:0:
162,159,61929,1,2,0:2:0:0:
61,304,62105,5,2,3:2:0:0:
233,273,62282,1,2,0:2:0:0:
20,234,62458,2,0,P|13:183|5:121,1,98.125,10|0,3:2|0:2,0:0:0:0:
135,262,62811,69,0,3:2:0:0:
190,88,62987,1,0,0:2:0:0:
289,203,63164,2,0,P|296:152|304:90,1,98.125,8|0,3:2|0:2,0:0:0:0:
230,8,63517,5,0,3:2:0:0:
387,58,63693,1,0,0:2:0:0:
213,182,63870,1,8,3:2:0:0:
190,88,64046,1,0,0:2:0:0:
396,166,64223,2,0,P|392:209|351:261,1,98.125,2|2,3:2|0:2,0:0:0:0:
135,262,64576,2,0,P|138:305|180:357,1,98.125,10|2,3:2|2:2,0:0:0:0:
289,203,64929,69,2,3:2:0:0:
322,356,65105,1,2,0:2:0:0:
466,223,65282,2,0,L|448:325,1,98.125,10|0,3:2|0:2,0:0:0:0:
396,166,65635,5,0,3:2:0:0:
261,299,65811,1,0,0:2:0:0:
237,125,65987,2,0,P|188:128|141:164,1,98.125,8|0,3:2|2:2,0:0:0:0:
28,319,66340,70,0,P|14:269|-4:214,1,98.125,0|0,3:2|0:2,0:0:0:0:
261,299,66693,2,0,P|268:274|277:246,1,49.0625,8|0,3:2|0:0,0:0:0:0:
237,125,66870,2,0,P|244:148|251:171,1,49.0625,0|0,3:2|0:0,0:0:0:0:
166,303,67046,1,0,3:2:0:0:
166,303,67135,1,0,0:0:0:0:
166,303,67223,1,0,2:2:0:0:
337,186,67399,5,8,3:2:0:0:
370,191,67487,1,0,3:2:0:0:
401,205,67576,1,0,3:2:0:0:
428,227,67664,1,0,3:2:0:0:
447,255,67752,2,0,P|485:220|482:158,1,98.125,2|0,3:2|0:2,0:0:0:0:
303,378,68105,2,0,P|265:343|268:281,1,98.125,10|0,3:2|0:2,0:0:0:0:
356,107,68458,2,0,L|196:87,1,147.1875,2|0,3:2|0:0,0:0:0:0:
118,83,68811,69,10,3:2:0:0:
118,83,68987,1,2,0:2:0:0:
215,10,69164,5,2,3:2:0:0:
255,173,69340,1,2,0:2:0:0:
290,63,69517,1,10,3:2:0:0:
169,157,69693,1,2,0:2:0:0:
123,0,69870,69,2,3:2:0:0:
123,0,69958,1,0,0:0:0:0:
123,0,70046,1,2,0:2:0:0:
19,143,70223,2,0,L|3:39,1,98.125,10|2,3:2|0:2,0:0:0:0:
169,157,70576,5,2,3:2:0:0:
12,254,70752,1,2,0:2:0:0:
161,367,70929,2,0,P|173:307|188:255,1,98.125,10|0,3:2|0:2,0:0:0:0:
253,137,71282,69,0,3:2:0:0:
273,297,71458,1,0,0:2:0:0:
415,108,71635,2,0,P|355:96|306:65,1,98.125,8|0,3:2|0:2,0:0:0:0:
169,157,71987,5,0,3:2:0:0:
213,17,72164,1,0,0:2:0:0:
276,213,72340,2,0,P|338:218|384:179,1,98.125,8|0,3:2|0:2,0:0:0:0:
192,302,72693,69,2,3:2:0:0:
192,302,72782,1,0,0:0:0:0:
192,302,72870,1,2,0:2:0:0:
264,355,73046,1,10,3:2:0:0:
106,282,73223,1,2,0:2:0:0:
200,201,73399,5,2,3:2:0:0:
137,384,73576,1,2,0:2:0:0:
19,179,73752,2,0,P|76:173|121:205,1,98.125,10|0,3:2|0:2,0:0:0:0:
297,278,74105,69,0,3:2:0:0:
334,97,74282,1,0,0:2:0:0:
483,312,74458,2,0,P|426:318|379:286,1,98.125,8|0,3:2|0:2,0:0:0:0:
239,122,74811,5,0,3:2:0:0:
416,170,74987,1,0,0:2:0:0:
225,295,75164,2,0,P|212:235|187:179,1,98.125,8|0,3:2|0:2,0:0:0:0:
130,41,75517,1,2,3:2:0:0:
130,41,75605,1,0,0:0:0:0:
130,41,75693,1,2,0:2:0:0:
19,179,75870,2,0,P|73:172|96:132,1,98.125,10|2,3:2|0:2,0:0:0:0:
16,24,76223,69,2,3:2:0:0:
211,38,76399,1,2,0:2:0:0:
94,138,76576,2,0,L|113:247,1,98.125,10|0,3:2|0:2,0:0:0:0:
197,348,76929,5,0,3:2:0:0:
247,174,77105,1,0,0:2:0:0:
289,352,77282,1,8,3:2:0:0:
191,237,77458,1,0,0:2:0:0:
372,187,77635,1,0,0:0:0:0:
120,289,77987,53,8,0:2:0:0:
289,352,78340,69,0,0:0:0:0:
103,208,78693,5,8,0:2:0:0:
210,318,78870,1,0,0:2:0:0:
18,380,79046,1,4,1:2:0:0:
273,123,91046,54,0,P|317:117|361:72,2,78.5,2|2|2,0:2|0:2|0:2,0:0:0:0:
145,79,91576,2,0,P|180:124|164:173,1,94.1999999999998,2|2,0:2|0:2,0:0:0:0:
216,247,92282,1,2,0:2:0:0:
131,223,92458,1,2,0:2:0:0:
131,223,92635,1,2,0:2:0:0:
49,245,92811,2,0,P|51:291|68:325,1,70.6499999999999,2|0,0:2|1:2,0:0:0:0:
145,343,93164,54,0,P|215:325|287:341,1,125.6,4|0,1:2|0:0,0:0:0:0:
439,298,93693,1,2,0:2:0:0:
371,348,93870,1,2,0:2:0:0:
345,308,94046,1,2,0:2:0:0:
361,263,94223,1,2,0:2:0:0:
439,298,94399,2,0,B|489:303|485:329|533:330,2,94.1999999999998,2|2|2,0:2|0:2|0:2,0:0:0:0:
304,292,95282,2,0,B|282:294|278:305|252:305,1,47.0999999999999,2|2,0:2|0:2,0:0:0:0:
373,244,95635,2,0,L|383:158,1,70.6499999999999,2|0,0:2|1:2,0:0:0:0:
461,74,95987,22,0,P|423:50|357:92,1,125.6,4|0,1:2|0:0,0:0:0:0:
220,63,96693,1,2,0:2:0:0:
280,115,96870,2,0,P|279:152|240:178,1,70.6499999999999,2|0,0:2|0:0,0:0:0:0:
145,104,97223,2,0,P|141:40|157:8,1,94.1999999999998,2|2,0:2|0:2,0:0:0:0:
215,157,97929,1,2,0:2:0:0:
144,190,98282,1,2,0:2:0:0:
75,156,98458,1,2,0:2:0:0:
298,229,98811,53,6,1:2:0:0:
298,229,98987,2,0,B|288:276|323:307|323:307|346:282|365:284,5,125.6,2|2|0|0|0|0,0:2|0:2|0:0|0:0|0:0|0:0,0:0:0:0:
445,333,100929,1,2,0:2:0:0:
478,238,101105,1,2,0:2:0:0:
404,155,101282,38,0,P|395:132|398:108,1,31.4,2|0,0:2|0:0,0:0:0:0:
495,74,101458,2,0,P|479:112|444:126,1,47.1
261,113,101635,22,0,P|257:65|306:21,1,94.2,2|0,3:2|0:2,0:0:0:0:
183,264,101987,2,0,P|146:321|158:372,1,94.2,2|0,3:2|0:2,0:0:0:0:
115,154,102340,2,0,B|60:113|9:120|9:120|19:164,1,141.3,2|0,3:2|0:0,0:0:0:0:
41,225,102693,5,2,3:2:0:0:
41,225,102870,1,2,0:2:0:0:
193,186,103046,1,2,3:2:0:0:
122,265,103223,1,2,0:2:0:0:
234,167,103399,1,2,3:2:0:0:
291,295,103576,1,2,0:2:0:0:
427,241,103752,70,0,P|448:205|448:132,1,94.2,2|2,3:2|0:2,0:0:0:0:
291,295,104105,2,0,P|258:254|255:185,1,94.2,2|2,3:2|0:2,0:0:0:0:
315,59,104458,1,2,3:2:0:0:
362,153,104635,1,2,0:2:0:0:
207,77,104811,6,0,B|153:96|105:96|105:96|60:74,1,141.3,2|0,3:2|0:0,0:0:0:0:
42,155,105164,1,0,3:2:0:0:
42,155,105340,1,0,0:2:0:0:
166,259,105517,2,0,P|158:314|138:355,1,94.2,0|0,3:2|0:2,0:0:0:0:
195,165,105870,1,0,3:2:0:0:
195,165,106046,1,0,0:2:0:0:
73,252,106223,2,0,P|35:292|-7:309,1,94.2,0|0,3:2|0:2,0:0:0:0:
85,161,106576,69,2,3:2:0:0:
3,198,106752,1,2,0:2:0:0:
148,98,106929,1,2,3:2:0:0:
30,81,107105,1,2,0:2:0:0:
187,187,107282,5,2,3:2:0:0:
341,143,107458,1,2,0:2:0:0:
292,233,107635,2,0,P|291:282|332:326,1,94.2,2|0,3:2|0:2,0:0:0:0:
301,117,107987,1,0,3:2:0:0:
376,240,108164,1,0,0:2:0:0:
222,188,108340,2,0,P|181:139|192:79,1,94.2,0|0,3:2|0:2,0:0:0:0:
367,159,108693,69,0,3:2:0:0:
274,236,108870,1,0,0:2:0:0:
385,144,109046,1,0,3:2:0:0:
259,251,109223,1,0,0:2:0:0:
322,93,109399,1,2,3:2:0:0:
338,268,109576,1,2,0:2:0:0:
241,112,109752,1,2,3:2:0:0:
409,227,109929,1,2,0:2:0:0:
198,188,110105,6,0,B|166:184|146:202|87:203,1,94.2,2|2,3:2|0:2,0:0:0:0:
263,32,110458,2,0,B|231:36|211:18|152:17,1,94.2,2|0,3:2|0:2,0:0:0:0:
130,91,110811,1,0,3:2:0:0:
130,91,110987,1,0,0:2:0:0:
355,84,111164,70,0,P|322:118|277:130,1,94.2,2|2,3:2|0:2,0:0:0:0:
433,309,111517,2,0,P|397:278|351:268,1,94.2,2|2,3:2|0:2,0:0:0:0:
433,182,111870,1,2,3:2:0:0:
433,182,112046,1,0,0:2:0:0:
224,252,112223,1,0,3:2:0:0:
224,252,112311,1,0,0:0:0:0:
224,252,112399,1,0,0:2:0:0:
326,196,112576,1,0,3:2:0:0:
248,338,112752,1,0,0:2:0:0:
75,236,112929,6,0,P|54:175|85:125,1,94.2,2|0,3:2|0:2,0:0:0:0:
246,120,113282,2,0,P|212:172|156:176,1,94.2,2|0,3:2|0:2,0:0:0:0:
0,68,113635,2,0,B|42:34|110:51|110:51|131:26,1,141.3,2|0,3:2|0:0,0:0:0:0:
211,20,113987,69,2,3:2:0:0:
211,20,114164,1,2,0:2:0:0:
340,141,114340,1,2,3:2:0:0:
225,101,114517,1,2,0:2:0:0:
343,42,114693,1,2,3:2:0:0:
218,210,114870,1,2,0:2:0:0:
143,96,115046,1,2,3:2:0:0:
143,96,115135,1,0,0:0:0:0:
143,96,115223,1,2,0:2:0:0:
248,138,115399,6,0,P|262:93|260:44,1,94.2,2|2,3:2|0:2,0:0:0:0:
71,199,115752,2,0,P|83:263|99:300,1,94.2,2|2,3:2|0:2,0:0:0:0:
306,339,116105,70,0,B|366:338|414:317|414:317|354:278,1,141.3,2|0,3:2|0:0,0:0:0:0:
329,254,116458,1,0,3:2:0:0:
329,254,116635,1,0,0:2:0:0:
482,178,116811,2,0,P|510:113|495:73,1,94.2,0|0,3:2|0:2,0:0:0:0:
428,261,117164,1,0,3:2:0:0:
428,261,117340,1,0,0:2:0:0:
354,128,117517,2,0,P|338:74|362:36,1,94.2,0|0,3:2|0:2,0:0:0:0:
448,172,117870,5,2,3:2:0:0:
448,172,117958,1,0,0:0:0:0:
448,172,118046,1,2,0:2:0:0:
350,234,118223,1,2,3:2:0:0:
241,187,118399,1,2,0:2:0:0:
206,90,118576,70,0,B|217:45|256:25|256:25|250:65,1,109.9,2|2,3:2|0:2,0:0:0:0:
118,136,118929,6,0,B|75:148|39:125|39:125|75:111,1,102.05,2|0,3:2|0:2,0:0:0:0:
197,186,119282,70,0,B|228:221|226:252|226:252|198:228,1,94.2,0|0,3:2|0:2,0:0:0:0:
190,84,119635,6,0,B|191:46|217:22|217:22|220:53,1,86.35,0|0,3:2|0:2,0:0:0:0:
117,152,119987,54,0,B|89:168|59:159|59:159|82:142,1,70.6500000000001,0|0,3:2|0:2,0:0:0:0:
207,180,120340,70,0,B|231:196|235:215|235:215|215:205,1,62.8,0|0,3:2|0:2,0:0:0:0:
173,140,120693,5,2,3:2:0:0:
166,136,120870,1,2,0:2:0:0:
164,159,121046,69,2,3:2:0:0:
151,162,121223,1,2,0:2:0:0:
210,229,121399,6,0,L|160:249,1,39.25,2|0,0:2|0:0,0:0:0:0:
146,255,121576,2,0,L|99:272,1,39.25,2|0,0:2|0:0,0:0:0:0:
39,320,121752,70,0,B|42:348|64:362|79:367|79:367|108:337|163:341|163:341|144:378,1,188.4,2|2,0:2|0:2,0:0:0:0:
283,104,123340,6,0,L|268:46,2,31.4,0|0|0,0:2|0:2|0:2,0:0:0:0:
395,89,123693,70,0,L|411:47,2,39.25,0|0|0,0:2|0:2|0:2,0:0:0:0:
467,187,124046,69,0,0:2:0:0:
467,187,124135,1,0,0:2:0:0:
467,187,124223,2,0,P|468:240|429:283,1,94.2,2|0,3:2|0:2,0:0:0:0:
373,342,124487,1,0,0:2:0:0:
336,312,124576,2,0,B|304:315|276:299|276:299|269:308|234:328,1,94.2,10|0,3:2|0:2,0:0:0:0:
186,237,124929,1,2,3:2:0:0:
329,219,125105,1,0,0:2:0:0:
329,219,125193,1,2,0:2:0:0:
329,219,125282,1,8,3:2:0:0:
114,153,125458,1,2,0:2:0:0:
300,170,125635,70,0,P|359:156|389:115,1,94.2,0|2,3:2|0:2,0:0:0:0:
335,38,125899,1,0,0:2:0:0:
335,38,125987,2,0,P|312:79|310:132,1,94.2,8|2,3:2|0:2,0:0:0:0:
417,209,126340,2,0,P|462:126|443:81,1,141.3,0|0,3:2|0:2,0:0:0:0:
416,16,126693,5,8,3:2:0:0:
416,16,126870,1,0,0:2:0:0:
306,169,127046,1,0,3:2:0:0:
225,80,127223,1,0,0:2:0:0:
225,80,127311,1,0,0:2:0:0:
225,80,127399,1,10,3:2:0:0:
381,132,127576,1,0,0:2:0:0:
272,264,127752,1,2,3:2:0:0:
135,195,127929,1,0,0:2:0:0:
135,195,128017,1,2,0:2:0:0:
135,195,128105,1,8,3:2:0:0:
264,162,128282,69,2,0:2:0:0:
185,309,128458,2,0,P|144:343|79:315,1,94.2,0|2,3:2|0:2,0:0:0:0:
360,288,128811,2,0,P|381:341|428:367,1,94.2,8|2,3:2|0:2,0:0:0:0:
447,363,129076,1,0,0:2:0:0:
474,346,129164,2,0,P|496:358|524:362,1,47.1,0|0,3:2|0:2,0:0:0:0:
487,258,129340,1,2,0:2:0:0:
500,242,129429,1,0,0:2:0:0:
497,223,129517,2,0,B|525:187|503:169|503:169|473:144|476:79,1,141.3,8|0,3:2|0:2,0:0:0:0:
446,15,129870,6,0,B|446:142|358:66,1,141.3,0|0,3:2|0:2,0:0:0:0:
221,72,130223,2,0,P|248:108|299:112,1,94.2,10|0,3:2|0:2,0:0:0:0:
293,113,130487,1,0,0:2:0:0:
293,113,130576,1,2,3:2:0:0:
172,262,130752,1,0,0:2:0:0:
342,203,130929,1,8,3:2:0:0:
238,169,131105,1,2,0:2:0:0:
238,169,131193,1,0,0:2:0:0:
238,169,131282,2,0,B|246:200|244:213|244:213|316:253|239:332|202:273,1,188.4,0|8,3:2|3:2,0:0:0:0:
91,192,131811,70,0,B|44:181|15:199|15:199|6:217,1,94.2,2|0,0:2|3:2,0:0:0:0:
158,136,132164,1,2,0:2:0:0:
75,33,132340,1,8,3:2:0:0:
190,101,132517,1,0,0:2:0:0:
302,49,132693,2,0,B|336:67|376:59|376:59|362:81,1,94.2,0|0,3:2|0:2,0:0:0:0:
400,143,132958,5,0,0:2:0:0:
409,147,133046,2,0,B|444:204|410:213|440:242,1,94.2,8|0,3:2|0:2,0:0:0:0:
426,342,133399,1,0,3:2:0:0:
412,332,133487,1,0,0:2:0:0:
412,318,133576,1,0,0:2:0:0:
468,209,133752,2,0,P|413:188|368:217,1,94.2,8|0,3:2|0:2,0:0:0:0:
259,268,134105,70,0,L|232:206,2,47.1,0|0|0,3:2|0:2|0:2,0:0:0:0:
459,156,134458,2,0,P|447:195|352:203,1,141.3,8|0,3:2|0:2,0:0:0:0:
316,141,134811,1,0,3:2:0:0:
340,117,134899,1,0,0:2:0:0:
373,125,134987,1,0,0:2:0:0:
254,59,135164,2,0,L|271:14,1,47.1,8|0,3:2|0:2,0:0:0:0:
162,115,135340,2,0,L|193:160,1,47.1,0|0,0:2|0:2,0:0:0:0:
73,69,135517,6,0,B|39:53|39:53|76:156|16:195,1,188.4,2|10,3:2|3:2,0:0:0:0:
187,183,136046,1,0,0:2:0:0:
35,277,136223,2,0,P|62:325|77:313,1,94.2,2|0,3:2|0:2,0:0:0:0:
123,251,136487,1,2,0:2:0:0:
114,242,136576,2,0,P|106:311|151:334,1,94.2,8|2,3:2|0:2,0:0:0:0:
221,318,136840,1,0,0:2:0:0:
262,339,136929,2,0,B|294:318|356:337|356:337|327:307|351:270,1,141.3,0|0,3:2|0:2,0:0:0:0:
421,275,137282,69,8,3:2:0:0:
506,285,137458,1,2,0:2:0:0:
355,195,137635,1,0,3:2:0:0:
494,130,137811,1,2,0:2:0:0:
400,68,137987,2,0,P|390:137|417:195,1,94.2,8|0,3:2|0:2,0:0:0:0:
297,42,138340,1,0,3:2:0:0:
188,200,138517,5,0,0:2:0:0:
188,200,138605,1,0,0:2:0:0:
188,200,138693,1,10,3:2:0:0:
300,136,138870,1,0,0:2:0:0:
166,51,139046,1,2,3:2:0:0:
291,239,139223,1,0,0:2:0:0:
291,239,139311,1,2,0:2:0:0:
291,239,139399,1,8,3:2:0:0:
376,107,139576,1,2,0:2:0:0:
170,222,139752,70,0,B|158:257|158:257|192:313|154:356,1,141.3,0|0,3:2|0:2,0:0:0:0:
93,307,140105,2,0,L|-11:317,1,94.2,8|2,3:2|0:2,0:0:0:0:
277,249,140458,2,0,L|327:257,2,47.1,0|0|2,3:2|0:2|0:2,0:0:0:0:
133,152,140723,1,0,0:2:0:0:
133,152,140811,2,0,P|109:78|148:45,1,94.2,8|0,3:2|0:2,0:0:0:0:
194,26,141076,1,0,0:2:0:0:
240,62,141164,2,0,B|261:90|321:93|321:93|248:133,1,141.3,0|0,3:2|0:2,0:0:0:0:
347,142,141517,6,0,L|448:169,1,94.2,10|0,3:2|0:2,0:0:0:0:
334,244,141870,1,2,3:2:0:0:
484,167,142046,1,0,0:2:0:0:
484,167,142135,1,2,0:2:0:0:
484,167,142223,1,8,3:2:0:0:
425,277,142399,1,2,0:2:0:0:
256,198,142576,2,0,B|212:217|200:190|146:221,1,94.2,0|2,3:2|0:2,0:0:0:0:
163,212,142840,1,0,0:2:0:0:
163,212,142929,1,8,3:2:0:0:
70,339,143105,1,2,0:2:0:0:
188,320,143282,1,0,3:2:0:0:
53,197,143458,1,2,0:2:0:0:
199,238,143635,70,0,P|224:245|261:236,1,47.1,8|0,3:2|0:2,0:0:0:0:
385,264,143811,2,0,P|362:282|341:288,1,47.1,0|0,0:2|0:2,0:0:0:0:
313,171,143987,6,0,B|316:141|286:121|286:121|267:42|387:61|346:116,1,188.4,0|8,3:2|3:2,0:0:0:0:
353,100,144517,1,0,0:2:0:0:
256,70,144693,2,0,P|216:89|159:92,1,94.2,0|0,3:2|0:2,0:0:0:0:
401,12,145046,2,0,P|439:56|499:49,1,94.2,8|0,3:2|0:2,0:0:0:0:
472,59,145311,1,0,0:2:0:0:
472,59,145399,1,0,0:0:0:0:
391,286,145576,22,0,P|420:267|425:234,1,54.9499999999999,0|8,0:2|0:2,0:0:0:0:
428,318,145929,70,0,P|445:288|443:253,1,70.6500000000001,0|0,0:2|0:0,0:0:0:0:
466,328,146282,6,0,P|475:286|460:246,1,86.35,0|8,0:2|0:2,0:0:0:0:
429,176,146635,69,0,0:2:0:0:
267,268,146811,2,0,B|256:268|235:257|235:257|203:269|160:286|142:248|59:198|32:122|265:238|160:325|141:322,1,323.8125,6|0,1:2|0:0,0:0:0:0:
100,273,158105,6,0,P|121:308|121:331,1,47.0999999999999,2|0,0:2|0:0,0:0:0:0:
145,196,158458,2,0,P|159:164|158:139,1,47.0999999999999,2|0,0:2|0:0,0:0:0:0:
202,258,158811,2,0,B|243:276|261:258|304:273,1,94.1999999999998,2|2,0:2|0:2,0:0:0:0:
379,289,159340,1,2,0:2:0:0:
468,267,159517,1,2,0:2:0:0:
462,257,159693,1,2,0:2:0:0:
375,267,159870,2,0,L|367:207,1,47.0999999999999,2|2,0:2|0:2,0:0:0:0:
339,72,160223,2,0,L|348:120,1,47.0999999999999,2|2,0:2|0:2,0:0:0:0:
396,210,160576,1,2,0:2:0:0:
321,141,160752,1,2,0:2:0:0:
394,177,160929,2,0,B|404:190|419:190|419:190|444:209|451:236,1,70.6499999999999,2|0,0:2|0:0,0:0:0:0:
289,148,161282,70,0,B|215:94|108:186|159:282|159:282|111:315,1,314,2|2,0:2|0:2,0:0:0:0:
236,227,162340,1,2,0:2:0:0:
236,227,162693,2,0,P|261:275|254:305,1,70.6499999999999,2|0,0:2|0:0,0:0:0:0:
315,339,163046,5,2,0:2:0:0:
328,363,163223,1,2,0:2:0:0:
191,326,163399,1,2,0:2:0:0:
176,358,163576,1,2,0:2:0:0:
118,228,163752,1,2,0:2:0:0:
44,247,163929,1,2,0:2:0:0:
188,189,164105,70,0,B|26:232|26:232|151:263,1,282.599999999999,2|0,0:2|0:0,0:0:0:0:
327,180,165870,5,2,0:2:0:0:
372,192,166046,1,2,0:2:0:0:
296,159,166223,1,2,0:2:0:0:
387,234,166399,1,2,0:0:0:0:
247,105,166576,1,2,0:2:0:0:
247,105,166752,1,2,0:2:0:0:
315,260,166929,70,0,B|293:288|267:298|267:298|396:334,1,188.4,2|0,0:2|0:2,0:0:0:0:
464,355,167811,2,0,B|476:343|469:312|469:312|522:341,3,94.1999999999998,0|0|0|0,0:2|0:0|0:2|0:0,0:0:0:0:
390,335,169046,6,0,L|335:317,1,39.25,0|0,0:2|0:0,0:0:0:0:
318,312,169223,70,0,L|247:289,1,54.95,0|0,0:2|0:0,0:0:0:0:
187,268,169399,22,0,B|130:247|130:247|182:322|143:353,1,164.85,2|0,3:2|0:0,0:0:0:0:
87,234,169752,2,0,B|69:200|89:164|89:164|48:139,1,102.05,2|0,3:2|0:2,0:0:0:0:
230,89,170105,2,0,B|276:86|325:125|325:125|347:127|368:111,1,141.3,2|0,3:2|0:0,0:0:0:0:
422,61,170458,5,2,3:2:0:0:
372,199,170635,1,2,0:2:0:0:
494,150,170811,1,2,3:2:0:0:
433,99,170987,1,2,0:2:0:0:
472,248,171164,1,2,3:2:0:0:
472,248,171340,1,2,0:2:0:0:
310,281,171517,70,0,P|304:343|331:375,1,94.2,2|2,3:2|0:2,0:0:0:0:
219,149,171870,2,0,P|195:94|215:56,1,94.2,2|2,3:2|0:2,0:0:0:0:
38,211,172223,1,2,3:2:0:0:
38,211,172576,6,0,B|80:238|83:292|83:292|34:317,1,141.3,2|0,3:2|0:0,0:0:0:0:
15,323,172929,1,0,3:2:0:0:
123,360,173105,1,0,0:2:0:0:
21,344,173282,1,0,3:2:0:0:
130,378,173458,1,0,0:2:0:0:
210,290,173635,2,0,B|234:267|274:267|274:267|288:301,1,94.2,0|0,3:2|0:2,0:0:0:0:
420,361,173987,2,0,B|391:302|430:294|401:206,1,141.3,0|0,3:2|0:0,0:0:0:0:
450,158,174340,1,2,3:2:0:0:
452,152,174429,1,0,0:0:0:0:
454,146,174517,1,2,0:2:0:0:
328,200,174693,1,2,3:2:0:0:
407,61,174870,1,2,0:2:0:0:
456,250,175046,69,2,3:2:0:0:
360,85,175223,1,2,0:2:0:0:
240,189,175399,2,0,B|111:211|111:211|146:145,1,188.4,2|0,3:2|3:2,0:0:0:0:
60,135,175929,1,0,0:2:0:0:
201,22,176105,2,0,B|223:30|223:30|189:65|203:106,1,94.2,0|0,3:2|0:2,0:0:0:0:
366,165,176458,1,0,3:2:0:0:
293,92,176635,1,0,0:2:0:0:
396,143,176811,1,0,3:2:0:0:
277,115,176987,1,0,0:2:0:0:
389,72,177164,1,2,3:2:0:0:
291,187,177340,1,2,0:2:0:0:
318,49,177517,1,2,3:2:0:0:
364,214,177693,1,2,0:2:0:0:
174,129,177870,6,0,B|126:132|101:110|101:110|67:126,1,94.2,2|2,3:2|0:2,0:0:0:0:
308,267,178223,2,0,B|260:271|235:249|235:249|202:264,1,94.2,2|0,3:2|0:2,0:0:0:0:
185,155,178576,70,0,B|136:160|111:148|111:148|98:151|92:187,1,94.2,0|0,3:2|0:2,0:0:0:0:
319,292,178929,2,0,B|270:297|245:285|245:285|232:288|226:324,1,94.2,0|0,3:2|0:2,0:0:0:0:
194,175,179282,6,0,B|164:189|139:178|139:178|113:184|100:220,1,94.2,0|0,3:2|0:2,0:0:0:0:
329,312,179635,2,0,B|299:326|274:315|274:315|248:321|235:357,2,94.2,0|0|0,3:2|3:2|3:2,0:0:0:0:
444,260,180340,1,0,3:2:0:0:
393,248,180429,1,0,3:2:0:0:
364,290,180517,1,0,3:2:0:0:
395,332,180605,1,0,3:2:0:0:
451,313,180693,70,0,B|492:285|471:215|471:215|501:260|534:251,1,164.85,2|0,3:2|0:0,0:0:0:0:
371,211,181046,2,0,L|246:184,1,102.05,10|0,3:2|0:2,0:0:0:0:
451,0,181399,2,0,B|459:14|484:18|484:18|485:86|443:123,1,153.075,2|0,3:2|0:0,0:0:0:0:
367,133,181752,5,10,3:2:0:0:
367,133,181929,1,2,0:2:0:0:
306,35,182105,1,2,3:2:0:0:
267,117,182282,1,2,0:2:0:0:
117,10,182458,1,10,3:2:0:0:
170,121,182635,1,2,0:2:0:0:
69,157,182811,1,2,3:2:0:0:
69,157,182899,1,0,0:0:0:0:
69,157,182987,1,2,0:2:0:0:
219,269,183164,70,0,P|220:328|190:372,1,94.2,10|2,3:2|0:2,0:0:0:0:
125,282,183517,1,2,3:2:0:0:
116,298,183870,6,0,B|110:316|98:332|98:332|193:287|322:300,1,219.8,10|0,3:2|3:2,0:0:0:0:
395,345,184399,1,0,0:2:0:0:
485,169,184576,2,0,P|501:209|472:273,1,94.2,8|0,3:2|0:2,0:0:0:0:
400,120,184929,1,0,3:2:0:0:
400,120,185282,69,8,3:2:0:0:
323,183,185458,1,0,0:2:0:0:
354,93,185635,5,2,3:2:0:0:
421,219,185811,1,2,0:2:0:0:
265,73,185987,69,10,3:2:0:0:
213,255,186164,1,2,0:2:0:0:
32,187,186340,5,2,3:2:0:0:
228,156,186517,1,2,0:2:0:0:
32,187,186693,2,0,B|8:211|1:238|1:238|63:257|124:213,1,188.4,10|0,3:2|3:2,0:0:0:0:
145,73,187223,1,0,0:2:0:0:
67,273,187399,70,0,P|88:334|117:346,1,94.2,8|0,3:2|0:2,0:0:0:0:
271,314,187752,1,0,3:2:0:0:
352,346,187929,1,0,0:2:0:0:
235,295,188105,1,8,3:2:0:0:
360,291,188282,1,0,0:2:0:0:
199,280,188458,1,2,3:2:0:0:
353,215,188635,1,2,0:2:0:0:
157,264,188811,1,10,3:2:0:0:
306,139,188987,1,2,0:2:0:0:
449,210,189164,2,0,B|485:230|485:230|517:187|477:112,1,141.3,2|0,3:2|0:0,0:0:0:0:
483,46,189517,6,0,B|451:46|422:74|422:74|390:27,1,94.2,10|0,3:2|0:2,0:0:0:0:
298,158,189870,1,0,3:2:0:0:
298,158,190046,1,0,0:2:0:0:
113,34,190223,2,0,B|145:34|174:62|174:62|206:15,1,94.2,8|0,3:2|0:2,0:0:0:0:
307,170,190576,53,0,0:2:0:0:
341,279,190752,70,0,B|322:274|266:315|293:370|332:342|310:310,1,117.75,0|0,0:2|0:2,0:0:0:0:
241,214,191105,2,0,B|216:177|282:187|280:249,1,94.2,0|0,0:2|0:2,0:0:0:0:
206,287,191458,2,0,B|194:293|146:299|146:253,1,70.6499999999999,0|0,0:2|0:2,0:0:0:0:
172,271,191811,6,0,P|217:307|231:295,1,70.6499999999999,0|0,0:2|0:2,0:0:0:0:
358,202,191987,6,0,B|374:145|374:145|362:83|293:93|306:139,1,164.85,2|0,3:2|0:2,0:0:0:0:
136,50,192340,2,0,P|168:91|241:85,1,109.9,10|0,3:2|0:2,0:0:0:0:
222,95,192605,1,0,0:2:0:0:
171,119,192693,2,0,B|129:142|112:188|151:232,1,102.05,2|0,3:2|0:2,0:0:0:0:
163,282,192958,1,0,0:2:0:0:
189,273,193046,1,10,3:2:0:0:
131,374,193223,1,2,0:2:0:0:
259,214,193399,6,0,L|215:197,1,47.1,2|0,3:2|0:2,0:0:0:0:
78,300,193576,1,2,0:2:0:0:
9,242,193752,70,0,L|62:221,1,47.1,10|0,3:2|0:2,0:0:0:0:
250,342,193929,1,2,0:2:0:0:
250,342,194017,1,0,0:2:0:0:
250,342,194105,2,0,B|280:326|304:336|304:336|338:365|385:348,1,141.3,2|0,3:2|0:2,0:0:0:0:
358,273,194458,2,0,L|373:205,1,47.1,10|0,3:2|0:2,0:0:0:0:
381,180,194635,2,0,L|398:109,1,47.1,2|0,0:2|0:2,0:0:0:0:
446,73,194811,2,0,B|412:41|358:59|358:59|353:26|323:18,1,141.3,2|0,3:2|0:2,0:0:0:0:
269,84,195164,6,0,B|242:116|242:116|261:201,1,94.2,10|0,3:2|0:2,0:0:0:0:
273,245,195429,1,0,0:2:0:0:
277,261,195517,1,0,3:2:0:0:
355,154,195693,1,0,0:2:0:0:
157,184,195870,2,0,L|62:208,1,94.2,8|0,3:2|0:2,0:0:0:0:
135,232,196135,1,0,0:2:0:0:
168,237,196223,1,0,3:2:0:0:
56,117,196399,1,0,0:2:0:0:
0,270,196576,2,0,P|-13:313|15:361,1,94.2,8|0,3:2|0:2,0:0:0:0:
88,367,196840,69,0,0:2:0:0:
115,367,196929,1,2,3:2:0:0:
146,363,197017,1,0,0:2:0:0:
171,356,197105,1,2,0:2:0:0:
289,242,197282,2,0,L|282:180,1,47.1,10|0,3:2|0:2,0:0:0:0:
381,303,197458,2,0,L|361:370,1,47.1,2|0,0:2|0:2,0:0:0:0:
255,146,197635,5,2,3:2:0:0:
425,221,197811,1,2,0:2:0:0:
295,281,197987,2,0,B|242:268|242:268|208:277|208:277|138:258,1,141.3,10|0,3:2|0:2,0:0:0:0:
77,289,198340,2,0,P|61:243|77:200,1,94.2,0|0,3:2|0:2,0:0:0:0:
54,36,198693,2,0,P|35:76|63:130,1,94.2,8|0,3:2|0:2,0:0:0:0:
51,120,198958,1,0,0:2:0:0:
51,120,199046,2,0,B|94:112|140:139|140:139|138:116|118:78,1,141.3,0|0,3:2|0:2,0:0:0:0:
196,29,199399,69,8,3:2:0:0:
314,174,199576,1,0,0:2:0:0:
313,173,199664,1,0,0:2:0:0:
313,173,199752,1,2,3:2:0:0:
290,68,199929,1,2,0:2:0:0:
219,252,200105,1,10,3:2:0:0:
395,190,200282,1,2,0:2:0:0:
261,147,200458,5,2,3:2:0:0:
302,342,200635,1,2,0:2:0:0:
480,296,200811,2,0,B|452:290|452:290|422:312|384:313|384:313|377:291|356:276,1,141.3,10|0,3:2|0:2,0:0:0:0:
307,352,201164,2,0,L|202:337,1,94.2,0|0,3:2|0:2,0:0:0:0:
152,287,201429,1,0,0:2:0:0:
145,275,201517,2,0,B|136:304|117:317|117:317|133:361,1,94.2,8|0,3:2|0:2,0:0:0:0:
34,311,201870,2,0,L|55:250,1,47.1,0|0,3:2|0:2,0:0:0:0:
119,112,202046,69,0,0:2:0:0:
124,104,202135,1,0,0:2:0:0:
129,95,202223,2,0,B|67:79|67:79|103:199,1,188.4,8|0,3:2|3:2,0:0:0:0:
148,184,202664,1,0,0:2:0:0:
199,195,202752,1,0,0:2:0:0:
227,235,202840,1,0,0:2:0:0:
211,289,202929,2,0,P|241:303|270:301,1,47.1,8|0,3:2|0:2,0:0:0:0:
451,289,203105,2,0,P|428:304|396:309,1,47.1,0|0,0:2|0:2,0:0:0:0:
325,347,203282,6,0,B|361:300|290:268|332:156,1,164.85,2|0,3:2|0:2,0:0:0:0:
406,160,203635,2,0,P|381:123|412:68,1,109.9,10|0,3:2|0:2,0:0:0:0:
408,69,203899,1,0,0:2:0:0:
369,99,203987,2,0,P|316:107|279:60,1,102.05,2|0,3:2|0:2,0:0:0:0:
312,0,204252,1,0,0:2:0:0:
335,13,204340,1,10,3:2:0:0:
222,145,204517,1,2,0:2:0:0:
147,41,204693,70,0,P|171:60|205:67,1,47.1,2|0,3:2|0:2,0:0:0:0:
324,184,204870,1,2,0:2:0:0:
410,86,205046,6,0,P|385:105|352:112,1,47.1,10|0,3:2|0:2,0:0:0:0:
173,221,205223,1,2,0:2:0:0:
170,216,205311,1,0,0:2:0:0:
167,211,205399,2,0,B|123:203|123:203|74:229|78:280|105:301,1,141.3,2|0,3:2|0:2,0:0:0:0:
158,324,205752,2,0,L|221:336,1,47.1,10|0,3:2|0:2,0:0:0:0:
250,341,205929,2,0,L|311:351,1,47.1,2|0,0:2|0:2,0:0:0:0:
373,320,206105,2,0,B|380:353|380:353|422:343|438:303|418:257,1,141.3,2|0,3:2|0:2,0:0:0:0:
458,182,206458,70,0,B|424:167|424:167|364:195,1,94.2,10|0,3:2|0:2,0:0:0:0:
301,227,206723,1,0,0:2:0:0:
286,235,206811,1,0,3:2:0:0:
416,329,206987,1,0,0:2:0:0:
408,126,207164,2,0,B|400:56|400:56|369:86,1,94.2,8|0,3:2|0:2,0:0:0:0:
458,89,207429,1,0,0:2:0:0:
488,97,207517,1,0,3:2:0:0:
380,239,207693,1,0,0:2:0:0:
246,146,207870,2,0,P|202:148|128:132,1,94.2,8|0,3:2|0:2,0:0:0:0:
85,183,208135,5,0,0:2:0:0:
52,186,208223,1,2,3:2:0:0:
21,176,208311,1,0,0:2:0:0:
1,150,208399,1,2,0:2:0:0:
172,0,208576,2,0,L|188:66,1,47.1,10|0,3:2|0:2,0:0:0:0:
65,108,208752,2,0,L|82:48,1,47.1,2|0,0:2|0:2,0:0:0:0:
347,122,208929,69,2,3:2:0:0:
159,92,209105,1,2,0:2:0:0:
347,122,209282,2,0,B|387:137|431:117|431:117|403:74|371:78,1,141.3,10|0,3:2|0:2,0:0:0:0:
317,48,209635,2,0,P|285:67|269:137,1,94.2,0|0,3:2|0:2,0:0:0:0:
366,297,209987,2,0,P|397:250|386:205,1,94.2,8|0,3:2|0:2,0:0:0:0:
391,214,210252,1,0,0:2:0:0:
391,214,210340,2,0,B|335:195|293:238|293:238|272:233|265:210,1,141.3,0|0,3:2|0:2,0:0:0:0:
171,201,210693,5,8,3:2:0:0:
290,342,210870,1,0,0:2:0:0:
290,342,210958,1,0,0:2:0:0:
290,342,211046,1,2,3:2:0:0:
80,316,211223,1,2,0:2:0:0:
250,241,211399,1,10,3:2:0:0:
80,316,211576,1,2,0:2:0:0:
141,185,211752,69,2,3:2:0:0:
267,360,211929,1,2,0:2:0:0:
369,216,212105,2,0,B|386:267|371:318|371:318|359:290|342:280,1,141.3,10|0,3:2|0:2,0:0:0:0:
332,266,212458,1,0,3:2:0:0:
303,174,212635,1,0,0:2:0:0:
303,174,212723,1,0,0:2:0:0:
303,174,212811,2,0,P|338:167|371:158,1,47.1,8|0,3:2|0:2,0:0:0:0:
281,78,212987,1,0,0:2:0:0:
386,150,213164,69,0,0:0:0:0:
245,232,213340,70,0,P|201:235|181:188,1,78.5,0|8,0:2|0:2,0:0:0:0:
206,32,213693,6,0,P|237:78|198:130,1,129.525,0|0,0:2|0:2,0:0:0:0:
46,196,214046,70,0,P|66:153|121:160,1,102.05,0|8,0:2|0:2,0:0:0:0:
43,323,214399,1,0,0:2:0:0:
244,316,214576,54,0,B|269:307|307:331|307:331|296:363,1,94.2,0|0,3:2|0:2,0:0:0:0:
339,120,214929,2,0,B|364:129|402:105|402:105|391:73,1,94.2,8|0,3:2|0:2,0:0:0:0:
348,261,215282,2,0,B|383:282|389:313|389:313|413:298,1,94.2,0|0,3:2|0:2,0:0:0:0:
440,179,215635,2,0,B|475:158|481:127|481:127|505:142,1,94.2,8|0,3:2|0:2,0:0:0:0:
502,252,215987,1,0,3:2:0:0:
502,252,216076,1,0,0:2:0:0:
502,252,216164,1,0,0:2:0:0:
350,178,216340,1,8,3:2:0:0:
209,208,216517,2,0,L|192:145,1,47.1,0|0,0:2|0:2,0:0:0:0:
265,279,216693,2,0,B|263:321|240:341|240:341|283:362,1,94.2,0|0,3:2|0:2,0:0:0:0:
283,110,217046,2,0,B|281:68|258:48|258:48|301:27,1,94.2,8|0,3:2|0:2,0:0:0:0:
117,125,217399,54,0,B|139:125|156:144|156:144|211:110,1,94.2,0|0,3:2|0:2,0:0:0:0:
102,275,217752,2,0,B|124:275|141:256|141:256|196:290,1,94.2,8|0,3:2|0:2,0:0:0:0:
37,191,218105,1,0,3:2:0:0:
37,191,218193,1,0,0:2:0:0:
37,191,218282,1,0,0:2:0:0:
213,211,218458,1,8,3:2:0:0:
37,191,218635,2,0,P|84:201|105:191,1,47.1,0|0,0:2|0:2,0:0:0:0:
226,124,218811,2,0,B|257:100|253:63|253:63|233:68|223:81,1,94.2,0|0,3:2|0:2,0:0:0:0:
334,259,219164,2,0,B|365:282|361:319|361:319|341:314|331:301,1,94.2,8|0,3:2|0:2,0:0:0:0:
331,100,219517,2,0,P|368:66|425:83,1,94.2,0|0,3:2|0:2,0:0:0:0:
258,299,219870,2,0,P|221:333|164:316,1,94.2,8|0,3:2|0:2,0:0:0:0:
219,224,220223,21,0,3:2:0:0:
219,224,220311,1,0,0:2:0:0:
219,224,220399,1,0,0:2:0:0:
327,177,220576,1,8,3:2:0:0:
428,221,220752,2,0,P|420:254|396:274,1,47.1,0|0,0:2|0:2,0:0:0:0:
228,132,220929,2,0,B|207:98|163:92|163:92|143:140,1,94.2,0|0,3:2|0:2,0:0:0:0:
274,318,221282,2,0,B|295:352|339:358|339:358|359:310,1,94.2,8|0,3:2|0:2,0:0:0:0:
135,253,221635,2,0,B|103:260|84:295|84:295|94:316|117:325,1,94.2,0|0,3:2|0:2,0:0:0:0:
347,185,221987,2,0,B|378:177|398:143|398:143|388:122|365:113,1,94.2,8|0,3:2|0:2,0:0:0:0:
244,220,222340,1,0,3:2:0:0:
241,237,222429,1,0,0:2:0:0:
250,250,222517,1,0,0:2:0:0:
207,102,222693,1,8,3:2:0:0:
86,248,222870,2,0,P|101:215|97:190,1,47.1,0|0,0:2|0:2,0:0:0:0:
53,66,223046,54,0,B|27:146|98:193|98:193|125:146|93:109,1,219.8,0|8,3:2|3:2,0:0:0:0:
144,54,223576,1,0,0:2:0:0:
242,143,223752,2,0,P|267:169|341:164,1,94.2,0|0,3:2|0:2,0:0:0:0:
102,263,224105,2,0,P|84:325|47:345,1,94.2,8|0,3:2|0:2,0:0:0:0:
9,259,224458,1,0,3:2:0:0:
9,259,224546,1,0,0:2:0:0:
9,259,224635,1,0,0:2:0:0:
188,302,224811,1,8,3:2:0:0:
9,259,224987,2,0,L|76:277,1,47.1,0|0,0:2|0:2,0:0:0:0:
242,192,225164,1,0,3:2:0:0:
259,157,225252,1,0,0:2:0:0:
244,117,225340,1,0,0:2:0:0:
98,294,225517,2,0,B|107:326|96:362|96:362|124:354,1,94.2,8|0,3:2|0:2,0:0:0:0:
24,103,225870,22,0,B|33:71|22:35|22:35|50:43,1,94.2,0|0,3:2|0:2,0:0:0:0:
70,184,226223,2,0,L|167:167,1,94.2,8|0,3:2|0:2,0:0:0:0:
342,141,226576,1,0,3:2:0:0:
342,141,226664,1,0,0:2:0:0:
342,141,226752,1,0,0:2:0:0:
450,179,226929,1,8,3:2:0:0:
461,287,227105,2,0,P|456:327|441:341,1,47.1,0|0,0:2|0:2,0:0:0:0:
340,323,227282,2,0,B|306:328|278:296|278:296|291:279|287:249,1,94.2,0|0,3:2|0:2,0:0:0:0:
284,65,227635,2,0,B|250:60|222:91|222:91|235:109|231:139,1,94.2,8|0,3:2|0:2,0:0:0:0:
151,184,227987,2,0,P|115:190|66:138,1,94.2,0|0,3:2|0:2,0:0:0:0:
331,185,228340,2,0,P|380:215|436:179,1,94.2,8|0,3:2|0:2,0:0:0:0:
482,146,228693,53,0,3:2:0:0:
482,146,228782,1,0,0:2:0:0:
482,146,228870,1,0,0:2:0:0:
416,296,229046,1,8,3:2:0:0:
482,146,229223,2,0,P|496:189|481:221,1,47.1,0|0,0:2|0:2,0:0:0:0:
365,206,229399,2,0,B|328:227|292:215|292:215|306:265,1,94.2,0|0,3:2|0:2,0:0:0:0:
174,75,229752,2,0,B|137:54|101:66|101:66|115:16,1,94.2,8|0,3:2|0:2,0:0:0:0:
375,221,230105,2,0,B|335:246|321:251|321:251|326:272|353:276,1,94.2,0|0,3:2|0:2,0:0:0:0:
190,64,230458,2,0,B|150:39|136:34|136:34|141:12|168:9,1,94.2,8|0,3:2|0:2,0:0:0:0:
213,179,230811,1,0,3:2:0:0:
218,195,230899,1,0,0:2:0:0:
228,204,230987,1,0,0:2:0:0:
293,117,231164,1,8,3:2:0:0:
116,169,231340,2,0,P|120:215|140:233,1,47.1,0|0,0:2|0:2,0:0:0:0:
197,296,231517,22,0,L|98:327,1,94.2,0|0,3:2|0:2,0:0:0:0:
417,314,231870,2,0,L|318:345,1,94.2,8|0,3:2|0:2,0:0:0:0:
206,302,232223,2,0,L|100:319,1,94.2,0|0,3:2|0:2,0:0:0:0:
426,320,232576,2,0,L|320:337,1,94.2,8|0,3:2|0:2,0:0:0:0:
271,243,232929,1,0,3:2:0:0:
271,243,233017,1,0,0:2:0:0:
271,243,233105,1,0,0:2:0:0:
438,215,233282,1,8,3:2:0:0:
271,243,233458,2,0,L|345:225,1,47.1,0|0,0:2|0:2,0:0:0:0:
387,118,233635,1,0,3:2:0:0:
390,89,233723,1,0,0:2:0:0:
392,59,233811,1,0,0:2:0:0:
274,133,233987,1,8,3:2:0:0:
165,48,234164,1,0,0:2:0:0:
24,203,234340,54,0,B|47:268|47:268|67:109,1,219.8,0|8,3:2|3:2,0:0:0:0:
155,165,234870,1,0,0:2:0:0:
76,37,235046,2,0,P|20:44|-4:77,1,94.2,0|0,3:2|0:2,0:0:0:0:
233,113,235399,2,0,P|269:151|260:223,1,94.2,8|0,3:2|0:2,0:0:0:0:
249,350,235752,69,0,0:0:0:0:
208,322,235929,70,0,L|229:246,1,54.9499999999999,0|8,0:2|0:2,0:0:0:0:
131,298,236282,6,0,L|134:204,1,78.5,0|0,0:2|0:0,0:0:0:0:
42,308,236635,70,0,L|12:192,1,102.05,0|8,0:2|0:2,0:0:0:0:
15,344,236987,6,0,P|38:367|72:378,1,66.725,0|0,0:2|0:2,0:0:0:0:
195,353,237164,1,4,0:2:0:0:
