osu file format v14

[General]
AudioFilename: audio.mp3
AudioLeadIn: 0
PreviewTime: 49185
Countdown: 0
SampleSet: Soft
StackLeniency: 0.4
Mode: 2
LetterboxInBreaks: 0
WidescreenStoryboard: 1

[Editor]
Bookmarks: 10960
DistanceSpacing: 0.9
BeatDivisor: 4
GridSize: 16
TimelineZoom: 2.2

[Metadata]
Title:mononoke in the fiction (TV Size)
TitleUnicode:モノノケ・イン・ザ・フィクション (TV Size)
Artist:Lie and a Chameleon
ArtistUnicode:嘘とカメレオン
Creator:Juansy-
Version:Sa/lad
Source:虚構推理
Tags:[ Azu- ] rew0825 female vocals vocalist Brain's Base 桜川 九郎 Kurou Sakuragawa 岩永 琴子 Kotoko Iwanaga In/Spectre Invented Inference Kyokou Suiri anime opening op japanese jpop j-pop pop JUGEM rock jrock j-rock Aoyama Takumi 青山拓心 Shibue Asahi 渋江アサヒ Watanabe Sosuke 渡辺壮亮 Sugeno Yuta 菅野悠太 Cham(.△) cham チャム チャム(.△) Uso to
BeatmapID:3886992
BeatmapSetID:1887547

[Difficulty]
HPDrainRate:3
CircleSize:3
OverallDifficulty:7
ApproachRate:7
SliderMultiplier:1.4
SliderTickRate:1

[Events]
//Background and Video events
0,0,"BG.jpg",0,0
//Break Periods
//Storyboard Layer 0 (Background)
//Storyboard Layer 1 (Fail)
//Storyboard Layer 2 (Pass)
//Storyboard Layer 3 (Foreground)
//Storyboard Layer 4 (Overlay)
//Storyboard Sound Samples

[TimingPoints]
7927,307.692307692308,4,2,1,70,1,0
8089,400,4,2,1,60,1,0
8189,-100,4,2,1,70,0,0
8282,-100,4,2,1,60,0,0
8388,-100,4,2,1,70,0,0
8469,400,4,2,1,60,1,0
8589,-100,4,2,1,70,0,0
8680,400,4,2,1,60,1,0
8788,-100,4,2,1,70,0,0
8880,-100,4,2,1,60,0,0
8988,-100,4,2,1,70,0,0
9089,480,4,2,1,60,1,0
9189,-100,4,2,1,70,0,0
9321,400,4,2,1,70,1,0
9955,300,4,2,1,60,1,0
10030,-100,4,2,1,50,0,0
10105,-100,4,2,1,60,0,0
10180,-100,4,2,1,70,0,0
10255,292.682926829268,4,2,1,60,1,0
10550,307.692307692308,4,2,1,75,1,0
14998,272.727272727273,4,2,1,75,1,0
15161,300,4,2,1,75,1,0
16520,312.093628088427,4,2,1,75,1,0
17313,300,4,2,1,75,1,0
17925,307.692307692308,4,2,1,75,1,0
19920,272.727272727273,4,2,1,75,1,0
20073,300,4,2,1,75,1,0
20388,312.5,4,2,1,60,1,0
22569,307.692307692308,4,2,1,60,1,0
22870,308.08729139923,4,2,1,60,1,0
29629,308.08729139923,4,2,1,70,1,0
29956,-100,4,2,1,60,0,0
30250,308.166409861325,4,2,1,70,1,0
38712,-100,4,2,1,45,0,0
38789,-100,4,2,1,50,0,0
38878,-100,4,2,1,55,0,0
38943,-100,4,2,1,60,0,0
39020,-100,4,2,1,65,0,0
39097,-100,4,2,1,70,0,0
39186,-100,4,2,1,75,0,0
39494,-100,4,2,1,70,0,0
40097,308.166409861325,4,2,1,70,1,0
44567,-100,4,2,1,50,0,0
44644,-100,4,2,1,55,0,0
44721,-100,4,2,1,60,0,0
44798,-100,4,2,1,65,0,0
44875,-100,4,2,1,70,0,0
45027,308.245568969946,4,2,1,70,1,1
45104,-100,4,2,1,70,0,0
46259,-100,4,2,1,70,0,1
46337,-100,4,2,1,70,0,0
47492,-100,4,2,1,70,0,1
47570,-100,4,2,1,70,0,0
48428,303.030303030303,4,2,1,70,1,0
49941,307.345558856675,4,2,1,80,1,1
50248,-100,4,2,1,80,0,1
50555,-100,4,2,1,80,0,1
51477,-100,4,2,1,80,0,1
51785,-100,4,2,1,80,0,1
53629,-100,4,2,1,80,0,1
53936,-100,4,2,1,80,0,1
54858,-100,4,2,1,80,0,1
55165,-100,4,2,1,80,0,1
56530,307.345558856675,4,2,1,85,1,1
56702,307.345558856675,4,2,1,85,1,1
57009,-100,4,2,1,85,0,1
57316,307.345558856675,4,2,1,85,1,1
57931,-100,4,2,1,85,0,1
58238,-100,4,2,1,85,0,1
58546,-100,4,2,1,85,0,1
59621,-100,4,2,1,85,0,0
59780,307.676529408748,4,2,1,75,1,1
59933,-100,4,2,1,70,0,0
62714,307.676529408748,4,2,1,75,1,0
62850,307.676529408748,4,2,1,75,1,0
63157,333.333333333333,4,2,1,75,1,0
63490,307.676529408748,4,2,1,75,1,0
64097,304.568527918782,4,2,1,75,1,0
64391,304.568527918782,4,2,1,75,1,0
64695,311.364815775817,4,2,1,85,1,1
66874,-100,4,2,1,85,0,0
67026,306.122448979592,4,2,1,85,1,1
67179,-100,4,2,1,85,0,1
67628,315.789473684211,4,2,1,85,1,1
68259,311.364815775817,4,2,1,75,1,0
69330,311.364815775817,4,2,1,75,1,0
69632,304.568527918782,4,2,1,80,1,0
70253,304.568527918782,4,2,1,80,1,0
73613,315.789473684211,4,2,1,80,1,0
73929,309.278350515464,4,2,1,70,1,0
74083,285.714285714286,4,2,1,70,1,0
74382,322.58064516129,4,2,1,70,1,0
74557,306.122448979592,4,2,1,70,1,0
75477,307.692307692308,4,2,1,70,1,0
76700,310.880829015544,4,2,1,70,1,0
77005,307.692307692308,4,2,1,70,1,0
78080,307.692307692308,4,2,1,70,1,0
79000,285.714285714286,4,2,1,70,1,0
79166,307.692307692308,4,2,1,70,1,0
79464,312.5,4,2,1,70,1,0
80232,285.714285714286,4,2,1,70,1,0
80395,312.5,4,2,1,70,1,0
80688,400,4,2,1,70,1,0
81120,458.015267175573,4,2,1,70,1,0
81549,394.736842105263,4,2,1,70,1,0
81958,304.568527918782,4,2,1,70,1,0
83152,300,4,2,1,70,1,0
84068,307.692307692308,4,2,1,70,1,0
84529,-100,4,2,1,65,0,0
85298,-100,4,2,1,60,0,0
85914,-100,4,2,1,55,0,0
86529,-100,4,2,1,50,0,0
87144,-100,4,2,1,45,0,0
87760,-100,4,2,1,40,0,0
88068,-100,4,2,1,50,0,0

[Colours]
Combo1 : 145,177,204
Combo2 : 207,190,156
Combo3 : 145,147,146
Combo4 : 201,206,200

[HitObjects]
256,192,850,12,0,7619,0:0:0:0:
254,310,7927,5,2,1:2:0:0:
333,297,8089,1,12,0:0:0:0:
335,227,8289,1,0,1:0:0:0:
234,224,8469,2,0,L|233:131,1,70,8|0,0:0|0:0,0:0:0:0:
350,136,8880,1,8,0:0:0:0:
422,70,9089,1,8,0:0:0:0:
222,85,9321,6,0,P|155:107|221:200,1,221.666666666667,2|8,1:2|0:2,0:0:0:0:
267,254,10105,1,8,0:2:0:0:
224,200,10255,1,8,0:2:0:0:
154,191,10401,1,8,0:2:0:0:
315,168,10550,6,0,L|463:166,1,140,6|10,1:2|0:0,0:0:0:0:
392,162,11011,1,10,0:0:0:0:
328,160,11165,1,2,1:2:0:0:
202,152,11473,1,8,0:0:0:0:
271,157,11626,6,0,L|282:301,1,140,6|0,1:2|1:2,0:0:0:0:
221,315,12088,1,10,0:0:0:0:
134,289,12396,2,0,L|300:280,1,140,2|12,1:2|0:0,0:0:0:0:
42,144,13011,6,0,P|36:195|99:259,1,140,6|10,1:2|0:0,0:0:0:0:
162,260,13473,1,10,0:0:0:0:
226,251,13626,1,2,1:2:0:0:
351,239,13934,1,8,0:0:0:0:
289,224,14088,6,0,L|136:206,1,140,6|2,1:2|1:2,0:0:0:0:
87,198,14550,1,10,0:0:0:0:
225,182,14857,1,0,1:2:0:0:
357,155,15161,1,0,1:2:0:0:
116,147,15461,6,0,P|71:154|48:235,1,140,6|10,1:2|0:0,0:0:0:0:
115,256,15911,1,10,0:0:0:0:
183,264,16061,1,2,1:2:0:0:
308,271,16361,1,8,0:0:0:0:
241,260,16520,6,0,L|242:109,1,140,6|2,1:2|1:2,0:0:0:0:
311,110,16988,1,8,0:0:0:0:
248,110,17144,1,10,0:0:0:0:
185,99,17313,2,0,L|37:81,1,140,2|12,1:2|0:0,0:0:0:0:
271,108,17925,6,0,L|413:120,1,140,6|10,1:2|0:0,0:0:0:0:
347,119,18386,1,10,0:0:0:0:
283,144,18540,1,2,1:2:0:0:
157,157,18848,1,8,0:0:0:0:
218,166,19001,6,0,L|359:176,1,140,6|2,1:2|1:2,0:0:0:0:
421,178,19463,1,10,0:0:0:0:
282,156,19771,1,0,1:2:0:0:
149,184,20073,1,2,1:2:0:0:
373,308,20388,5,6,1:2:0:0:
256,192,20700,12,8,22569,0:1:0:0:
124,104,22870,6,0,P|85:137|138:203,1,140,6|0,1:2|1:2,0:0:0:0:
200,210,23332,1,8,0:3:0:0:
276,219,23486,2,0,L|120:217,1,140,2|0,1:2|1:0,0:0:0:0:
271,183,24102,6,0,L|427:160,1,140,2|2,1:2|1:2,0:0:0:0:
270,144,24718,2,0,L|119:129,1,140,2|0,1:2|1:2,0:0:0:0:
368,139,25334,6,0,P|413:162|331:246,1,210,2|8,1:2|0:3,0:0:0:0:
264,248,25950,2,0,L|429:255,1,140,2|0,1:2|1:2,0:0:0:0:
326,249,26413,1,8,0:1:0:0:
249,243,26567,6,0,P|220:206|326:138,1,210,2|8,1:2|0:3,0:0:0:0:
397,137,27183,2,0,P|432:104|372:48,1,140,2|0,1:2|1:2,0:0:0:0:
143,58,27799,6,0,P|146:114|235:159,1,140,2|0,1:2|1:2,0:0:0:0:
272,165,28261,1,8,0:3:0:0:
209,167,28415,2,0,P|163:157|155:57,1,140,2|2,1:2|1:2,0:0:0:0:
377,75,29031,5,6,1:2:0:0:
377,75,29339,1,2,1:2:0:0:
232,78,29629,2,0,L|386:80,1,140,2|8,1:2|0:0,0:0:0:0:
128,294,30250,5,6,1:2:0:0:
95,232,30404,1,2,0:0:0:0:
124,297,30558,1,10,0:0:0:0:
188,324,30712,1,2,0:0:0:0:
256,339,30866,2,0,L|414:311,1,140,2|8,1:2|0:0,0:0:0:0:
241,336,31482,6,0,L|85:326,1,140,2|10,1:2|0:0,0:0:0:0:
176,312,31944,1,2,0:0:0:0:
252,304,32098,2,0,L|108:293,1,140,2|10,1:2|0:0,0:0:0:0:
354,291,32715,6,0,P|401:267|308:192,1,210,2|2,1:2|0:0,0:0:0:0:
254,167,33331,2,0,L|252:308,1,140,2|8,1:2|0:0,0:0:0:0:
405,308,33947,6,0,L|255:301,1,140,2|10,1:2|0:0,0:0:0:0:
418,280,34564,2,0,L|410:129,1,140,2|8,1:2|0:0,0:0:0:0:
175,122,35180,6,0,L|329:105,1,140,6|8,1:2|0:0,0:0:0:0:
359,168,35642,1,2,0:0:0:0:
325,237,35796,2,0,L|160:251,1,140,2|8,1:2|0:0,0:0:0:0:
337,223,36413,6,0,P|375:188|315:129,1,140,2|8,1:2|0:0,0:0:0:0:
254,119,36875,1,2,0:0:0:0:
177,123,37029,2,0,P|131:82|190:26,1,140,2|8,1:2|0:0,0:0:0:0:
408,248,37645,6,0,P|387:203|284:189,1,140,2|8,1:2|0:0,0:0:0:0:
241,181,38108,1,2,0:0:0:0:
303,182,38262,2,0,P|378:193|406:263,1,140,2|8,1:2|0:0,0:0:0:0:
259,122,38878,6,0,L|106:112,2,140,2|2|2,1:2|0:0|0:0,0:0:0:0:
412,133,39803,1,8,0:0:0:0:
192,95,40097,5,6,1:2:0:0:
261,89,40251,2,0,P|290:108|253:193,1,140,8|8,0:3|0:3,0:0:0:0:
194,240,40713,1,2,1:2:0:0:
263,241,40867,1,8,0:3:0:0:
394,272,41175,1,8,0:3:0:0:
330,242,41329,5,2,1:2:0:0:
262,221,41483,2,0,L|412:214,1,140,8|8,0:3|0:3,0:0:0:0:
332,202,41945,2,0,L|163:200,1,140,2|2,1:2|1:2,0:0:0:0:
424,94,42562,5,6,1:2:0:0:
424,94,42716,2,0,L|267:100,1,140,8|8,0:3|0:3,0:0:0:0:
224,135,43178,1,2,1:2:0:0:
292,121,43332,1,8,0:3:0:0:
152,124,43640,1,8,0:3:0:0:
82,122,43794,6,0,L|80:267,1,140,2|2,1:2|1:2,0:0:0:0:
149,253,44257,1,8,0:3:0:0:
193,307,44411,1,2,1:2:0:0:
149,253,44565,1,8,0:0:0:0:
81,235,44719,1,8,0:0:0:0:
319,147,45027,6,0,L|480:137,2,140,6|8|10,1:2|0:0|0:0,0:0:0:0:
167,160,45951,6,0,L|324:164,2,140,10|14|8,0:0|0:0|0:0,0:0:0:0:
320,141,46876,2,0,L|377:69,2,70,0|8|8,1:0|0:1|0:0,0:0:0:0:
88,231,47492,6,0,P|128:221|321:231,1,210,12|0,0:0|1:0,0:0:0:0:
365,230,48109,1,12,0:0:0:0:
217,234,48428,5,0,0:0:0:0:
281,206,48579,1,8,0:1:0:0:
312,143,48731,1,8,0:1:0:0:
281,206,48882,1,8,0:0:0:0:
217,234,49034,1,8,0:1:0:0:
78,255,49337,2,0,L|79:115,1,140,14|0,0:0|0:0,0:0:0:0:
310,248,49941,6,0,L|468:248,1,140,6|8,1:2|0:0,0:0:0:0:
297,229,50555,2,0,L|286:158,1,70,2|0,1:2|1:2,0:0:0:0:
362,145,50863,2,0,L|375:52,1,70,10|0,0:0|0:0,0:0:0:0:
210,74,51170,6,0,L|46:74,1,140,2|8,1:2|0:0,0:0:0:0:
224,78,51785,1,2,1:2:0:0:
70,68,52092,1,10,0:0:0:0:
308,268,52399,6,0,L|454:268,1,140,6|8,1:2|0:0,0:0:0:0:
296,240,53014,2,0,L|294:162,1,70,2|0,1:2|1:2,0:0:0:0:
300,246,53321,1,10,0:0:0:0:
67,159,53629,6,0,L|215:151,1,140,2|8,1:2|0:0,0:0:0:0:
347,91,54243,1,2,1:2:0:0:
192,89,54551,1,8,0:0:0:0:
434,156,54858,6,0,P|466:202|408:253,1,140,6|10,1:2|0:0,0:0:0:0:
260,247,55473,2,0,L|358:241,1,70,2|0,1:2|1:2,0:0:0:0:
406,230,55780,1,10,0:0:0:0:
168,132,56087,6,0,P|129:145|174:208,1,140,2|8,1:2|0:0,0:0:0:0:
318,269,56702,1,2,1:2:0:0:
164,260,57009,1,10,0:0:0:0:
400,184,57316,6,0,P|407:140|274:84,1,210,6|2,1:2|0:0,0:0:0:0:
207,95,57930,2,0,L|362:87,1,140,2|8,1:2|0:0,0:0:0:0:
358,164,58391,1,2,0:0:0:0:
197,257,58545,6,0,L|175:187,1,70,2|8,1:2|0:1,0:0:0:0:
249,166,58852,2,0,L|327:130,1,70,8|8,0:0|0:1,0:0:0:0:
235,125,59160,2,0,L|72:120,1,140,0|8,1:0|0:0,0:0:0:0:
336,109,59780,6,0,P|378:135|332:204,1,140,6|2,1:2|1:2,0:0:0:0:
270,225,60241,1,10,0:3:0:0:
193,236,60395,2,0,L|341:222,1,140,2|2,1:2|1:2,0:0:0:0:
181,190,61010,6,0,L|35:184,1,140,2|0,1:2|1:2,0:0:0:0:
117,171,61472,1,10,0:3:0:0:
192,154,61626,2,0,L|45:139,1,140,2|2,1:2|1:2,0:0:0:0:
292,237,62241,6,0,L|434:227,1,140,6|0,1:2|1:2,0:0:0:0:
280,222,62850,1,2,1:2:0:0:
138,222,63157,1,2,1:2:0:0:
303,204,63490,6,0,L|139:194,1,140,2|0,1:2|3:0,0:0:0:0:
227,167,63951,1,8,0:0:0:0:
249,103,64097,1,8,0:1:0:0:
227,36,64249,1,8,0:0:0:0:
164,17,64391,1,0,1:2:0:0:
409,276,64695,6,0,L|412:137,1,140,6|8,1:2|0:0,0:0:0:0:
258,126,65317,1,10,0:0:0:0:
412,121,65629,1,8,0:0:0:0:
172,298,65940,6,0,L|21:293,1,140,10|8,0:0|0:0,0:0:0:0:
186,288,66563,1,10,0:0:0:0:
32,274,66874,1,10,0:0:0:0:
264,227,67179,6,0,P|312:208|268:150,1,140,14|0,0:0|1:0,0:0:0:0:
205,151,67628,1,14,0:0:0:0:
281,151,67785,2,0,L|423:136,1,140,0|8,1:0|0:0,0:0:0:0:
253,94,68259,6,0,P|212:156|268:202,1,140,6|0,1:2|0:0,0:0:0:0:
319,227,68726,1,0,0:0:0:0:
387,261,68881,1,0,0:0:0:0:
309,265,69037,1,0,0:0:0:0:
253,210,69193,1,0,0:0:0:0:
286,151,69330,1,8,0:0:0:0:
360,133,69485,1,0,0:0:0:0:
212,111,69632,6,0,L|70:123,1,140,6|10,1:2|0:0,0:0:0:0:
134,133,70088,1,10,0:0:0:0:
194,122,70253,1,2,1:2:0:0:
319,117,70557,1,8,0:0:0:0:
262,143,70709,6,0,L|108:166,1,140,6|2,1:2|1:2,0:0:0:0:
185,150,71166,1,10,0:0:0:0:
324,158,71471,2,0,L|182:175,1,140,2|14,1:2|0:2,0:0:0:0:
319,135,72080,5,6,1:2:0:0:
365,83,72232,1,2,0:0:0:0:
319,135,72384,1,10,0:0:0:0:
82,279,72689,2,0,L|250:273,1,140,2|8,1:2|0:0,0:0:0:0:
161,254,73146,6,0,L|13:248,1,140,6|0,1:2|1:2,0:0:0:0:
80,222,73613,1,10,0:0:0:0:
208,209,73929,1,2,1:2:0:0:
224,143,74083,1,8,0:0:0:0:
161,141,74225,1,2,1:2:0:0:
151,80,74382,1,8,0:0:0:0:
327,77,74557,6,0,P|368:70|385:148,1,140,6|10,1:2|0:0,0:0:0:0:
324,164,75016,1,10,0:0:0:0:
263,168,75169,1,2,1:2:0:0:
138,176,75477,1,8,0:0:0:0:
200,176,75630,6,0,L|206:33,1,140,6|0,1:2|1:2,0:0:0:0:
142,36,76092,1,10,0:0:0:0:
282,37,76400,1,2,1:2:0:0:
411,54,76700,1,14,0:2:0:0:
180,285,77005,6,0,P|162:248|215:171,1,140,6|10,1:2|0:0,0:0:0:0:
273,167,77466,1,10,0:0:0:0:
335,162,77620,1,2,1:2:0:0:
218,154,77928,1,8,0:0:0:0:
148,176,78081,6,0,L|144:324,1,140,6|2,1:2|1:2,0:0:0:0:
213,326,78541,1,10,0:0:0:0:
351,308,78849,1,2,1:2:0:0:
128,208,79166,2,0,L|188:134,1,70,8|8,0:1|0:0,0:0:0:0:
314,291,79620,6,0,L|168:274,1,140,14|8,0:0|0:0,0:0:0:0:
249,252,80089,1,8,0:1:0:0:
397,227,80395,1,0,0:0:0:0:
150,220,80688,6,0,L|99:274,1,70,4|8,1:2|0:1,0:0:0:0:
170,214,81120,1,8,0:0:0:0:
287,205,81349,1,8,0:1:0:0:
287,205,81549,1,8,0:1:0:0:
178,178,81746,1,8,0:0:0:0:
372,176,81958,6,0,P|383:242|117:257,1,420,6|2,0:0|0:0,0:0:0:0:
240,282,83152,6,0,L|384:273,2,140,8|8|8,0:0|0:0|0:0,0:0:0:0:
240,282,84068,1,12,0:0:0:0:
90,193,84221,1,14,0:0:0:0:
256,192,84529,12,14,88068,0:0:0:0:
