osu file format v14

[General]
AudioFilename: audio.mp3
AudioLeadIn: 0
PreviewTime: 49337
Countdown: 0
SampleSet: Soft
StackLeniency: 0.4
Mode: 0
LetterboxInBreaks: 0
WidescreenStoryboard: 0

[Editor]
DistanceSpacing: 0.1
BeatDivisor: 4
GridSize: 16
TimelineZoom: 2.599999

[Metadata]
Title:mononoke in the fiction (TV Size)
TitleUnicode:モノノケ・イン・ザ・フィクション (TV Size)
Artist:Lie and a Chameleon
ArtistUnicode:嘘とカメレオン
Creator:Shiino
Version:Yokai!
Source:虚構推理
Tags:In/Spectre Invented Inference Kyokou Suiri tv size anime opening op japanese jpop j-pop pop
BeatmapID:2302956
BeatmapSetID:1102376

[Difficulty]
HPDrainRate:6
CircleSize:4
OverallDifficulty:8.6
ApproachRate:9.4
SliderMultiplier:1.82
SliderTickRate:1

[Events]
//Background and Video events
0,0,"bg.jpg",0,0
Video,160,"video.mp4"
//Break Periods
//Storyboard Layer 0 (Background)
//Storyboard Layer 1 (Fail)
//Storyboard Layer 2 (Pass)
//Storyboard Layer 3 (Foreground)
//Storyboard Layer 4 (Overlay)
//Storyboard Sound Samples

[TimingPoints]
7936,307.692307692308,4,2,1,70,1,0
7936,-100,4,2,1,70,0,0
8089,400,4,2,1,60,1,0
8089,-50,4,2,1,60,0,0
8189,-50,4,2,1,70,0,0
8289,-55.5555555555556,4,2,1,60,0,0
8388,-55.5555555555556,4,2,1,70,0,0
8489,-62.5,4,2,1,60,0,0
8589,-62.5,4,2,1,70,0,0
8689,-71.4285714285714,4,2,1,60,0,0
8788,-71.4285714285714,4,2,1,70,0,0
8889,-83.3333333333333,4,2,1,60,0,0
8988,-83.3333333333333,4,2,1,70,0,0
9089,480,4,2,1,60,1,0
9089,-100,4,2,1,60,0,0
9189,-100,4,2,1,70,0,0
9329,400,4,2,1,70,1,0
9329,-166.666666666667,4,2,1,70,0,0
9955,300,4,2,1,40,1,0
9955,-100,4,2,1,40,0,0
10030,-100,4,2,1,50,0,0
10105,-100,4,2,1,60,0,0
10180,-100,4,2,1,70,0,0
10255,292.682926829268,4,2,1,80,1,0
10255,-100,4,2,1,80,0,0
10564,307.692307692308,4,2,1,70,1,0
10564,-100,4,2,1,70,0,0
11179,-83.3333333333333,4,2,1,70,0,0
11487,-166.666666666667,4,2,1,70,0,0
11640,-100,4,2,1,70,0,0
12410,-83.3333333333333,4,2,1,70,0,0
12717,-71.4285714285714,4,2,1,70,0,0
13025,-100,4,2,1,70,0,0
13640,-83.3333333333333,4,2,1,70,0,0
13948,-166.666666666667,4,2,1,70,0,0
14102,-100,4,2,1,70,0,0
15025,272.727272727273,4,2,1,70,1,0
15025,-100,4,2,1,70,0,0
15161,300,4,2,1,70,1,0
15161,-100,4,2,1,70,0,0
15483,300,4,2,1,70,1,0
15483,-100,4,2,1,70,0,0
16083,-83.3333333333333,4,2,1,70,0,0
16383,-166.666666666667,4,2,1,70,0,0
16533,312.093628088427,4,2,1,70,1,0
16533,-100,4,2,1,70,0,0
17313,312.093628088427,4,2,1,70,1,0
17313,-83.3333333333333,4,2,1,70,0,0
17625,-71.4285714285714,4,2,1,70,0,0
17937,307.692307692308,4,2,1,70,1,0
17937,-100,4,2,1,70,0,0
18552,-83.3333333333333,4,2,1,70,0,0
18860,-166.666666666667,4,2,1,70,0,0
19013,-100,4,2,1,70,0,0
19937,272.727272727273,4,2,1,70,1,0
19937,-100,4,2,1,70,0,0
20073,300,4,2,1,70,1,0
20073,-100,4,2,1,70,0,0
20388,314.96062992126,4,2,1,60,1,0
20388,-166.666666666667,4,2,1,60,0,0
22569,307.692307692308,4,2,1,60,1,0
22569,-166.666666666667,4,2,1,60,0,0
22870,308.08729139923,4,2,1,60,1,0
22870,-125,4,2,1,60,0,0
29031,-83.3333333333333,4,2,1,60,0,0
29339,-71.4285714285714,4,2,1,60,0,0
29956,-166.666666666667,4,2,1,60,0,0
30250,308.166409861325,4,2,1,70,1,0
30250,-100,4,2,1,70,0,0
31316,-166.666666666667,4,2,1,70,0,0
31470,-83.3333333333333,4,2,1,70,0,0
32086,-100,4,2,1,70,0,0
32395,-83.3333333333333,4,2,1,70,0,0
32703,-100,4,2,1,70,0,0
33781,-166.666666666667,4,2,1,70,0,0
33935,-83.3333333333333,4,2,1,70,0,0
34552,-100,4,2,1,70,0,0
34860,-83.3333333333333,4,2,1,70,0,0
35168,-76.9230769230769,4,2,1,70,0,0
35784,-100,4,2,1,70,0,0
36247,-166.666666666667,4,2,1,70,0,0
36401,-83.3333333333333,4,2,1,70,0,0
37017,-100,4,2,1,70,0,0
38712,-100,4,2,1,45,0,0
38789,-100,4,2,1,50,0,0
38866,-100,4,2,1,55,0,0
38943,-100,4,2,1,60,0,0
39020,-100,4,2,1,65,0,0
39097,-100,4,2,1,70,0,0
39174,-100,4,2,1,75,0,0
39482,-166.666666666667,4,2,1,70,0,0
40097,308.166409861325,4,2,1,70,1,0
40097,-100,4,2,1,70,0,0
40099,-125,4,2,1,70,0,0
44567,-125,4,2,1,50,0,0
44644,-125,4,2,1,55,0,0
44721,-125,4,2,1,60,0,0
44798,-125,4,2,1,65,0,0
44875,-125,4,2,1,70,0,0
44952,-125,4,2,1,70,0,0
45027,308.245568969946,4,2,1,70,1,0
45027,-100,4,2,1,70,0,0
48428,303.030303030303,4,2,1,70,1,0
48428,-100,4,2,1,70,0,0
49941,307.345558856675,4,2,1,80,1,1
49941,-71.4285714285714,4,2,1,80,0,1
50248,-76.9230769230769,4,2,1,80,0,1
50555,-83.3333333333333,4,2,1,80,0,1
51477,-76.9230769230769,4,2,1,80,0,1
51785,-83.3333333333333,4,2,1,80,0,1
53629,-76.9230769230769,4,2,1,80,0,1
53936,-83.3333333333333,4,2,1,80,0,1
54858,-71.4285714285714,4,2,1,80,0,1
55165,-83.3333333333333,4,2,1,80,0,1
56530,307.345558856675,4,2,1,80,1,1
56530,-100,4,2,1,80,0,1
56702,307.345558856675,4,2,1,80,1,1
56702,-100,4,2,1,80,0,1
57009,-125,4,2,1,80,0,1
57316,-83.3333333333333,4,2,1,80,0,1
57931,-100,4,2,1,80,0,1
58238,-76.9230769230769,4,2,1,80,0,1
58546,-83.3333333333333,4,2,1,80,0,1
59780,307.676529408748,4,2,1,70,1,0
59780,-111.111111111111,4,2,1,70,0,0
61626,-83.3333333333333,4,2,1,70,0,0
62241,-76.9230769230769,4,2,1,70,0,0
62549,-100,4,2,1,70,0,0
62714,307.676529408748,4,2,1,70,1,0
62714,-100,4,2,1,70,0,0
62850,307.676529408748,4,2,1,70,1,0
62850,-100,4,2,1,70,0,0
63157,333.333333333333,4,2,1,70,1,0
63157,-100,4,2,1,70,0,0
63490,307.676529408748,4,2,1,70,1,0
63490,-100,4,2,1,70,0,0
64097,304.568527918782,4,2,1,70,1,0
64097,-100,4,2,1,70,0,0
64391,304.568527918782,4,2,1,70,1,0
64391,-100,4,2,1,70,0,0
64709,311.364815775817,4,2,1,80,1,1
64709,-100,4,2,1,80,0,1
66888,-88.4955752212389,4,2,1,80,0,1
67026,306.122448979592,4,2,1,80,1,1
67026,-100,4,2,1,80,0,1
67628,315.789473684211,4,2,1,80,1,1
67628,-100,4,2,1,80,0,1
68259,311.364815775817,4,2,1,80,1,0
68259,-100,4,2,1,80,0,0
69654,304.568527918782,4,2,1,80,1,0
69654,-100,4,2,1,80,0,0
70263,-83.3333333333333,4,2,1,80,0,0
70567,-166.666666666667,4,2,1,80,0,0
70719,-100,4,2,1,80,0,0
71481,-83.3333333333333,4,2,1,80,0,0
71785,-71.4285714285714,4,2,1,80,0,0
72014,-100,4,2,1,80,0,0
72699,-83.3333333333333,4,2,1,80,0,0
73004,-166.666666666667,4,2,1,80,0,0
73156,-100,4,2,1,80,0,0
73613,315.789473684211,4,2,1,80,1,0
73613,-100,4,2,1,80,0,0
73929,309.278350515464,4,2,1,70,1,0
73929,-100,4,2,1,70,0,0
74083,285.714285714286,4,2,1,70,1,0
74083,-100,4,2,1,70,0,0
74382,322.58064516129,4,2,1,70,1,0
74382,-100,4,2,1,70,0,0
74557,306.122448979592,4,2,1,70,1,0
74557,-100,4,2,1,70,0,0
75169,-83.3333333333333,4,2,1,70,0,0
75477,310.880829015544,4,2,1,70,1,0
75477,-166.666666666667,4,2,1,70,0,0
75632,-100,4,2,1,70,0,0
76409,-83.3333333333333,4,2,1,70,0,0
76700,310.880829015544,4,2,1,70,1,0
76700,-71.4285714285714,4,2,1,70,0,0
77005,307.692307692308,4,2,1,70,1,0
77005,-100,4,2,1,70,0,0
77620,-83.3333333333333,4,2,1,70,0,0
77928,-166.666666666667,4,2,1,70,0,0
78089,307.692307692308,4,2,1,70,1,0
78089,-100,4,2,1,70,0,0
79012,285.714285714286,4,2,1,70,1,0
79012,-100,4,2,1,70,0,0
79166,307.692307692308,4,2,1,70,1,0
79166,-100,4,2,1,70,0,0
79464,312.5,4,2,1,70,1,0
79464,-100,4,2,1,70,0,0
80245,285.714285714286,4,2,1,70,1,0
80245,-100,4,2,1,70,0,0
80395,312.5,4,2,1,70,1,0
80395,-100,4,2,1,70,0,0
80688,400,4,2,1,70,1,0
80688,-50,4,2,1,70,0,0
80888,-55.5555555555556,4,2,1,70,0,0
81120,458.015267175573,4,2,1,70,1,0
81120,-62.5,4,2,1,70,0,0
81346,458.015267175573,4,2,1,70,1,0
81346,-71.4285714285714,4,2,1,70,0,0
81549,410.958904109589,4,2,1,70,1,0
81549,-83.3333333333333,4,2,1,70,0,0
81754,-100,4,2,1,70,0,0
81958,307.692307692308,4,2,1,70,1,0
81958,-100,4,2,1,70,0,0
83152,300,4,2,1,70,1,0
83152,-100,4,2,1,70,0,0
84068,307.692307692308,4,2,1,70,1,0
84068,-71.4285714285714,4,2,1,70,0,0
84221,-333.333333333333,4,2,1,70,0,0
84529,-333.333333333333,4,2,1,65,0,0
85298,-333.333333333333,4,2,1,60,0,0
85914,-333.333333333333,4,2,1,55,0,0
86529,-333.333333333333,4,2,1,50,0,0
87144,-333.333333333333,4,2,1,45,0,0
87760,-333.333333333333,4,2,1,40,0,0
88068,-333.333333333333,4,2,1,50,0,0

[Colours]
Combo1 : 255,128,191
Combo2 : 191,191,191
Combo3 : 191,128,255
Combo4 : 128,191,255

[HitObjects]
232,40,7936,5,8,0:1:0:0:
232,40,8012,1,8,0:1:0:0:
232,40,8089,6,0,B|222:78|222:78|227:94|227:94|215:143,1,91,10|0,0:0|0:0,0:0:0:0:
255,194,8289,2,0,B|239:209|222:208|222:208|131:180,1,81.8999975006104,10|0,0:1|0:0,0:0:0:0:
124,144,8489,2,0,P|88:141|55:157,1,72.8,10|0,0:0|0:0,0:0:0:0:
14,222,8689,2,0,L|4:284,1,63.6999980560303,10|0,0:1|0:0,0:0:0:0:
86,265,8889,2,0,L|74:349,1,54.5999983337403,10|0,0:0|0:0,0:0:0:0:
128,376,9089,2,0,P|150:379|172:384,1,45.5,10|0,0:0|0:0,0:0:0:0:
285,299,9329,6,0,P|268:210|255:147,1,136.499995834351,14|0,0:1|0:0,0:0:0:0:
232,137,9955,1,8,0:0:0:0:
232,137,10030,1,8,0:0:0:0:
232,137,10105,2,0,P|196:142|170:144,1,45.5,8|8,0:0|0:0,0:0:0:0:
347,200,10255,5,8,0:0:0:0:
347,200,10328,1,8,0:0:0:0:
347,200,10401,2,0,P|369:197|392:193,1,45.5,8|8,0:0|0:0,0:0:0:0:
149,60,10564,5,14,0:1:0:0:
208,250,10717,1,2,0:0:0:0:
257,52,10871,1,10,0:0:0:0:
66,127,11025,1,10,0:0:0:0:
259,166,11179,6,0,B|351:159|300:114|427:98,1,163.799995001221,10|0,0:1|0:0,0:0:0:0:
421,115,11487,2,0,P|410:134|405:153,1,27.6002991668701,8|0,0:0|0:0,0:0:0:0:
404,334,11640,6,0,P|394:291|365:195,1,136.5,10|0,0:1|0:0,0:0:0:0:
452,199,11948,1,10,0:1:0:0:
288,309,12102,1,10,0:0:0:0:
101,163,12256,1,10,0:0:0:0:
0,349,12410,6,0,B|47:354|69:313|69:313|104:284|155:295,1,164.182195001221,10|0,0:1|0:0,0:0:0:0:
161,368,12717,2,0,P|71:324|113:212,1,191.099994168091,10|0,0:0|0:0,0:0:0:0:
168,38,13025,5,14,0:1:0:0:
210,194,13179,1,2,0:0:0:0:
57,90,13333,1,10,0:0:0:0:
262,34,13487,1,10,0:0:0:0:
358,189,13640,6,0,B|343:208|324:220|324:220|199:191,1,164.182195001221,10|0,0:1|0:0,0:0:0:0:
195,167,13948,2,0,P|234:175|242:176,1,27.6002991668701,8|0,0:0|0:0,0:0:0:0:
347,66,14102,6,0,B|429:82|386:121|484:140,1,136.8185,10|0,0:1|0:0,0:0:0:0:
475,152,14410,1,10,0:1:0:0:
383,303,14564,5,10,0:0:0:0:
279,128,14717,1,10,0:0:0:0:
432,226,14871,5,10,0:1:0:0:
226,313,15025,1,10,0:0:0:0:
246,318,15093,1,10,0:0:0:0:
264,323,15161,5,10,0:1:0:0:
169,190,15311,1,10,0:0:0:0:
195,183,15386,1,8,0:0:0:0:
221,177,15483,5,14,0:1:0:0:
136,314,15633,1,2,0:0:0:0:
295,251,15783,1,10,0:0:0:0:
91,136,15933,1,10,0:0:0:0:
337,4,16083,6,0,P|314:88|300:165,1,164.527995001221,10|0,0:1|0:0,0:0:0:0:
323,173,16383,2,0,P|332:136|336:131,1,27.6639991668701,8|0,0:0|0:0,0:0:0:0:
166,29,16533,6,0,P|121:20|45:90,1,136.5,10|0,0:1|0:0,0:0:0:0:
111,155,16845,1,10,0:1:0:0:
241,53,17001,1,10,0:0:0:0:
385,227,17157,1,10,0:0:0:0:
510,43,17313,6,0,B|416:74|474:116|380:152,1,163.898275001221,10|0,0:1|0:0,0:0:0:0:
340,89,17625,2,0,P|460:112|455:194,1,191.214654168091,10|0,0:0|0:0,0:0:0:0:
254,333,17937,5,14,0:1:0:0:
281,197,18090,1,2,0:0:0:0:
328,13,18244,1,10,0:0:0:0:
174,154,18398,1,10,0:0:0:0:
0,71,18552,6,0,P|17:167|28:242,1,164.182195001221,10|0,0:1|0:0,0:0:0:0:
51,237,18860,2,0,P|46:211|42:191,1,27.6002991668701,8|0,0:0|0:0,0:0:0:0:
253,137,19013,6,0,P|303:130|390:116,1,136.8185,10|0,0:1|0:0,0:0:0:0:
408,130,19321,1,10,0:1:0:0:
175,179,19475,5,10,0:0:0:0:
405,297,19629,1,10,0:0:0:0:
339,97,19783,5,10,0:1:0:0:
332,263,19937,1,10,0:0:0:0:
327,241,20005,1,8,0:0:0:0:
322,219,20073,5,10,0:1:0:0:
462,45,20223,1,10,0:0:0:0:
456,70,20298,1,8,0:0:0:0:
450,95,20388,6,0,P|397:117|337:134,1,109.519406667481,14|10,0:1|0:1,0:0:0:0:
417,194,20860,1,2,0:0:0:0:
332,263,21017,2,0,P|272:241|207:231,1,109.199996667481,10|8,0:1|0:1,0:0:0:0:
135,186,21490,1,2,0:0:0:0:
27,305,21647,6,0,P|37:346|41:363,1,54.9330583337403,10|0,0:1|0:0,0:0:0:0:
181,273,21962,2,0,P|171:314|166:334,1,54.9330583337403,10|0,0:1|0:0,0:0:0:0:
48,200,22277,6,0,P|58:159|63:130,1,54.9330583337403,10|0,0:1|0:0,0:0:0:0:
216,179,22569,2,0,P|206:138|199:104,1,54.8456983337405,10|0,0:3|0:0,0:0:0:0:
113,297,22870,6,0,P|158:280|201:271,1,72.8,14|0,0:1|0:0,0:0:0:0:
203,292,23101,2,0,P|229:288|249:290,1,36.4,0|8,0:0|0:1,0:0:0:0:
216,179,23332,1,2,0:0:0:0:
305,75,23486,6,0,P|300:153|303:173,1,72.8412533333334,8|0,0:1|0:0,0:0:0:0:
316,170,23717,2,0,P|319:196|330:227,1,36.4,0|8,0:0|0:1,0:0:0:0:
421,108,23948,1,8,0:3:0:0:
472,251,24102,6,0,P|426:237|381:234,1,72.8412533333334,10|0,0:1|0:0,0:0:0:0:
491,91,24333,1,0,0:0:0:0:
491,91,24410,2,0,P|438:106|399:108,1,72.8412533333334,10|0,0:1|0:0,0:0:0:0:
318,260,24718,6,0,P|309:224|284:165,1,72.8412533333334,10|0,0:1|0:0,0:0:0:0:
282,16,25026,1,10,0:1:0:0:
350,61,25180,1,4,0:3:0:0:
227,155,25334,6,0,P|187:166|155:175,1,72.8412533333334,10|0,0:1|0:0,0:0:0:0:
138,201,25565,2,0,P|106:211|93:214,1,36.4,0|8,0:0|0:1,0:0:0:0:
158,290,25796,1,2,0:0:0:0:
18,177,25950,6,0,P|33:236|43:274,1,72.8,10|0,0:1|0:0,0:0:0:0:
37,280,26181,2,0,P|47:314|51:327,1,36.4,0|8,0:0|0:1,0:0:0:0:
145,138,26413,1,10,0:3:0:0:
248,291,26567,6,0,P|291:303|342:321,1,72.8412533333334,10|0,0:1|0:0,0:0:0:0:
348,296,26798,2,0,P|376:303|396:310,1,36.4,0|8,0:0|0:1,0:0:0:0:
288,213,27029,1,2,0:0:0:0:
446,164,27183,6,0,P|431:215|427:247,1,72.8412533333334,10|0,0:1|0:0,0:0:0:0:
401,240,27414,2,0,P|406:191|408:180,1,36.4,0|8,0:0|0:1,0:0:0:0:
312,126,27645,1,6,0:3:0:0:
221,318,27799,6,0,P|208:271|188:224,1,72.8412533333334,10|0,0:1|0:0,0:0:0:0:
170,234,28030,2,0,P|150:201|137:188,1,36.4,0|8,0:0|0:1,0:0:0:0:
64,130,28261,1,2,0:0:0:0:
247,77,28415,6,0,P|217:112|184:138,1,72.8,10|0,0:1|0:0,0:0:0:0:
294,257,28646,1,0,0:0:0:0:
294,257,28723,2,0,P|287:226|262:177,1,72.8412533333334,10|8,0:1|0:3,0:0:0:0:
471,58,29031,6,0,B|435:33|393:65|393:65|373:108|306:109,1,163.892815001221,8|0,0:1|0:0,0:0:0:0:
247,77,29339,2,0,B|360:113|288:151|426:202,1,191.208284168091,10|0,0:1|0:0,0:0:0:0:
471,159,29647,1,14,0:1:0:0:
266,375,29956,6,0,P|235:363|179:353,1,81.9464075006106,8|0,0:0|0:0,0:0:0:0:
308,253,30250,5,12,0:1:0:0:
427,355,30404,1,2,0:0:0:0:
221,277,30558,1,10,0:0:0:0:
367,202,30712,1,2,0:0:0:0:
274,152,30866,2,0,P|290:232|307:343,1,182.19656,10|8,0:1|0:0,0:0:0:0:
506,206,31328,6,0,P|494:235|489:251,1,27.3294831668701,2|2,0:0|0:0,0:0:0:0:
498,262,31482,2,0,B|362:194|461:175|336:102,1,218.635865334961,10|10,0:1|0:0,0:0:0:0:
245,25,31944,1,2,0:0:0:0:
155,53,32098,2,0,P|223:67|261:68,1,91.09828,10|0,0:1|0:0,0:0:0:0:
82,295,32407,2,0,P|47:221|-5:137,1,163.976899001221,10|0,0:0|0:0,0:0:0:0:
8,122,32715,6,0,B|41:96|95:115|95:115|122:160|206:161,1,182.19656,10|8,0:1|0:0,0:0:0:0:
258,292,33177,1,0,0:0:0:0:
218,359,33331,2,0,B|208:235|208:235|218:210|254:200,1,182.19656,10|8,0:1|0:0,0:0:0:0:
473,300,33793,6,0,P|470:279|472:248,1,27.3294831668701,2|2,0:0|0:0,0:0:0:0:
472,245,33947,2,0,B|347:194|437:161|299:98,1,218.635865334961,10|10,0:1|0:0,0:0:0:0:
108,192,34410,1,2,0:0:0:0:
160,262,34564,2,0,P|93:272|55:283,1,91.09828,10|2,0:1|0:0,0:0:0:0:
198,142,34872,2,0,P|149:118|101:88,1,109.317932667481,10|2,0:0|0:0,0:0:0:0:
277,350,35180,6,0,B|362:316|362:316|383:268|383:268|481:232,1,236.855517169312,14|8,0:1|0:0,0:0:0:0:
390,66,35642,1,2,0:0:0:0:
446,1,35796,2,0,P|418:116|404:193,1,182.19656,10|8,0:1|0:0,0:0:0:0:
351,358,36259,6,0,P|356:330|364:307,1,27.3294831668701,2|0,0:0|0:0,0:0:0:0:
363,304,36413,2,0,B|333:261|260:278|260:278|211:328|139:309,1,218.635865334961,10|8,0:1|0:0,0:0:0:0:
36,247,36875,1,2,0:0:0:0:
63,333,37029,2,0,P|76:229|87:118,1,182.19656,10|10,0:1|0:0,0:0:0:0:
243,217,37491,5,2,0:0:0:0:
163,181,37645,2,0,P|218:132|326:182,1,182.19656,10|8,0:1|0:0,0:0:0:0:
420,99,38108,1,2,0:0:0:0:
490,63,38262,2,0,B|491:35|461:12|461:12|320:32,1,182.19656,8|10,0:1|0:0,0:0:0:0:
385,226,38724,5,2,0:0:0:0:
392,244,38801,1,2,0:0:0:0:
400,263,38878,6,0,P|361:256|326:249,1,45.54914,10|2,0:1|0:0,0:0:0:0:
252,210,39032,2,0,P|291:203|321:195,1,45.54914,2|2,0:0|0:0,0:0:0:0:
296,322,39186,6,0,P|289:283|283:255,1,45.54914,2|2,0:0|0:0,0:0:0:0:
374,140,39340,2,0,P|367:179|359:210,1,45.54914,2|2,0:0|0:0,0:0:0:0:
376,337,39494,1,6,0:0:0:0:
108,142,39803,6,0,P|64:137|13:125,1,81.9884495006104,8|0,0:0|0:0,0:0:0:0:
164,276,40097,5,10,0:1:0:0:
115,338,40251,2,0,P|130:273|143:241,1,72.878624,2|8,0:0|0:1,0:0:0:0:
136,19,40559,5,2,0:0:0:0:
197,65,40713,2,0,P|199:100|204:122,1,36.4,10|0,0:1|0:0,0:0:0:0:
264,191,40867,2,0,P|264:172|266:154,2,36.4,2|2|10,0:0|0:0|0:1,0:0:0:0:
459,70,41175,5,2,0:0:0:0:
495,167,41329,1,10,0:1:0:0:
442,221,41483,2,0,P|450:163|463:125,1,72.878624,2|8,0:0|0:1,0:0:0:0:
353,267,41791,2,0,P|331:262|311:256,1,36.4,2|2,0:0|0:0,0:0:0:0:
295,249,41945,2,0,P|320:298|329:326,1,72.878624,10|0,0:1|0:0,0:0:0:0:
475,303,42177,1,2,0:0:0:0:
475,303,42254,2,0,P|428:329|400:351,1,72.878624,10|2,0:1|0:0,0:0:0:0:
237,109,42562,5,10,0:1:0:0:
304,162,42716,2,0,P|256:152|200:144,1,72.878624,2|8,0:0|0:1,0:0:0:0:
82,1,43024,5,2,0:0:0:0:
62,80,43178,2,0,L|110:109,1,36.439312,10|0,0:1|0:0,0:0:0:0:
159,182,43332,2,0,P|146:221|142:236,2,36.4,2|2|10,0:0|0:0|0:1,0:0:0:0:
46,363,43640,5,2,0:0:0:0:
19,277,43794,1,10,0:1:0:0:
196,320,43949,6,0,P|228:311|251:308,1,36.4,2|2,0:0|0:0,0:0:0:0:
254,323,44103,1,10,0:1:0:0:
341,228,44257,1,2,0:0:0:0:
460,305,44411,2,0,P|424:314|398:323,1,36.439312,14|0,0:1|0:0,0:0:0:0:
243,214,44565,5,8,0:0:0:0:
234,191,44642,1,10,0:0:0:0:
204,174,44719,1,8,0:0:0:0:
159,182,44796,1,10,0:0:0:0:
131,223,44873,1,8,0:0:0:0:
88,239,44950,1,8,0:0:0:0:
45,217,45027,5,14,0:1:0:0:
116,62,45181,1,2,0:0:0:0:
196,274,45335,5,8,0:0:0:0:
46,99,45489,1,10,0:1:0:0:
50,120,45566,1,8,0:1:0:0:
55,140,45643,1,14,0:0:0:0:
213,79,45797,5,8,0:1:0:0:
360,213,45951,2,0,P|408:204|465:193,1,91.1449933333333,10|8,0:0|0:1,0:0:0:0:
235,346,46259,5,10,0:0:0:0:
179,192,46414,1,8,0:1:0:0:
402,54,46568,5,10,0:0:0:0:
379,133,46722,1,10,0:1:0:0:
196,274,46876,6,8,L|146:287,1,45.5,10|8,0:0|0:0,0:0:0:0:
318,344,47030,2,8,L|370:368,1,45.5
274,217,47184,5,10,0:1:0:0:
419,295,47338,1,8,0:0:0:0:
131,136,47492,5,14,0:1:0:0:
137,164,48109,5,12,0:1:0:0:
311,317,48428,5,8,0:0:0:0:
407,87,48579,2,0,P|382:192|371:295,1,182.0364,10|8,0:1|0:0,0:0:0:0:
231,155,49034,5,8,0:0:0:0:
83,37,49185,1,8,0:0:0:0:
372,265,49337,5,4,0:0:0:0:
54,345,49941,6,0,B|122:327|122:327|156:293|156:293|264:267,1,191.115197234758,14|0,0:1|0:0,0:0:0:0:
299,308,50248,2,0,B|197:267|259:237|148:203,1,177.464109010318,10|0,0:0|0:0,0:0:0:0:
22,74,50555,1,10,0:1:0:0:
128,11,50709,1,8,0:1:0:0:
246,167,50863,2,0,P|182:177|108:187,1,109.445551067481,10|0,0:0|0:0,0:0:0:0:
254,4,51170,6,0,P|292:93|331:170,1,163.813026201221,10|0,0:1|0:0,0:0:0:0:
329,184,51477,2,0,B|427:137|358:113|468:68,1,177.464109010318,10|0,0:0|0:0,0:0:0:0:
382,259,51785,1,10,0:1:0:0:
245,192,51938,1,8,0:1:0:0:
126,353,52092,2,0,P|117:294|107:237,1,109.445551067481,10|0,0:0|0:0,0:0:0:0:
267,113,52399,5,10,0:1:0:0:
63,41,52553,1,2,0:0:0:0:
86,162,52707,5,10,0:0:0:0:
238,5,52860,1,2,0:0:0:0:
294,204,53014,5,10,0:1:0:0:
142,70,53168,1,10,0:1:0:0:
423,17,53321,6,0,P|408:116|403:212,1,163.813026201221,10|0,0:0|0:0,0:0:0:0:
412,208,53629,2,0,B|327:175|327:175|294:131|294:131|189:93,1,237.132023702646,10|8,0:1|0:0,0:0:0:0:
162,346,54090,1,0,0:0:0:0:
338,265,54243,1,8,0:1:0:0:
221,215,54397,1,8,0:1:0:0:
80,348,54551,6,0,P|158:308|245:341,1,163.813026201221,10|0,0:0|0:0,0:0:0:0:
335,300,54858,2,0,B|433:266|372:227|494:187,1,191.115197234758,14|0,0:1|0:0,0:0:0:0:
509,201,55165,2,0,P|499:259|492:338,1,109.445551067481,10|0,0:0|0:0,0:0:0:0:
340,148,55473,1,10,0:1:0:0:
221,215,55626,1,8,0:1:0:0:
389,41,55780,2,0,P|461:57|506:64,1,109.445551067481,10|0,0:0|0:0,0:0:0:0:
333,264,56087,5,10,0:1:0:0:
247,69,56241,1,2,0:0:0:0:
43,187,56395,5,10,0:0:0:0:
201,137,56530,1,2,0:0:0:0:
412,269,56702,5,10,0:1:0:0:
253,201,56855,1,10,0:1:0:0:
127,282,57009,6,0,P|183:297|245:323,1,109.208687466667,10|0,0:0|0:0,0:0:0:0:
243,340,57316,2,0,B|280:344|300:316|300:316|285:135,1,218.891102134961,10|8,0:1|0:0,0:0:0:0:
438,52,57777,1,2,0:0:0:0:
482,126,57931,2,0,P|484:71|493:21,1,91.2046286666669,10|8,0:1|0:1,0:0:0:0:
321,15,58238,6,0,B|215:45|275:88|129:130,1,177.464109010318,8|0,0:0|0:0,0:0:0:0:
102,176,58546,2,0,P|94:135|78:68,1,109.445551067481,10|8,0:1|0:0,0:0:0:0:
231,184,58776,1,8,0:0:0:0:
231,184,58853,2,0,P|239:143|253:87,1,54.5999983337403,8|0,0:0|0:0,0:0:0:0:
154,19,59007,2,0,P|159:45|164:72,1,54.5999983337403,10|8,0:0|0:0,0:0:0:0:
237,278,59160,5,10,0:1:0:0:
211,273,59237,1,8,0:0:0:0:
173,237,59314,1,8,0:0:0:0:
148,188,59391,1,8,0:0:0:0:
102,176,59468,5,8,0:1:0:0:
237,114,59621,1,8,0:0:0:0:
437,13,59780,6,0,P|379:12|328:10,1,81.8999975006104,14|0,0:1|0:0,0:0:0:0:
312,8,60010,1,8,0:0:0:0:
312,8,60087,2,0,P|322:59|331:122,1,81.8999975006104,8|10,0:1|0:0,0:0:0:0:
468,196,60395,6,0,P|455:253|449:298,1,81.8999975006104,10|0,0:1|0:0,0:0:0:0:
455,318,60626,1,8,0:0:0:0:
455,318,60703,2,0,L|353:305,1,81.8999975006104,8|10,0:1|0:0,0:0:0:0:
252,225,61010,6,0,P|269:282|287:338,1,81.8999975006104,10|0,0:1|0:0,0:0:0:0:
273,331,61241,1,8,0:0:0:0:
273,331,61318,1,8,0:1:0:0:
212,376,61472,1,10,0:0:0:0:
159,253,61626,6,0,B|119:237|85:272|85:272|68:312|13:320,1,164.165414601221,10|8,0:1|0:0,0:0:0:0:
4,339,61933,1,10,0:1:0:0:
14,207,62087,1,8,0:0:0:0:
31,47,62241,6,0,B|92:62|92:62|126:106|126:106|217:128,1,177.845863110317,14|8,0:1|0:0,0:0:0:0:
199,141,62549,1,10,0:1:0:0:
299,52,62714,1,8,0:0:0:0:
364,113,62850,5,10,0:1:0:0:
381,109,62926,1,8,0:0:0:0:
432,123,63003,1,10,0:1:0:0:
449,118,63080,1,8,0:0:0:0:
497,137,63157,2,0,P|483:204|473:253,1,91.4001876666665,10|10,0:1|0:0,0:0:0:0:
407,326,63490,5,12,0:1:0:0:
318,225,63643,5,8,0:0:0:0:
319,210,63720,1,8,0:0:0:0:
290,180,63797,5,10,0:1:0:0:
240,173,63874,1,8,0:0:0:0:
201,197,63951,1,8,0:0:0:0:
175,234,64028,1,8,0:0:0:0:
177,255,64097,5,8,0:1:0:0:
138,287,64173,1,8,0:0:0:0:
88,292,64249,1,8,0:0:0:0:
43,270,64325,1,8,0:0:0:0:
42,247,64391,5,10,0:1:0:0:
238,151,64543,1,10,0:0:0:0:
441,52,64709,6,0,P|414:132|408:170,1,91.2132433333331,14|0,0:1|0:0,0:0:0:0:
229,348,65020,5,8,0:0:0:0:
143,130,65176,1,10,0:1:0:0:
314,322,65331,5,10,0:0:0:0:
100,223,65487,1,8,0:1:0:0:
323,133,65643,5,8,0:0:0:0:
166,303,65798,1,8,0:1:0:0:
82,54,65954,5,8,0:0:0:0:
286,210,66110,1,8,0:1:0:0:
20,248,66265,5,8,0:0:0:0:
228,65,66421,1,8,0:1:0:0:
158,336,66577,5,8,0:0:0:0:
14,121,66732,1,8,0:1:0:0:
243,294,66888,5,10,0:0:0:0:
286,210,67026,1,8,0:1:0:0:
114,2,67179,5,14,0:0:0:0:
187,223,67332,1,8,0:1:0:0:
236,368,67485,1,8,0:1:0:0:
489,91,67628,5,10,0:0:0:0:
228,147,67785,1,10,0:1:0:0:
60,182,67943,1,8,0:1:0:0:
318,6,68101,5,8,0:0:0:0:
377,245,68259,1,10,0:1:0:0:
370,275,69348,5,10,0:0:0:0:
103,90,69654,5,14,0:1:0:0:
239,23,69806,1,2,0:0:0:0:
159,243,69958,1,10,0:0:0:0:
23,126,70110,1,10,0:0:0:0:
246,120,70263,6,0,B|345:107|297:63|406:50,1,164.411515001221,10|0,0:1|0:0,0:0:0:0:
417,32,70567,2,0,P|411:55|408:78,1,27.4019191668701,8|0,0:0|0:0,0:0:0:0:
316,188,70719,6,0,P|334:260|350:335,1,136.5,10|0,0:1|0:0,0:0:0:0:
421,354,71024,1,10,0:1:0:0:
260,283,71176,1,10,0:0:0:0:
134,382,71329,1,10,0:0:0:0:
12,190,71481,6,0,B|40:173|62:185|62:185|80:310,1,164.411515001221,10|0,0:1|0:0,0:0:0:0:
6,318,71785,2,0,B|81:330|81:330|114:364|114:364|224:380,1,191.813434168091,10|0,0:0|0:0,0:0:0:0:
291,198,72090,5,14,0:1:0:0:
170,298,72242,1,2,0:0:0:0:
362,269,72395,1,10,0:0:0:0:
258,112,72547,1,10,0:0:0:0:
443,29,72699,6,0,P|424:98|404:199,1,164.411515001221,10|0,0:1|0:0,0:0:0:0:
425,209,73004,2,0,P|430:166|429:159,1,27.4019191668701,8|0,0:0|0:0,0:0:0:0:
314,36,73156,6,0,B|234:64|284:94|178:126,1,137.0096,10|0,0:1|0:0,0:0:0:0:
182,119,73461,1,10,0:1:0:0:
301,205,73613,5,10,0:0:0:0:
126,224,73770,1,10,0:0:0:0:
285,120,73929,5,10,0:1:0:0:
213,322,74083,1,10,0:0:0:0:
210,303,74154,1,8,0:0:0:0:
207,284,74225,5,10,0:2:0:0:
383,154,74382,1,10,0:0:0:0:
379,181,74462,1,8,0:0:0:0:
375,208,74557,5,14,0:1:0:0:
350,334,74710,1,2,0:0:0:0:
206,169,74863,1,10,0:0:0:0:
402,129,75016,1,10,0:0:0:0:
256,0,75169,6,0,P|265:77|277:173,1,163.799995001221,10|0,0:1|0:0,0:0:0:0:
301,183,75477,2,0,L|295:136,1,27.4546991668701,8|0,0:0|0:0,0:0:0:0:
152,38,75632,6,0,P|96:33|36:106,1,136.5,10|0,0:1|0:0,0:0:0:0:
66,185,75943,1,10,0:1:0:0:
215,140,76098,1,10,0:0:0:0:
418,79,76254,1,10,0:0:0:0:
411,289,76409,6,0,B|371:292|355:269|355:269|362:149,1,164.025675001221,10|0,0:1|0:0,0:0:0:0:
411,108,76700,2,0,B|303:148|376:191|244:246,1,191.363287501425,10|0,0:0|0:0,0:0:0:0:
48,160,77005,5,14,0:1:0:0:
200,206,77158,1,2,0:0:0:0:
419,268,77312,1,10,0:0:0:0:
256,374,77466,1,10,0:0:0:0:
99,241,77620,6,0,P|89:153|75:64,1,164.182195001221,10|0,0:1|0:0,0:0:0:0:
100,73,77928,2,0,P|108:112|109:124,1,27.6002991668701,8|0,0:0|0:0,0:0:0:0:
186,265,78089,6,0,B|228:273|256:242|256:242|291:219|350:244,1,136.8185,10|0,0:1|0:0,0:0:0:0:
422,106,78396,1,10,0:1:0:0:
380,283,78550,5,10,0:0:0:0:
233,174,78704,1,10,0:0:0:0:
212,10,78858,5,10,0:1:0:0:
79,197,79012,1,10,0:0:0:0:
94,205,79083,1,8,0:0:0:0:
110,214,79166,1,10,0:0:0:0:
245,122,79319,5,10,0:0:0:0:
239,148,79396,1,8,0:0:0:0:
233,174,79464,1,8,0:1:0:0:
363,352,79620,5,14,0:0:0:0:
473,195,79776,1,14,0:0:0:0:
340,204,79932,5,2,0:0:0:0:
485,284,80089,1,10,0:1:0:0:
410,96,80245,5,10,0:0:0:0:
407,86,80316,1,10,0:0:0:0:
405,77,80395,1,10,0:1:0:0:
324,11,80551,2,8,L|310:56,1,30.3333333333333,10|8,0:0|0:0,0:0:0:0:
295,57,80688,6,0,P|246:53|184:45,1,91,14|0,0:1|0:0,0:0:0:0:
138,14,80888,2,0,B|126:16|118:34|118:34|135:106,1,81.8999975006104,10|0,0:1|0:0,0:0:0:0:
198,123,81120,2,0,B|190:153|190:153|194:171|194:171|189:207,1,72.8048533333335,14|0,0:0|0:0,0:0:0:0:
124,239,81346,2,0,P|119:279|124:309,1,63.7042447226971,10|0,0:1|0:0,0:0:0:0:
211,341,81549,2,0,L|221:262,1,54.8547983337403,14|0,0:0|0:0,0:0:0:0:
289,253,81754,2,0,L|298:184,1,45.7123333333333,10|0,0:0|0:0,0:0:0:0:
450,130,81959,5,14,0:1:0:0:
451,148,82265,5,2,0:0:0:0:
452,166,82573,5,2,0:0:0:0:
453,184,82881,5,2,0:0:0:0:
454,202,83152,5,10,0:1:0:0:
437,228,83227,1,10,0:0:0:0:
404,238,83302,1,10,0:0:0:0:
366,213,83377,1,10,0:0:0:0:
354,165,83452,5,10,0:1:0:0:
313,134,83527,1,10,0:0:0:0:
258,149,83602,1,10,0:0:0:0:
237,197,83677,1,10,0:0:0:0:
243,215,83752,1,10,0:1:0:0:
42,359,84068,6,0,L|37:237,1,64.4006980560305,14|0,0:0|0:0,0:0:0:0:
35,136,84221,6,0,B|78:119|155:149|148:189|110:228|101:306|162:359|244:374|321:336|359:266|346:205|313:149|263:116|213:123|142:176|139:58|151:27,1,682.554579171756,14|12,0:0|0:1,0:0:0:0:
